<svg xmlns="http://www.w3.org/2000/svg">
<defs>
<font id="PTSerif-BoldItalic" horiz-adv-x="560" >
  <font-face 
    font-family="PT Serif"
    font-weight="700"
    font-style="italic"
    font-stretch="normal"
    units-per-em="1000"
    panose-1="2 10 7 3 4 5 5 9 2 4"
    ascent="800"
    descent="-200"
    x-height="509"
    cap-height="700"
    bbox="-261 -286 1182 1019"
    underline-thickness="50"
    underline-position="-150"
    slope="-12"
    unicode-range="U+0020-FB02"
  />
<missing-glyph horiz-adv-x="709" 
d="M50 700h650v-700h-650v700zM570 650l-195 -217l-195 217l-50 -50l197 -220l-197 -220l50 -50l195 217l195 -217l50 50l-198 220l198 220zM162 68h-35v-7h13v-35h9v35h13v7zM271 58h-2q-1 0 -2 1q-4 0 -9 -5v4h-7v-32h8v20q3 5 7 5q2 0 4 -1zM276 65q0 -5 4 -5q5 0 5 4
q0 5 -5 5q-4 0 -4 -4zM276 26h9v32h-9v-32zM291 51h5v-25h8v25h8v7h-8q0 2 1 3t3 1h3h3l1 6q0 1 -4 1h-5h-4q-1 0 -3 -1.5t-2 -2.5q-1 -2 -1 -5v-2h-5v-7zM331 45q0 -25 23 -25q11 0 17.5 6t6.5 19q0 23 -24 23q-10 0 -16.5 -6t-6.5 -17zM338 45q0 17 16 17q17 0 17 -17
q0 -18 -17 -18q-16 0 -16 18zM361 40q-2 -1 -4 -1q-5 0 -5 6q0 4 5 4h3l3 5q-4 2 -9 2q-10 0 -10 -11q0 -13 10 -13q5 0 9 2zM402 27h9v14h5q7 0 12.5 3t5.5 11q0 10 -6 12t-13 2h-13v-42zM416 62q9 0 9 -6t-2.5 -6.5t-7.5 -0.5h-4v13h5zM440 51q3 1 5.5 1.5t5.5 0.5
q5 0 5 -5v-2q-1 0 -2 0.5t-3 0.5q-15 0 -15 -12q0 -9 10 -9q7 0 10 6l3 -5h7q-1 1 -1 8v13q0 12 -12 12q-5 0 -9 -1.5t-6 -2.5zM450 33q-5 0 -5 5q0 4 6 4q2 0 3 -0.5t2 -0.5v-3q-1 -5 -6 -5zM494 59q-2 1 -5 1q-5 0 -7 -6h-1l-1 5h-7v-32h9v20q0 5 7 5q1 0 1 -0.5t1 -0.5h1
zM499 51q10 2 11 2q6 0 6 -5v-2q-2 0 -3 0.5t-3 0.5q-15 0 -15 -12q0 -9 10 -9q8 0 11 6h1l1 -5h7q-1 1 -1 8v13q0 12 -12 12q-5 0 -8 -1.5t-6 -2.5zM509 33q-5 0 -5 5q0 4 6 4q2 0 3 -0.5t3 -0.5v-3q-3 -5 -7 -5zM557 69h-36v-7h14v-35h8v35h14v7zM567 59h-10l14 -32
q-2 -5 -5 -5l-2 1l-2 -7q1 -1 6 -1q7 0 11 15l12 29h-9l-6 -18v-6h-1l-1 6zM595 15h9v13q2 -2 6 -2q16 0 16 18q0 16 -13 16q-6 0 -10 -5h-2l-1 4h-5v-44zM611 53q6 0 6 -9q0 -11 -9 -11q-2 0 -4 2v12q0 6 7 6zM656 35q-2 -2 -8 -2q-8 0 -8 7h21v7q0 13 -14 13

<glyph glyph-name="fi" unicode="fi" horiz-adv-x="578" 
d="M325 500q19 0 46.5 0.5t57 2t57 4t45.5 5.5l18 -12l-83 -431h70v-34q-13 -9 -30 -17t-36.5 -14t-39.5 -9.5t-38 -3.5q-38 0 -53 14.5t-15 31.5q0 20 3 39t8 42l62 314l-150 5l-62 -394q-10 -71 -41 -118t-68.5 -75.5t-75.5 -42.5t-62 -19l-11 34q12 6 30 19.5t36 37.5
t33.5 59.5t23.5 85.5l63 413h-71v39q20 11 42.5 19.5t42.5 13.5l7 35q13 62 37 102.5t57.5 64t76 32.5t92.5 9q55 0 102 -14.5t71 -31.5q-1 -14 -7 -31.5t-17.5 -33.5t-27.5 -28.5t-37 -18.5l-85 105q-17 -1 -35.5 -7t-35.5 -22t-32 -44.5t-24 -75.5l-9 -50h65z" />
    <glyph glyph-name="fl" unicode="fl" horiz-adv-x="596" 
d="M346 118q18 92 32.5 164.5t25 128.5t18.5 96t13 68q12 65 15 87q-14 13 -29.5 22.5t-36.5 9.5q-18 0 -34.5 -5t-31.5 -20t-27.5 -43.5t-21.5 -75.5l-9 -50h95q2 -11 0 -30.5t-13 -32.5h-95q-14 -93 -28.5 -184.5t-29.5 -184.5q-12 -80 -42 -131t-67 -82.5t-75.5 -46
t-66.5 -20.5l-11 34q12 6 30 19.5t36 37.5t33.5 59.5t23.5 85.5l63 413h-71v39q20 11 42.5 19.5t42.5 13.5l7 35q23 110 80 159t151 49q20 0 37 -2t33.5 -4.5t33.5 -4t35 0.5q21 4 42 6.5t38 3.5l20 -11l-125 -672h70v-34q-10 -8 -27 -16t-37.5 -14t-42.5 -10t-42 -4
q-34 0 -49.5 14.5t-15.5 31.5q0 20 3 39t8 42z" />
    <glyph glyph-name=".notdef" horiz-adv-x="709" 
d="M50 700h650v-700h-650v700zM570 650l-195 -217l-195 217l-50 -50l197 -220l-197 -220l50 -50l195 217l195 -217l50 50l-198 220l198 220zM162 68h-35v-7h13v-35h9v35h13v7zM271 58h-2q-1 0 -2 1q-4 0 -9 -5v4h-7v-32h8v20q3 5 7 5q2 0 4 -1zM276 65q0 -5 4 -5q5 0 5 4
q0 5 -5 5q-4 0 -4 -4zM276 26h9v32h-9v-32zM291 51h5v-25h8v25h8v7h-8q0 2 1 3t3 1h3h3l1 6q0 1 -4 1h-5h-4q-1 0 -3 -1.5t-2 -2.5q-1 -2 -1 -5v-2h-5v-7zM331 45q0 -25 23 -25q11 0 17.5 6t6.5 19q0 23 -24 23q-10 0 -16.5 -6t-6.5 -17zM338 45q0 17 16 17q17 0 17 -17
q0 -18 -17 -18q-16 0 -16 18zM361 40q-2 -1 -4 -1q-5 0 -5 6q0 4 5 4h3l3 5q-4 2 -9 2q-10 0 -10 -11q0 -13 10 -13q5 0 9 2zM402 27h9v14h5q7 0 12.5 3t5.5 11q0 10 -6 12t-13 2h-13v-42zM416 62q9 0 9 -6t-2.5 -6.5t-7.5 -0.5h-4v13h5zM440 51q3 1 5.5 1.5t5.5 0.5
q5 0 5 -5v-2q-1 0 -2 0.5t-3 0.5q-15 0 -15 -12q0 -9 10 -9q7 0 10 6l3 -5h7q-1 1 -1 8v13q0 12 -12 12q-5 0 -9 -1.5t-6 -2.5zM450 33q-5 0 -5 5q0 4 6 4q2 0 3 -0.5t2 -0.5v-3q-1 -5 -6 -5zM494 59q-2 1 -5 1q-5 0 -7 -6h-1l-1 5h-7v-32h9v20q0 5 7 5q1 0 1 -0.5t1 -0.5h1
zM499 51q10 2 11 2q6 0 6 -5v-2q-2 0 -3 0.5t-3 0.5q-15 0 -15 -12q0 -9 10 -9q8 0 11 6h1l1 -5h7q-1 1 -1 8v13q0 12 -12 12q-5 0 -8 -1.5t-6 -2.5zM509 33q-5 0 -5 5q0 4 6 4q2 0 3 -0.5t3 -0.5v-3q-3 -5 -7 -5zM557 69h-36v-7h14v-35h8v35h14v7zM567 59h-10l14 -32
q-2 -5 -5 -5l-2 1l-2 -7q1 -1 6 -1q7 0 11 15l12 29h-9l-6 -18v-6h-1l-1 6zM595 15h9v13q2 -2 6 -2q16 0 16 18q0 16 -13 16q-6 0 -10 -5h-2l-1 4h-5v-44zM611 53q6 0 6 -9q0 -11 -9 -11q-2 0 -4 2v12q0 6 7 6zM656 35q-2 -2 -8 -2q-8 0 -8 7h21v7q0 13 -14 13
q-16 0 -16 -18q0 -16 16 -16q8 0 12 4zM647 53q7 0 6 -7h-13q0 7 7 7zM92 27h9v14h5q7 0 12.5 3t5.5 11q0 10 -6 12t-13 2h-13v-42zM106 62q9 0 9 -6t-2.5 -6.5t-7.5 -0.5h-4v13h5zM200 38q0 -5 -8 -5q-3 0 -5 0.5t-6 2.5l-3 -9q4 -1 7 -1.5t8 -0.5q16 0 16 14q0 5 -3.5 7.5
t-7 4l-7 3t-3.5 4.5t7 3q3 0 5.5 -0.5t5.5 -1.5l2 8q-4 1 -7 1.5t-6 0.5q-16 0 -16 -13q0 -5 3.5 -7.5t7 -4l7 -3t3.5 -3.5zM239 34q-2 -2 -8 -2q-8 0 -8 7h21v7q0 13 -14 13q-16 0 -16 -18q0 -16 16 -16q8 0 12 4zM230 52q7 0 6 -7h-13q0 7 7 7z" />
    <glyph glyph-name=".null" horiz-adv-x="0" 
 />
    <glyph glyph-name="nonmarkingreturn" horiz-adv-x="270" 
 />
    <glyph glyph-name="space" unicode=" " horiz-adv-x="270" 
 />
    <glyph glyph-name="exclam" unicode="!" horiz-adv-x="347" 
d="M158 218l-12 194l54 278q11 5 32.5 8t44.5 3t43 -3t30 -8l-60 -278l-88 -194h-44zM72 71q0 36 23 58t61 22t62 -22t24 -58t-24 -57.5t-62 -21.5t-61 21.5t-23 57.5z" />
    <glyph glyph-name="quotedbl" unicode="&#x22;" horiz-adv-x="394" 
d="M228 670q8 13 28 21.5t43 8.5q21 0 39 -7.5t20 -22.5l-78 -184h-38zM72 670q8 13 28 21.5t43 8.5q21 0 39 -7.5t20 -22.5l-78 -184h-38z" />
    <glyph glyph-name="numbersign" unicode="#" 
d="M300 220h-124l-72 -162h-71l72 162h-81l33 64h77l59 132h-77l32 64h74l74 162h70l-73 -162h124l74 162h70l-74 -162h79l-35 -64h-73l-59 -132h76l-36 -64h-69l-72 -162h-70zM205 284h124l59 132h-124z" />
    <glyph glyph-name="dollar" unicode="$" 
d="M198 -12q-27 1 -56 6.5t-54.5 12.5t-45.5 15.5t-29 16.5q12 46 27.5 79.5t31.5 56.5h41l30 -97q8 -8 25.5 -15.5t43.5 -9.5l52 244q-27 18 -54 36.5t-49.5 42t-36.5 54t-14 72.5q0 44 17 80.5t48.5 64t76 44t99.5 19.5l11 50h70l-11 -49q48 -2 86.5 -10.5t70.5 -23.5
q-9 -41 -23.5 -67t-28.5 -46h-42l-40 72q-17 5 -36 8l-48 -225q27 -17 54 -35.5t49.5 -43t36.5 -56.5t14 -77q0 -43 -16.5 -80t-47.5 -65.5t-77 -47t-104 -24.5l-13 -60h-70zM255 548q0 -32 14.5 -53.5t37.5 -39.5l41 189q-42 -6 -67.5 -30.5t-25.5 -65.5zM364 155
q0 33 -13.5 57t-35.5 44l-42 -199q37 8 64 32t27 66z" />
    <glyph glyph-name="percent" unicode="%" horiz-adv-x="827" 
d="M722 715l48 -42l-665 -686l-47 43zM55 504q0 43 18 81t49.5 66.5t74 44.5t91.5 16q76 0 118.5 -35.5t42.5 -95.5q0 -50 -20 -88.5t-53 -65.5t-75 -41t-85 -14q-33 0 -62.5 9t-51.5 26.5t-34.5 42t-12.5 54.5zM174 492q0 -27 12.5 -48t42.5 -21q18 0 36 11t33 32.5
t24 54.5t9 78q0 23 -11.5 42.5t-42.5 19.5q-18 0 -36.5 -12t-33 -34.5t-24 -53.5t-9.5 -69zM373 121q0 43 18 81t49.5 66.5t74 44.5t91.5 16q76 0 118.5 -35.5t42.5 -95.5q0 -50 -20 -88.5t-53 -65.5t-75 -41t-85 -14q-33 0 -62.5 9t-51.5 26.5t-34.5 42t-12.5 54.5z
M492 109q0 -27 12.5 -48t42.5 -21q18 0 36 11t33 32.5t24 54.5t9 78q0 23 -11.5 42.5t-42.5 19.5q-18 0 -36.5 -12t-33 -34.5t-24 -53.5t-9.5 -69z" />
    <glyph glyph-name="ampersand" unicode="&#x26;" horiz-adv-x="898" 
d="M477 116q-26 27 -51.5 62t-47 71t-38.5 70t-26 58q-42 -37 -66 -83t-25 -99q0 -27 8.5 -51t24.5 -42t40 -28.5t55 -10.5q30 0 64 12.5t62 40.5zM369 563q0 -31 11 -59.5t28 -55.5q39 26 66.5 63.5t27.5 80.5q0 26 -11 45.5t-40 19.5q-35 0 -58.5 -27t-23.5 -67zM600 0
q-18 12 -41.5 28.5t-43.5 42.5q-19 -16 -44 -31t-54 -26.5t-60.5 -18.5t-63.5 -7q-64 0 -107.5 15.5t-70.5 40.5t-38.5 56.5t-11.5 63.5q0 48 22.5 90t55.5 76.5t71 61t70 42.5q-18 27 -27 57.5t-9 59.5q0 36 15.5 65.5t42 51t62.5 33t77 11.5q75 0 109 -31t34 -83
q0 -30 -14.5 -58.5t-38 -53.5t-52 -46.5t-55.5 -36.5q50 -96 145 -202q10 11 25.5 37t30 59t24 70t8.5 70q-15 3 -25.5 9t-21.5 15l8 39h228l-9 -39q-30 -16 -71 -24q-14 -43 -33 -85t-40 -79t-42.5 -66t-39.5 -45q29 -31 59.5 -55t61.5 -44l46 -24l-8 -39h-174z" />
    <glyph glyph-name="quotesingle" unicode="'" horiz-adv-x="238" 
d="M72 670q8 13 28 21.5t43 8.5q21 0 39 -7.5t20 -22.5l-78 -184h-38z" />
    <glyph glyph-name="parenleft" unicode="(" horiz-adv-x="374" 
d="M249 -210q-42 29 -77.5 63t-61.5 75t-40.5 90.5t-14.5 109.5q0 113 36.5 204.5t93.5 163t126.5 123t134.5 83.5l23 -31q-50 -42 -99.5 -97t-90 -122.5t-65.5 -148t-25 -172.5q0 -45 5 -85.5t17 -78t31 -73t47 -71.5z" />
    <glyph glyph-name="parenright" unicode=")" horiz-adv-x="374" 
d="M-80 -177q45 36 94.5 90t90 124.5t67 155t26.5 182.5q0 42 -4 79t-15.5 72t-30.5 70t-49 75l37 31q100 -66 148 -151t48 -196q0 -105 -34.5 -194.5t-89.5 -161.5t-124 -124.5t-139 -84.5z" />
    <glyph glyph-name="asterisk" unicode="*" horiz-adv-x="463" 
d="M122 597q-6 8 -2 24.5t13 33t22 29t25 13.5l90 -106q0 -15 -12 -22zM182 429q-11 0 -23.5 12.5t-22.5 29t-14.5 33.5t0.5 26l135 26q13 -7 13 -21zM356 395q-5 -8 -21 -12.5t-35 -4.5q-20 -1 -36.5 3t-21.5 12l43 131q13 8 27 0zM469 530q6 -11 3 -28t-12 -33
t-21.5 -27.5t-24.5 -11.5l-87 103q0 13 12 21zM417 696q12 1 23 -9.5t19.5 -26t12 -33t-0.5 -29.5l-134 -30q-12 9 -12 22zM241 731q5 10 21 14.5t35 4.5t35 -4.5t21 -14.5l-42 -131q-13 -8 -27 0z" />
    <glyph glyph-name="plus" unicode="+" 
d="M55 384h185v196h80v-196h185v-80h-185v-202h-80v202h-185v80z" />
    <glyph glyph-name="comma" unicode="," horiz-adv-x="306" 
d="M-22 -131q21 6 39.5 18t33 27t24 32t12.5 33q-9 18 -27 29t-38 18q-1 21 7 42t21.5 39t30.5 30.5t32 15.5q42 -2 65.5 -25t23.5 -72q0 -41 -19.5 -79.5t-49.5 -69.5t-67.5 -52.5t-74.5 -29.5z" />
    <glyph glyph-name="hyphen" unicode="-" horiz-adv-x="414" 
d="M83 327h287l-20 -90h-287z" />
    <glyph glyph-name="period" unicode="." horiz-adv-x="289" 
d="M24 71q0 36 23 58t61 22t62 -22t24 -58t-24 -57.5t-62 -21.5t-61 21.5t-23 57.5z" />
    <glyph glyph-name="slash" unicode="/" horiz-adv-x="344" 
d="M321 716l60 -25l-365 -824l-59 26z" />
    <glyph glyph-name="zero" unicode="0" 
d="M11 220q0 92 22 180.5t65 157.5t107 111.5t149 42.5q61 0 102 -20t65.5 -53t34.5 -75t10 -86q0 -95 -23 -183.5t-66.5 -156.5t-107.5 -109t-146 -41q-62 0 -103 20t-65 52.5t-34 74t-10 85.5zM161 194q0 -30 3.5 -57t12 -48t23 -33.5t36.5 -12.5q27 0 51 19t44 52
t36 77.5t26.5 96t16.5 107t6 110.5q0 32 -3.5 59.5t-12.5 48t-23.5 32.5t-35.5 12q-28 0 -52.5 -20t-44.5 -54.5t-35.5 -80.5t-26 -97.5t-16 -105.5t-5.5 -105z" />
    <glyph glyph-name="one" unicode="1" 
d="M426 0h-346l9 43q52 22 109 34l98 459l19 59q-29 -8 -61.5 -11.5t-64.5 -2.5l3 37q57 14 124 38t127 56h34l-135 -635q23 -5 46.5 -13.5t46.5 -20.5z" />
    <glyph glyph-name="two" unicode="2" 
d="M195 478h-34l-7 35t-7 42t-5 43.5t-2 39.5q19 13 42 26.5t50.5 24t61 17t72.5 6.5q55 0 92 -13t59.5 -34t32 -48.5t9.5 -57.5q0 -63 -35.5 -121.5t-89 -110.5t-116 -96.5t-115.5 -79.5l-59 -35v-4l61 6h172l73 112h34q-1 -24 -4 -56.5t-7 -65t-9 -61.5t-9 -47h-458l14 64
q35 26 79 60t90 73.5t90 83.5t78 90t55 93t21 92q0 37 -22.5 61.5t-70.5 24.5q-33 0 -66 -9z" />
    <glyph glyph-name="three" unicode="3" 
d="M222 53q36 0 64.5 14.5t48 38.5t30 55.5t10.5 64.5q0 30 -8.5 49t-24 30t-36.5 15t-45 4h-55l5 39l188 197l46 35v4l-55 -6h-147l-61 -102h-34q0 21 0.5 50t2.5 58t4.5 56t6.5 45h433l-7 -49l-211 -211l-58 -44v-2l35 7q83 -5 122 -48.5t39 -112.5q0 -51 -17.5 -97
t-55 -80.5t-96.5 -54.5t-142 -20q-30 0 -59.5 4.5t-55 12.5t-45.5 19t-32 24l59 104h29q5 -7 13 -18.5t16.5 -24.5l17 -26t14.5 -22q22 -8 61 -8z" />
    <glyph glyph-name="four" unicode="4" 
d="M461 0h-309l9 43q51 17 97 24l24 113h-296l9 45l487 487h54l-99 -467h123l-14 -65h-123l-24 -113q37 -8 71 -24zM341 458l28 70h-3l-54 -70l-183 -187l-47 -33l73 7h141z" />
    <glyph glyph-name="five" unicode="5" 
d="M572 755h34q-3 -15 -9 -39t-14.5 -49t-17.5 -47.5t-16 -34.5h-273l-49 -143h66q53 0 93 -13t66.5 -36.5t40 -55.5t13.5 -70q0 -59 -19.5 -109.5t-59 -88.5t-100 -59.5t-142.5 -21.5q-62 0 -108.5 18.5t-69.5 41.5l62 99h29q6 -7 13 -18t14 -23t13.5 -24t11.5 -21
q9 -4 22 -6t27 -2q45 0 77.5 14.5t53.5 39t31 56t10 65.5q0 59 -40 84t-109 24l-88 -1l118 365h261z" />
    <glyph glyph-name="six" unicode="6" 
d="M542 267q0 -53 -18.5 -103.5t-55 -89.5t-92.5 -62.5t-131 -23.5q-47 0 -86 12.5t-66.5 38t-43 64.5t-15.5 91q0 86 35.5 169.5t103 154t164 123t218.5 77.5l6 -43q-125 -38 -211 -118.5t-128 -207.5q23 31 65.5 51.5t95.5 20.5q83 0 121 -42.5t38 -111.5zM392 259
q0 48 -17.5 70t-61.5 22q-31 0 -60 -17.5t-46 -40.5q-3 -7 -7 -21t-7.5 -31.5t-6 -35t-2.5 -32.5q0 -26 3.5 -48.5t12 -39.5t23.5 -27t38 -10q33 0 58 21t41 52.5t24 68.5t8 69z" />
    <glyph glyph-name="seven" unicode="7" 
d="M128 481h-34q0 21 1 51.5t3 61.5t5.5 59.5t6.5 46.5h468v-44q-74 -82 -130 -159.5t-99.5 -156t-77.5 -162t-64 -178.5h-142q64 143 144.5 275t190.5 265l51 48l-50 -5h-212z" />
    <glyph glyph-name="eight" unicode="8" 
d="M8 137q0 36 14.5 68.5t41 59t64 47t84.5 33.5q-47 35 -71 71.5t-24 89.5q0 42 16.5 79.5t48.5 65.5t79 44.5t108 16.5q96 0 144.5 -37.5t48.5 -103.5q0 -31 -13 -59.5t-36 -53.5t-56.5 -44t-73.5 -31q36 -23 59.5 -44.5t38 -43.5t20 -46.5t5.5 -52.5q0 -42 -19 -79.5
t-55 -66t-88.5 -45.5t-118.5 -17q-102 0 -159.5 37.5t-57.5 111.5zM365 170q0 22 -9 41t-25 36.5t-38 34.5t-48 36q-27 -17 -45.5 -39t-30 -45.5t-16.5 -46.5t-5 -42q0 -48 28 -72.5t66 -24.5q34 0 57.5 11.5t38 29t21 39t6.5 42.5zM253 535q0 -36 27 -70t68 -59
q44 39 63.5 81t19.5 84q0 35 -18 58t-59 23q-24 0 -43 -9.5t-32 -25.5t-19.5 -37t-6.5 -45z" />
    <glyph glyph-name="nine" unicode="9" 
d="M48 438q0 53 18.5 103.5t55 89.5t92.5 63t131 24q47 0 86 -12.5t66.5 -38.5t43 -65t15.5 -91q0 -86 -35.5 -169.5t-103 -154t-164 -123t-218.5 -76.5l-6 43q125 38 211 118.5t128 207.5q-23 -31 -65.5 -51.5t-95.5 -20.5q-83 0 -121 42t-38 111zM198 447q0 -48 17.5 -70
t61.5 -22q31 0 60 17t46 40q3 7 7 21.5t7.5 32t6 35t2.5 32.5q0 25 -3.5 48t-12 40t-23.5 27t-38 10q-33 0 -58 -21t-41 -52.5t-24 -68.5t-8 -69z" />
    <glyph glyph-name="colon" unicode=":" horiz-adv-x="341" 
d="M106 429q0 36 23 58t61 22t62 -22t24 -58t-24 -57.5t-62 -21.5t-61 21.5t-23 57.5zM56 71q0 36 23 58t61 22t62 -22t24 -58t-24 -57.5t-62 -21.5t-61 21.5t-23 57.5z" />
    <glyph glyph-name="semicolon" unicode=";" horiz-adv-x="334" 
d="M102 429q0 36 23 58t61 22t62 -22t24 -58t-24 -57.5t-62 -21.5t-61 21.5t-23 57.5zM-6 -131q21 6 39.5 18t33 27t24 32t12.5 33q-9 18 -27 29t-38 18q-1 21 7 42t21.5 39t30.5 30.5t32 15.5q42 -2 65.5 -25t23.5 -72q0 -41 -19.5 -79.5t-49.5 -69.5t-67.5 -52.5
t-74.5 -29.5z" />
    <glyph glyph-name="semicolon" unicode="&#x37e;" horiz-adv-x="334" 
d="M102 429q0 36 23 58t61 22t62 -22t24 -58t-24 -57.5t-62 -21.5t-61 21.5t-23 57.5zM-6 -131q21 6 39.5 18t33 27t24 32t12.5 33q-9 18 -27 29t-38 18q-1 21 7 42t21.5 39t30.5 30.5t32 15.5q42 -2 65.5 -25t23.5 -72q0 -41 -19.5 -79.5t-49.5 -69.5t-67.5 -52.5
t-74.5 -29.5z" />
    <glyph glyph-name="less" unicode="&#x3c;" 
d="M61 324v31l385 235l36 -65l-213 -128l-82 -34l81 -31l233 -137l-56 -92z" />
    <glyph glyph-name="equal" unicode="=" 
d="M55 469h450v-80h-450v80zM55 299h450v-80h-450v80z" />
    <glyph glyph-name="greater" unicode="&#x3e;" 
d="M499 369v-31l-385 -235l-35 65l213 128l81 34l-80 31l-234 136l56 93z" />
    <glyph glyph-name="question" unicode="?" horiz-adv-x="505" 
d="M204 501h-34l-7.5 32.5t-8.5 41t-5.5 44t0.5 42.5q43 23 92.5 37t115.5 14q88 0 138.5 -36t50.5 -102q0 -50 -20.5 -84.5t-51.5 -61.5t-68.5 -49.5t-71 -47t-59 -55t-32.5 -73.5h-33q-5 48 7 84.5t33 66.5t47 55t49 50t38.5 51.5t15.5 58.5q0 40 -21 59t-56 19
q-24 0 -41 -4t-27 -10zM142 71q0 36 23 58t61 22t62 -22t24 -58t-24 -57.5t-62 -21.5t-61 21.5t-23 57.5z" />
    <glyph glyph-name="at" unicode="@" horiz-adv-x="1027" 
d="M642 465q24 11 57.5 16t67.5 4l-49 -278q-12 -64 -10.5 -95.5t29.5 -31.5q23 0 52.5 15t55.5 45.5t44 77t18 108.5q0 76 -27.5 136t-76 101t-115 62.5t-143.5 21.5q-87 0 -159.5 -30.5t-124.5 -84.5t-81 -128.5t-29 -161.5q0 -89 29.5 -155.5t81.5 -111.5t123.5 -67.5
t155.5 -22.5q29 0 66 7t67 21l16 -57q-35 -20 -77 -28t-93 -8q-89 0 -169.5 26t-141.5 78t-97 130t-36 182q0 109 37.5 197t102 150t150.5 95.5t184 33.5q95 0 174.5 -26.5t136.5 -76t89 -121t32 -162.5q0 -70 -25.5 -127.5t-66.5 -99t-93 -64t-105 -22.5q-30 0 -52 7.5
t-36 25.5t-18.5 47t1.5 72h-4q-9 -27 -26.5 -54.5t-40 -49t-49.5 -35t-55 -13.5q-68 0 -102.5 44t-34.5 112q0 59 19.5 117t54 103.5t82.5 74t105 28.5q35 0 58.5 -6.5t47.5 -20.5zM622 415q-11 8 -23 11.5t-29 3.5q-34 0 -63 -26t-50 -65.5t-33 -86t-12 -86.5
q0 -34 12 -53.5t41 -19.5q17 0 34.5 14t34 36.5t32 51t28.5 56.5z" />
    <glyph glyph-name="A" unicode="A" horiz-adv-x="724" 
d="M205 0h-249l7 38q18 10 38 17.5t40 11.5l396 645h73l113 -645q19 -4 37.5 -12t31.5 -17l-8 -38h-308l7 38q21 10 44.5 17.5t44.5 11.5l-24 159h-221l-95 -159q21 -3 42 -10.5t38 -18.5zM261 291h179l-28 191v86h-2l-38 -88z" />
    <glyph glyph-name="B" unicode="B" horiz-adv-x="644" 
d="M-24 -1l7 38q22 11 45 19t44 10l120 566q-20 4 -40 11.5t-36 17.5l8 38h159q38 0 73.5 3t79.5 3q48 0 88 -7.5t68.5 -23t44.5 -41t16 -61.5q0 -42 -14.5 -75t-40 -58t-60.5 -41t-76 -24v-4q27 -2 54 -10t48.5 -24t35 -40.5t13.5 -58.5q0 -54 -21.5 -98.5t-63.5 -77
t-105 -50.5t-146 -18q-21 0 -45.5 1t-49.5 2t-48 2t-39 1h-119zM290 58q37 0 68 13t53 36.5t34.5 55t12.5 68.5q0 55 -35.5 73t-99.5 18h-53l-54 -257q13 -3 28 -5t46 -2zM316 387q17 0 34.5 1.5t32.5 3.5q60 23 90 66t30 100q0 39 -23 60.5t-75 21.5q-21 0 -37.5 -1
t-30.5 -3l-53 -249h32z" />
    <glyph glyph-name="C" unicode="C" horiz-adv-x="652" 
d="M561 210h42q0 -16 -1 -38.5t-4 -48t-7 -50.5t-9 -45q-21 -11 -46.5 -18.5t-51.5 -12.5t-50 -7t-42 -2q-92 0 -155 25t-103 65t-57.5 90t-17.5 101q0 99 29 180.5t84.5 140t136 90.5t182.5 32q66 0 118.5 -9.5t85.5 -25.5q-3 -16 -10 -41t-16 -52.5t-19 -54t-19 -44.5h-42
l-23 151q-9 5 -30 8t-42 3q-58 0 -106.5 -28t-84 -79t-55 -123.5t-19.5 -161.5q0 -56 16 -94.5t41.5 -62.5t56 -34.5t59.5 -10.5t50 5.5t31 11.5z" />
    <glyph glyph-name="D" unicode="D" horiz-adv-x="734" 
d="M-24 0l7 38q19 10 42 17.5t47 11.5l120 566q-23 5 -42.5 12.5t-33.5 16.5l8 38h116q17 0 42.5 1t53 2.5t53 3t43.5 1.5q84 0 142.5 -18t95 -51t53 -78.5t16.5 -100.5q0 -57 -10 -113.5t-33 -108.5t-59 -97t-88.5 -78.5t-121.5 -52.5t-158 -19q-13 0 -35.5 1.5t-48.5 3
t-51.5 3t-44.5 1.5h-113zM409 643q-18 0 -34 -1t-30 -3l-123 -579q15 -2 34 -3t30 -1q81 0 136 38.5t89 99t48.5 134.5t14.5 145q0 41 -8 73t-27 53.5t-51 32.5t-79 11z" />
    <glyph glyph-name="E" unicode="E" horiz-adv-x="602" 
d="M650 700q-10 -45 -25 -93t-33 -90h-42l-21 118h-187l-52 -245h123l60 77h31q-5 -49 -17.5 -109t-28.5 -112h-32l-27 79h-123l-54 -260h194l80 127h42q0 -18 -1.5 -42t-4 -50t-6.5 -52t-9 -48h-541l7 38q20 9 42.5 17t46.5 12l120 566q-20 4 -40 11.5t-36 17.5l8 38h526z
" />
    <glyph glyph-name="F" unicode="F" horiz-adv-x="572" 
d="M212 67q45 -6 80 -29l-7 -38h-309l7 38q18 9 37.5 16.5t41.5 12.5l120 566q-42 12 -66 29l8 38h523q-4 -20 -10.5 -43.5t-14 -48t-16 -48t-17.5 -43.5h-42l-21 118h-194l-56 -263h138l61 77h31q-2 -25 -6.5 -54t-11 -59t-14.5 -58t-15 -50h-31l-27 79h-138z" />
    <glyph glyph-name="G" unicode="G" horiz-adv-x="709" 
d="M603 44q-25 -13 -56.5 -23.5t-64 -17.5t-62.5 -11t-52 -4q-68 0 -125 17t-98 52t-63.5 88t-22.5 125q0 99 29.5 180t85 139.5t136.5 90.5t183 32q33 0 65.5 -2.5t62 -7t53.5 -11t39 -14.5q-3 -15 -10 -38.5t-16 -50.5t-19 -54t-20 -49h-41l-23 152q-14 5 -39.5 7.5
t-47.5 2.5q-67 0 -117.5 -32.5t-84 -87.5t-50 -127t-16.5 -151q0 -52 12 -89t32.5 -61t48 -35t59.5 -11q29 0 60.5 8t49.5 19l40 188q-25 2 -47 10t-39 19l8 38h273l-8 -38q-11 -9 -27.5 -16.5t-40.5 -12.5z" />
    <glyph glyph-name="H" unicode="H" horiz-adv-x="766" 
d="M279 0h-303l7 38q20 10 43.5 17.5t45.5 11.5l120 566q-23 4 -43 12t-33 17l8 38h303l-8 -38q-15 -11 -36 -18t-41 -11l-52 -242h265l52 242q-43 11 -65 29l8 38h303l-8 -38q-19 -11 -42.5 -18.5t-45.5 -10.5l-120 -566q22 -4 41.5 -12t33.5 -17l-7 -38h-303l7 38
q17 9 37 17t41 12l54 259h-265l-54 -259q34 -7 64 -29z" />
    <glyph glyph-name="I" unicode="I" horiz-adv-x="369" 
d="M298 0h-312l7 38q47 22 88 29l120 566q-20 3 -39.5 10.5t-35.5 18.5l8 38h312l-8 -38q-20 -11 -43.5 -18.5t-43.5 -10.5l-120 -566q19 -4 39 -11t35 -18z" />
    <glyph glyph-name="J" unicode="J" horiz-adv-x="361" 
d="M129 700h309l-8 -38q-17 -11 -40.5 -18.5t-43.5 -10.5l-108 -512q-17 -82 -52.5 -134.5t-76 -83.5t-79 -45t-61.5 -18l-12 26q19 13 36.5 32t34 47.5t31.5 69.5t28 100l109 518q-21 4 -41 11.5t-34 17.5z" />
    <glyph glyph-name="K" unicode="K" horiz-adv-x="705" 
d="M499 700h272l-8 -38q-18 -11 -41.5 -18.5t-43.5 -10.5l-242 -243q16 -33 39 -73t48.5 -83t53 -87t54.5 -84l42 -29l-7 -34h-168l-35 28q-18 30 -37 66.5t-37 76t-34.5 79.5t-29.5 78h-48l-55 -261q20 -5 36.5 -13t27.5 -16l-7 -38h-303l7 38q22 11 44.5 18t44.5 11
l120 566q-23 3 -43 11t-33 18l8 38h303l-8 -38q-14 -8 -34.5 -16t-42.5 -13l-54 -254l59 14l211 240q-20 5 -37.5 12.5t-29.5 16.5z" />
    <glyph glyph-name="L" unicode="L" horiz-adv-x="577" 
d="M124 700h328l-8 -38q-22 -11 -49.5 -18.5t-52.5 -10.5l-120 -568h193l104 179h42q0 -23 -3 -54t-8 -65t-11.5 -67t-13.5 -58h-549l7 38q26 12 48 19t41 10l120 566q-22 4 -42 11t-34 18z" />
    <glyph glyph-name="M" unicode="M" horiz-adv-x="926" 
d="M864 0h-299l8 38q22 10 43 17t44 12l88 418l30 117h-8l-55 -107l-299 -495h-45l-89 491l-12 117h-9l-26 -127l-86 -410q18 -4 39.5 -13t38.5 -20l-8 -38h-243l7 38q17 9 43 19.5t49 14.5l118 561q-20 4 -40.5 11t-35.5 18l8 38h271l63 -407l8 -96h1l47 98l246 405h252
l-8 -38q-18 -11 -39.5 -18t-42.5 -11l-120 -567q20 -4 38 -12t31 -16z" />
    <glyph glyph-name="N" unicode="N" horiz-adv-x="755" 
d="M595 700h247l-8 -38q-23 -17 -47 -27.5t-47 -16.5l-134 -630h-81l-248 510l-24 77h-3l-9 -80l-89 -417q18 -5 40.5 -16.5t36.5 -23.5l-7 -38h-246l7 38q45 28 93 40l116 546q-17 7 -36.5 18t-30.5 21l7 37h212l201 -416l30 -86h4l15 86l70 334q-22 8 -42.5 19.5
t-34.5 24.5z" />
    <glyph glyph-name="O" unicode="O" horiz-adv-x="751" 
d="M59 271q0 92 28.5 172.5t82 140t131 94t175.5 34.5q67 0 119 -19.5t88 -56t54.5 -88.5t18.5 -117q0 -82 -25 -161.5t-76 -142t-127.5 -101t-179.5 -38.5q-69 0 -123 21.5t-91 59.5t-56 90t-19 112zM229 252q0 -100 37.5 -149.5t101.5 -49.5q57 0 98 37t68 94.5t39.5 129
t12.5 140.5q0 89 -30.5 141t-100.5 52q-39 0 -70.5 -17.5t-57 -47.5t-44 -69.5t-30.5 -83.5t-18 -89.5t-6 -87.5z" />
    <glyph glyph-name="P" unicode="P" horiz-adv-x="634" 
d="M222 67q26 -4 50.5 -11.5t43.5 -17.5l-7 -38h-333l7 38q44 21 89 29l120 566q-22 4 -41 11.5t-35 17.5l8 38h126q40 0 92.5 4t95.5 4q52 0 96.5 -9t76 -28.5t49.5 -51.5t18 -78q0 -59 -22 -109.5t-64 -87.5t-103 -58.5t-138 -21.5h-16.5t-25 0.5t-26 1t-19.5 1.5z
M401 643q-20 0 -33.5 -2t-24.5 -4l-65 -304q9 -2 27 -3t29 -1q43 0 76 15.5t55.5 44t34.5 67t12 85.5q0 23 -5.5 42t-18 32.5t-34 20.5t-53.5 7z" />
    <glyph glyph-name="Q" unicode="Q" horiz-adv-x="761" 
d="M755 -112q-22 -19 -46 -36.5t-50 -31.5t-52.5 -22t-53.5 -8q-46 0 -89 16.5t-88.5 38t-97 41.5t-114.5 28l34 44q50 9 95.5 4.5t88.5 -15t85.5 -23.5t87 -21t92.5 -7.5t103 17.5zM59 271q0 92 28.5 172.5t82 140t131 94t175.5 34.5q67 0 119 -19.5t88 -56t54.5 -88.5
t18.5 -117q0 -82 -25 -161.5t-76 -142t-127.5 -101t-179.5 -38.5q-69 0 -123 21.5t-91 59.5t-56 90t-19 112zM229 252q0 -100 37.5 -149.5t101.5 -49.5q57 0 98 37t68 94.5t39.5 129t12.5 140.5q0 89 -30.5 141t-100.5 52q-39 0 -70.5 -17.5t-57 -47.5t-44 -69.5
t-30.5 -83.5t-18 -89.5t-6 -87.5z" />
    <glyph glyph-name="R" unicode="R" horiz-adv-x="692" 
d="M222 67q21 -6 38 -13.5t31 -15.5l-7 -38h-308l7 38q25 12 46.5 18.5t42.5 10.5l120 566q-49 11 -76 29l8 38h106q20 0 45.5 1t53.5 2.5t57 3t55 1.5q111 0 164.5 -43t53.5 -122q0 -37 -12 -71.5t-35.5 -64t-58 -52t-80.5 -35.5q26 -63 64.5 -128t75.5 -126l42 -32l-7 -34
h-159l-37 33q-34 55 -62.5 127.5t-41.5 142.5h-76zM395 643q-16 0 -29 -2t-24 -4l-59 -279h58q41 0 71.5 15.5t50.5 42t30 60.5t10 72q1 51 -25.5 73t-82.5 22z" />
    <glyph glyph-name="S" unicode="S" horiz-adv-x="556" 
d="M140 83q10 -10 36 -20t55 -10q31 0 58 5.5t46.5 17.5t30.5 31.5t11 47.5q0 36 -19 61.5t-47 46.5t-61.5 41.5t-61.5 46.5t-47 61t-19 86q0 53 21 93t58 67t88 40.5t112 13.5t111.5 -8.5t88.5 -26.5q-5 -20 -13 -46t-17.5 -51.5t-19 -48t-16.5 -37.5h-41l-17 137
q-14 8 -37.5 12t-48.5 4q-26 0 -48.5 -5.5t-39 -17t-26.5 -29.5t-10 -43q0 -35 19.5 -61t48 -47.5t62.5 -43t62.5 -48t48 -61.5t19.5 -84q0 -106 -78.5 -162.5t-224.5 -56.5q-32 0 -64.5 4t-61.5 11t-51 15t-32 17q6 24 15 50.5t19 53t20.5 50t19.5 41.5h41z" />
    <glyph glyph-name="T" unicode="T" horiz-adv-x="662" 
d="M461 0h-344l8 38q22 9 49 17t54 12l121 568h-116l-101 -171h-41q0 20 2.5 51t6 64t8.5 65.5t11 55.5h637q-5 -24 -13.5 -56t-18.5 -65t-20.5 -63.5t-19.5 -51.5h-42l-27 171h-116l-121 -568q25 -5 49 -12t42 -17z" />
    <glyph glyph-name="U" unicode="U" horiz-adv-x="715" 
d="M112 700h308l-8 -38q-36 -21 -82 -29l-79 -373q-20 -98 15 -142t110 -44q70 0 117 40.5t68 138.5l79 375q-23 5 -45.5 14t-35.5 20l8 38h248l-8 -38q-18 -13 -42.5 -21t-47.5 -13l-80 -376q-27 -129 -98.5 -195t-204.5 -66q-143 0 -200.5 75t-29.5 205l76 362
q-20 4 -41.5 11t-34.5 18z" />
    <glyph glyph-name="V" unicode="V" horiz-adv-x="729" 
d="M652 633q-23 5 -43.5 12t-34.5 17l8 38h254l-8 -38q-14 -8 -34.5 -16t-43.5 -13l-364 -633l-100 -12l-121 645q-21 5 -39.5 12.5t-29.5 16.5l8 38h330l-8 -38q-18 -9 -41 -16.5t-47 -12.5l57 -394l3 -94h2l42 96z" />
    <glyph glyph-name="W" unicode="W" horiz-adv-x="1029" 
d="M955 633q-20 3 -41 10.5t-38 18.5l8 38h252l-8 -38q-18 -11 -39 -18t-40 -11l-311 -633l-107 -12l-52 484l-251 -472l-107 -12l-58 645q-41 9 -67 29l8 38h321l-8 -38q-19 -10 -42 -17t-46 -12l17 -354l-5 -130h2l62 135l222 416h60l52 -411l8 -130h2l52 132z" />
    <glyph glyph-name="X" unicode="X" horiz-adv-x="723" 
d="M539 700h248l-8 -38q-16 -10 -34.5 -17t-39.5 -12l-235 -262l140 -304q22 -5 39 -12t31 -17l-7 -38h-323l7 38q18 9 37 16.5t41 12.5l-93 219l-182 -220q20 -5 36.5 -11t31.5 -17l-8 -38h-256l8 38q17 11 35.5 17.5t38.5 11.5l263 286l-126 280q-18 5 -33 12t-29 17l8 38
h316l-8 -38q-14 -8 -33 -15.5t-45 -13.5l77 -200l165 200q-19 5 -37.5 12.5t-32.5 16.5z" />
    <glyph glyph-name="Y" unicode="Y" horiz-adv-x="695" 
d="M554 700h249l-8 -38q-17 -10 -37 -17.5t-40 -11.5l-267 -340l-48 -226q19 -3 37 -11t33 -18l-8 -38h-308l8 38q19 9 42 17t46 12l48 225l-130 341q-22 4 -41.5 11.5t-33.5 17.5l8 38h325l-8 -38q-14 -8 -34 -16t-46 -13l87 -269l191 269q-21 5 -40 12.5t-33 16.5z" />
    <glyph glyph-name="Z" unicode="Z" horiz-adv-x="631" 
d="M539 211h41q0 -21 -2 -48t-5 -55t-7.5 -56t-9.5 -52h-551v65l491 570h-230l-89 -143h-42q0 22 1.5 50t5 56.5t7.5 55t9 46.5h516v-65l-492 -570h264z" />
    <glyph glyph-name="bracketleft" unicode="[" horiz-adv-x="324" 
d="M179 700h234l-12 -55h-104l-174 -820h104l-11 -55h-234z" />
    <glyph glyph-name="backslash" unicode="\" horiz-adv-x="382" 
d="M416 -104l-57 -30l-415 820l58 29z" />
    <glyph glyph-name="bracketright" unicode="]" horiz-adv-x="324" 
d="M162 -230h-233l11 55h103l174 820h-104l12 55h234z" />
    <glyph glyph-name="asciicircum" unicode="^" horiz-adv-x="508" 
d="M283 711h46l170 -277h-120l-79 135l-18 53l-26 -54l-89 -134h-70z" />
    <glyph glyph-name="underscore" unicode="_" horiz-adv-x="410" 
d="M-43 -116h410v-80h-410v80z" />
    <glyph glyph-name="grave" unicode="`" horiz-adv-x="337" 
d="M357 589l-45 -22l-166 145v29q6 6 26 11.5t42.5 8.5t42.5 3.5t27 -1.5z" />
    <glyph glyph-name="a" unicode="a" horiz-adv-x="563" 
d="M215 68q19 0 39.5 17t39 42.5t34 56t26.5 56.5l37 198q-12 8 -22.5 11.5t-27.5 3.5q-40 0 -72 -26.5t-54 -69t-33.5 -95.5t-11.5 -106q0 -46 11 -67t34 -21zM339 159q-13 -32 -32.5 -62.5t-44.5 -54.5t-55 -39t-65 -15q-52 0 -83 38t-31 113q0 78 21.5 145.5t61 118
t95.5 79t125 28.5q26 0 44.5 -6t39.5 -15q26 10 56 15t72 5l-84 -440h70v-34q-10 -8 -26.5 -16t-36 -14t-40 -10t-38.5 -4q-35 0 -50 15t-15 31q0 18 5 47.5t15 74.5h-4z" />
    <glyph glyph-name="b" unicode="b" horiz-adv-x="565" 
d="M145 669l-66 13v32q19 7 47 13.5t56.5 11.5t55 8.5t42.5 4.5l21 -11l-77 -379h5q16 30 36 57t43.5 48t49.5 33t56 12q26 0 48.5 -9.5t39 -29t26 -50t9.5 -72.5q0 -74 -20 -139.5t-59.5 -115.5t-98 -79t-134.5 -29q-32 0 -62.5 4t-57 11t-47.5 17t-34 21zM341 432
q-21 0 -40.5 -17t-36 -41t-29.5 -50t-21 -44l-43 -215q11 -10 28 -15t34 -5q34 0 63.5 25t51.5 66t34.5 94.5t12.5 110.5q0 42 -13 66.5t-41 24.5z" />
    <glyph glyph-name="c" unicode="c" horiz-adv-x="445" 
d="M412 109q-13 -21 -34 -43t-48.5 -39t-60.5 -28t-70 -11q-79 0 -125.5 47t-46.5 131q0 70 21.5 133t60.5 110.5t94.5 75t123.5 27.5q45 0 78.5 -9.5t44.5 -22.5q1 -11 -3.5 -27.5t-13.5 -33t-21.5 -31t-25.5 -20.5l-61 87q-27 0 -54.5 -18.5t-49.5 -53t-36 -83t-14 -109.5
t25 -89.5t67 -28.5q20 0 38.5 6.5t34.5 15.5t29.5 19.5t23.5 19.5z" />
    <glyph glyph-name="d" unicode="d" horiz-adv-x="570" 
d="M215 68q21 0 41.5 17.5t39 43.5t34 56t26.5 55l36 197q-13 8 -24.5 11.5t-27.5 3.5q-38 0 -69.5 -25.5t-53.5 -67t-34 -95t-12 -109.5q0 -87 44 -87zM340 159q-15 -35 -35.5 -66t-45 -54t-53.5 -37t-61 -14q-51 0 -83.5 39t-32.5 118q0 71 19.5 136.5t57 116t92 81
t124.5 30.5q33 0 48.5 -4t32.5 -12l34 176l-69 13v34q15 6 41 12t55.5 11t58 8.5t46.5 4.5l20 -11l-129 -672h72v-34q-10 -8 -26.5 -16t-36 -14t-40.5 -10t-39 -4q-35 0 -50 16t-15 33t5 49t14 70h-4z" />
    <glyph glyph-name="e" unicode="e" horiz-adv-x="472" 
d="M429 109q-11 -20 -32 -41.5t-49 -39t-62 -29t-71 -11.5q-89 0 -138.5 48.5t-49.5 137.5q0 69 22 130t61.5 107.5t94 73.5t119.5 27q60 0 99 -27.5t39 -75.5q0 -68 -67.5 -112t-218.5 -55q-3 -14 -4.5 -28.5t-1.5 -27.5q0 -57 29 -87.5t74 -30.5q19 0 38 6t36.5 16
t32 21.5t25.5 22.5zM301 455q-34 0 -65.5 -37t-52.5 -125q74 2 119.5 33t45.5 81q0 20 -10.5 34t-36.5 14z" />
    <glyph glyph-name="f" unicode="f" horiz-adv-x="316" 
d="M113 437h-71v39q20 11 42.5 19.5t42.5 13.5l7 35q13 62 35.5 102.5t52.5 64t68 32.5t82 9q32 0 65 -5.5t53 -16.5q2 -14 -1.5 -30.5t-11 -31.5t-17.5 -27t-22 -18l-72 76q-14 -3 -27.5 -9.5t-25.5 -21.5t-23.5 -43t-20.5 -75l-9 -50h110q2 -11 0 -30.5t-13 -32.5h-110
l-62 -394q-10 -71 -41 -118t-68.5 -75.5t-75.5 -42.5t-62 -19l-11 34q12 6 30 19.5t36 37.5t33.5 59.5t23.5 85.5z" />
    <glyph glyph-name="g" unicode="g" horiz-adv-x="520" 
d="M294 512q57 0 93.5 -13t53.5 -27q10 9 27 18.5t36.5 18t39 15.5t35.5 12q5 -9 6.5 -24t0 -30.5t-6.5 -29.5t-13 -23l-99 11q5 -8 8.5 -21t3.5 -29q0 -36 -17 -68.5t-49.5 -56.5t-78 -38.5t-102.5 -14.5q-17 0 -27.5 0.5t-23.5 3.5q-5 -4 -11.5 -8.5t-13 -9.5t-11 -11.5
t-4.5 -14.5q0 -15 25 -23t62 -14t81 -14t81 -23t62 -40.5t25 -67.5q0 -46 -29.5 -83t-77 -63.5t-107 -41t-120.5 -14.5q-50 0 -88 9.5t-63.5 26t-38 37.5t-12.5 44q0 52 45 87.5t114 58.5q-26 11 -41.5 26.5t-15.5 39.5q0 15 9 31t23 31t31 27.5t34 20.5q-15 3 -31.5 12
t-30 22.5t-22.5 32t-9 39.5q0 39 17 72t49 56.5t77.5 37t103.5 13.5zM190 -155q27 0 52.5 6.5t45.5 19t32.5 31.5t12.5 45q0 24 -19.5 38.5t-49.5 24t-65.5 15.5t-67.5 14q-28 -21 -42 -50t-14 -58q0 -40 31 -63t84 -23zM282 457q-24 0 -42 -10t-30 -27t-18 -40t-6 -49
q0 -35 17.5 -49.5t37.5 -14.5q24 0 42 10t30 26.5t18 38.5t6 47q0 30 -14 49t-41 19z" />
    <glyph glyph-name="h" unicode="h" horiz-adv-x="581" 
d="M90 682v32q15 6 38.5 12.5t51 12t56.5 9.5t55 4l21 -9l-84 -389h5q19 32 42.5 61t49.5 50.5t55 34t59 12.5q46 0 71 -26.5t25 -65.5q0 -27 -5 -58t-12 -60l-57 -233h74v-34q-20 -16 -58.5 -30t-87.5 -14q-33 0 -48 13.5t-15 32.5q0 18 4.5 37t9.5 44l37 167
q7 31 12.5 56.5t5.5 48.5q0 18 -7.5 30t-22.5 12q-23 0 -46 -16.5t-43 -39.5t-35.5 -48t-22.5 -42l-59 -286h-138l135 669z" />
    <glyph glyph-name="i" unicode="i" horiz-adv-x="304" 
d="M59 442v34q15 6 40 12.5t53 11.5t55.5 8.5t48.5 3.5l18 -12l-90 -431h70v-34q-13 -9 -30.5 -17t-37 -14t-39.5 -9.5t-38 -3.5q-38 0 -52.5 14.5t-14.5 31.5q0 20 3 39t8 42l68 310zM142 667q0 34 23 53t58 19q38 0 60.5 -19t22.5 -53q0 -32 -22.5 -51t-60.5 -19
q-35 0 -58 19t-23 51z" />
    <glyph glyph-name="j" unicode="j" horiz-adv-x="299" 
d="M119 429l-59 13v34q15 7 38 13.5t49.5 11.5t53.5 8t51 3l20 -12l-92 -457q-15 -71 -45 -118t-65 -76t-71 -43t-64 -18l-16 31q12 6 28 19t32 37t31.5 60.5t26.5 88.5zM142 667q0 34 23 53t58 19q38 0 60.5 -19t22.5 -53q0 -32 -22.5 -51t-60.5 -19q-35 0 -58 19t-23 51z
" />
    <glyph glyph-name="k" unicode="k" horiz-adv-x="539" 
d="M315 45q-28 48 -44.5 95t-31.5 89l-33 10l-45 -239h-140l133 669l-67 13v34q14 6 37 12.5t50 11.5t56.5 8.5t57.5 3.5l21 -11l-93 -458h32q17 13 35 31t34 36t28.5 35.5t19.5 29.5q1 7 1.5 19t0 24.5t-1 24t-1.5 17.5q17 6 43 9.5t53 3.5t50.5 -3.5t34.5 -9.5
q-13 -33 -38.5 -65t-55 -60t-58 -50.5t-46.5 -35.5q7 -19 21.5 -48t32.5 -60.5t38 -61t37 -50.5h54v-34q-10 -8 -25.5 -16t-33.5 -14t-37 -10t-37 -4q-24 0 -44.5 11t-37.5 43z" />
    <glyph glyph-name="l" unicode="l" horiz-adv-x="299" 
d="M153 669l-68 13v34q14 6 38 12t52 11.5t57.5 9t54.5 3.5l20 -11l-131 -672h71v-34q-10 -8 -27 -16t-37.5 -14t-42.5 -10t-42 -4q-34 0 -49.5 14.5t-15.5 31.5q0 20 3 39t8 42z" />
    <glyph glyph-name="m" unicode="m" horiz-adv-x="849" 
d="M645 300q5 23 11 49.5t6 41.5q0 19 -6.5 30t-23.5 11t-35 -12.5t-35 -33t-32.5 -46.5t-27.5 -53l-65 -287h-134l61 281q7 31 12 60t5 54q0 37 -28 37q-14 0 -32 -13t-36 -33.5t-34 -46.5t-25 -53l-58 -286h-140l89 429l-57 13v34q16 8 39.5 15t49.5 11.5t53 7t50 2.5
l21 -12l-39 -146h4q15 27 36.5 55.5t48.5 51t58 37t63 14.5q12 0 25 -4t24.5 -14.5t18.5 -28.5t7 -46q0 -14 -2.5 -32t-6.5 -33q17 31 40 60t49.5 50.5t56 34.5t61.5 13q38 0 62 -24t24 -66q0 -32 -6 -61t-13 -61l-57 -231h70v-34q-10 -8 -27.5 -16t-37.5 -14t-41 -10
t-39 -4q-36 0 -50 14.5t-14 32.5q0 29 14 80z" />
    <glyph glyph-name="n" unicode="n" horiz-adv-x="588" 
d="M384 285q7 31 12.5 55t5.5 50q0 17 -7.5 29.5t-26.5 12.5t-39.5 -14.5t-40 -36t-36 -47.5t-26.5 -48l-60 -286h-138l86 429l-59 13l2 34q14 7 36 13.5t48 11.5t53.5 8t52.5 3l20 -12l-31 -146h5q18 33 42 62t51 50t57 33.5t61 12.5q42 0 66 -27t24 -72q0 -23 -5 -52.5
t-12 -58.5l-55 -233h72v-34q-10 -8 -26.5 -16t-36 -14t-40.5 -10t-40 -4q-34 0 -49.5 13t-15.5 30q0 21 5 45t10 46z" />
    <glyph glyph-name="o" unicode="o" horiz-adv-x="549" 
d="M29 192q0 54 18 110.5t55 103t93.5 76.5t132.5 30q90 0 141 -49t51 -146q0 -66 -20 -125.5t-58 -105t-92.5 -72t-124.5 -26.5q-42 0 -78 12.5t-62.5 38t-41 63.5t-14.5 90zM311 455q-40 0 -66.5 -30t-43 -75.5t-23.5 -98.5t-7 -98q0 -51 19.5 -79.5t53.5 -28.5
q29 0 53.5 24.5t42.5 66t28 95t10 111.5q0 55 -17.5 84t-49.5 29z" />
    <glyph glyph-name="p" unicode="p" horiz-adv-x="572" 
d="M135 -133q17 -3 35.5 -11.5t31.5 -17.5v-38h-206l-13 13l132 615l-58 14v34q16 7 41 13.5t52 11.5t53 8t46 3l20 -12l-33 -138h4q16 31 36.5 58.5t44 48t51 32t58.5 11.5q51 0 84.5 -40t33.5 -112q0 -81 -23 -149.5t-62.5 -118t-94 -77t-117.5 -27.5q-29 0 -47.5 4.5
t-38.5 15.5zM353 432q-21 0 -40.5 -15.5t-36.5 -38.5t-31 -50t-23 -49l-44 -217q13 -9 25.5 -13t36.5 -4q34 0 64 27t52.5 70t35 97t12.5 107q0 42 -13 64t-38 22z" />
    <glyph glyph-name="q" unicode="q" horiz-adv-x="546" 
d="M408 -132q16 -3 34 -11t32 -19v-38h-206l-9 8l77 344h-4q-13 -29 -31.5 -58t-42.5 -52.5t-53.5 -38.5t-64.5 -15q-52 0 -83 41t-31 119q0 72 19.5 137.5t60 115.5t101.5 79.5t144 29.5q30 0 59.5 -3.5t54.5 -8.5t44 -11t29 -11zM218 68q19 0 38 16.5t36 41.5t32 54.5
t26 55.5l40 206q-18 11 -53 11q-41 0 -72 -26.5t-53 -69t-33 -95.5t-11 -106q0 -88 50 -88z" />
    <glyph glyph-name="r" unicode="r" horiz-adv-x="435" 
d="M314 405q-19 -8 -42.5 -36t-39.5 -71l-64 -298h-140l89 429l-57 13v34q17 8 39.5 14.5t48 11t52.5 7t52 3.5l20 -12l-26 -124h4q30 58 69 97t91 39q14 0 28 -2.5t26 -9.5q2 -21 -3.5 -45.5t-14.5 -46.5t-21 -39t-23 -23z" />
    <glyph glyph-name="s" unicode="s" horiz-adv-x="432" 
d="M229 110q0 22 -12 39.5t-30 34.5t-39.5 33.5t-39.5 37.5t-30 46.5t-12 59.5q0 76 54.5 113.5t148.5 37.5q16 0 35.5 -1.5t39.5 -5.5t38.5 -9.5t33.5 -14.5q1 -11 -1.5 -28.5t-9 -35t-17 -32t-25.5 -19.5l-80 89q-32 0 -53.5 -13t-21.5 -46q0 -22 12.5 -40t30.5 -34.5
t40 -33.5t40 -37.5t30.5 -46.5t12.5 -60q0 -38 -17 -67t-46.5 -49t-70.5 -30t-89 -10q-51 0 -91.5 11.5t-60.5 25.5q-1 32 11.5 63t36.5 48l97 -91q33 0 59 16t26 49z" />
    <glyph glyph-name="t" unicode="t" horiz-adv-x="367" 
d="M45 476q19 12 42 20.5t45 13.5l16 76q7 6 22 11.5t33 10t36.5 8.5t33.5 6l21 -12l-24 -110h117q2 -12 -1.5 -31.5t-11.5 -31.5h-117l-58 -259q-4 -19 -6 -33.5t-2 -26.5q0 -26 13 -38t35 -12q25 0 47 6t42 17l13 -26q-12 -13 -32 -26.5t-45 -25t-54 -18.5t-59 -7
q-52 0 -78 24t-26 66q0 23 4 49t8 44l58 266h-72v39z" />
    <glyph glyph-name="u" unicode="u" horiz-adv-x="585" 
d="M546 69v-34q-10 -8 -26.5 -16t-36 -14t-41 -10t-42.5 -4q-36 0 -49.5 14.5t-13.5 30.5q0 18 4 50t16 74h-4q-13 -24 -33 -54t-47 -56.5t-62 -44t-77 -17.5q-41 0 -66.5 24.5t-25.5 69.5q0 22 6.5 63t16 89.5t21 100t20.5 94.5l-59 13v34q16 6 40 12t50 11t53 8.5t49 4.5
l22 -12q-16 -75 -32.5 -142.5t-30.5 -142.5q-5 -24 -10.5 -53t-5.5 -58q0 -18 9.5 -27t23.5 -9q25 0 49.5 19.5t45 47t36 56.5t22.5 48l52 261h135l-79 -431h70z" />
    <glyph glyph-name="v" unicode="v" horiz-adv-x="481" 
d="M289 175q27 49 49 99.5t38 106.5q0 11 -2.5 28.5t-5 35.5t-5.5 33.5t-5 21.5q14 6 34.5 9t41 3t39.5 -3t30 -9q-15 -62 -42.5 -127.5t-62.5 -130.5t-76 -126.5t-84 -115.5l-92 -12l-74 441l-64 8v34q12 7 29 14t37.5 13t42 10t42.5 4q27 0 38 -14.5t14 -36.5l38 -288
l6 -67h2z" />
    <glyph glyph-name="w" unicode="w" horiz-adv-x="762" 
d="M579 174q27 52 46.5 100t34.5 100q0 11 -3 29.5t-6 38t-6.5 36t-5.5 22.5q14 6 35 9t42 3q20 0 38.5 -3t29.5 -9q-15 -62 -40 -127t-56.5 -129.5t-67.5 -126.5t-75 -117l-103 -12l-45 255l-3 77h-3l-33 -78q-29 -59 -63 -122.5t-68 -119.5l-107 -12l-48 441l-64 8v34
q12 7 29.5 14t37 13t40 10t39.5 4q27 0 42 -13.5t17 -35.5l23 -286l-2 -72h2l28 73l139 302l79 20q20 -75 36 -158.5t27 -164.5l5 -71h2z" />
    <glyph glyph-name="x" unicode="x" horiz-adv-x="506" 
d="M201 202q-20 -23 -43 -50t-36 -52q-1 -8 -1 -21t1 -27t2.5 -26.5t3.5 -18.5q-17 -7 -39.5 -10t-44.5 -3t-41 3t-30 10q9 30 34.5 66t57 70.5t64 65t55.5 48.5l-61 166l-69 8v34q14 8 33.5 16t40.5 14t42.5 10t38.5 4q26 0 39.5 -13.5t20.5 -35.5l45 -158q19 20 40 48
t32 51q1 7 0.5 20t-2 27.5t-4 27t-3.5 18.5q37 13 81 13q20 0 39 -3.5t30 -9.5q-9 -30 -33.5 -66t-54.5 -70t-60.5 -62.5t-49.5 -43.5l66 -175l69 -8v-34q-10 -7 -28 -14.5t-39 -14t-43 -11t-40 -4.5q-26 0 -41 13t-22 35z" />
    <glyph glyph-name="y" unicode="y" horiz-adv-x="487" 
d="M72 429l-64 8v34q5 4 20 10.5t35.5 13.5t43.5 12t45 5q27 0 42 -13t20 -36l77 -303l5 -60h2l21 59q20 48 39 103.5t30 103.5q0 11 -3.5 30.5t-7.5 40t-8 38t-6 23.5q14 6 35 9t42 3t39 -3t29 -9q-26 -119 -79.5 -247t-123.5 -251q-58 -103 -115.5 -156t-132.5 -53
q-21 0 -38.5 5.5t-31.5 14.5q-3 14 2 33t14.5 37t22.5 33t27 20l75 -53q7 5 18 14.5t22 24t22 34.5t20 46z" />
    <glyph glyph-name="z" unicode="z" horiz-adv-x="468" 
d="M122 183v1l191 199q-39 -1 -84.5 3.5t-93.5 12.5l-46 -72l-34 6l14 141q6 39 57 39q20 0 50 -3.5t67.5 -8.5t81 -9.5t90.5 -7.5l26 28q14 -1 29 -13.5t17 -29.5l-322 -336q51 -11 99 -27.5t90 -39.5l67 66l33 -14l-44 -141q-5 -15 -19.5 -25t-34.5 -10q-21 0 -50.5 13
t-66.5 29.5t-79 32.5t-88 22l-47 -48q-8 0 -16 4t-15 10t-11.5 14t-3.5 17z" />
    <glyph glyph-name="braceleft" unicode="{" horiz-adv-x="356" 
d="M98 102q5 23 5 39q0 33 -16 51.5t-46 18.5l10 48q19 0 35.5 8t30 22.5t23 33.5t14.5 41l49 230q10 48 40 77t78 29h121l-11 -55h-35q-27 0 -42.5 -14t-22.5 -46l-47 -220q-7 -33 -22.5 -56t-34.5 -37.5t-40 -22t-39 -9.5l-2 -6q15 -2 30 -8.5t27.5 -18.5t20.5 -29.5
t8 -41.5q0 -15 -3 -31l-47 -220q-3 -14 -3 -23q0 -37 43 -37h34l-11 -55h-121q-37 0 -57.5 18t-20.5 54q0 17 4 33z" />
    <glyph glyph-name="bar" unicode="|" horiz-adv-x="235" 
d="M114 700h70v-830h-70v830z" />
    <glyph glyph-name="braceright" unicode="}" horiz-adv-x="356" 
d="M277 369q-5 -23 -5 -39q0 -70 62 -70l-11 -48q-38 0 -65.5 -30.5t-36.5 -74.5l-49 -231q-10 -48 -40 -77t-78 -29h-121l11 55h35q27 0 42.5 14t22.5 46l47 221q7 33 21 56t31.5 37.5t37 22t37.5 9.5l1 6q-14 1 -28 7.5t-25 17.5t-17.5 28t-6.5 40q0 19 4 36l47 219
q2 6 2 11.5v10.5q1 38 -43 38h-34l12 55h122q37 0 57 -18.5t20 -53.5q0 -17 -4 -33z" />
    <glyph glyph-name="asciitilde" unicode="~" 
d="M81 312q26 58 66 88.5t77 30.5q25 0 49 -10.5t47 -23.5t46.5 -23.5t48.5 -10.5q18 0 37.5 7.5t39.5 26.5l23 -30q-23 -48 -55.5 -71.5t-67.5 -23.5q-26 0 -50.5 10.5t-48.5 23.5t-48 23.5t-48 10.5q-22 0 -44.5 -12t-45.5 -43z" />
    <glyph glyph-name="uni00A0" unicode="&#xa0;" horiz-adv-x="270" 
 />
    <glyph glyph-name="exclamdown" unicode="&#xa1;" horiz-adv-x="347" 
d="M210 286l12 -194l-54 -278q-12 -6 -33 -8.5t-44 -2.5t-43.5 2.5t-29.5 8.5l60 278l88 194h44zM128 432q0 36 23 58t61 22t62 -22t24 -58t-24 -57.5t-62 -21.5t-61 21.5t-23 57.5z" />
    <glyph glyph-name="cent" unicode="&#xa2;" 
d="M475 109q-26 -41 -67.5 -71t-95.5 -41l-34 -167h-77l34 159q-85 5 -136.5 52.5t-51.5 133.5q0 65 21.5 122.5t61 102t94.5 73t121 35.5l33 152h77l-32 -151q8 -1 14.5 -1t14.5 -2q31 -2 62 -8.5t45 -17.5q1 -11 -3.5 -27.5t-13.5 -33t-21.5 -31t-26.5 -20.5l-61 87
q-15 0 -30 -3l-81 -378q48 5 79 24t50 36zM191 184q0 -45 19 -71.5t50 -35.5l77 357q-33 -15 -60 -39t-46 -56.5t-29.5 -71.5t-10.5 -83z" />
    <glyph glyph-name="sterling" unicode="&#xa3;" 
d="M68 375h77q-12 32 -19 64.5t-7 61.5q0 97 64.5 154t205.5 57q63 0 117 -10.5t90 -27.5q-5 -16 -13.5 -40t-18.5 -49.5t-20.5 -49.5t-19.5 -41h-34l-11 137q-18 8 -39 12t-47 4q-47 0 -78 -17t-39 -55q-5 -24 -3.5 -47.5t4.5 -40.5t6 -29.5t5.5 -24.5t5.5 -25.5t6 -32.5
h125l-14 -61h-107q-3 -31 -12.5 -49t-25.5 -42q-6 -20 -22 -43t-42 -41l-39 -23v-4l51 6h177l73 112h34q-2 -23 -5 -55t-7 -65t-8.5 -62.5t-8.5 -47.5h-478l11 54q25 9 45.5 19.5t37 22.5t30 26.5t26.5 31.5q15 21 24.5 49t9.5 46q0 22 -2 36.5t-7 28.5h-112z" />
    <glyph glyph-name="currency" unicode="&#xa4;" 
d="M34 178l74 74l40 14q-13 17 -18 35.5t-5 44.5q0 47 23 79l-40 15l-74 74l78 78l74 -74l15 -40q16 11 34.5 17t43.5 6q53 -1 81 -22l15 39l73 72l77 -77l-73 -73l-38 -14q9 -17 14 -36t6 -45q1 -22 -4.5 -42t-15.5 -37l38 -14l73 -74l-78 -78l-73 73l-14 39
q-15 -9 -36 -15t-44 -6q-26 1 -45 6.5t-36 14.5l-13 -38l-74 -74zM279 263q36 1 60.5 24t24.5 59t-24.5 59.5t-60.5 23.5q-36 1 -60.5 -23t-23.5 -60q-1 -36 23.5 -59t60.5 -24z" />
    <glyph glyph-name="yen" unicode="&#xa5;" 
d="M472 700h241l-8 -38q-17 -10 -39.5 -18t-42.5 -11l-213 -291h117l-14 -65h-142l-13 -57h143l-14 -65h-142l-19 -88q19 -3 37 -11t33 -18l-8 -38h-308l8 38q19 9 42 17t46 12l19 88h-143l14 65h142l13 57h-143l14 65h114l-100 291q-22 4 -41.5 12t-33.5 17l8 38h327
l-8 -38q-28 -15 -80 -29l72 -282l188 282q-22 5 -41 12.5t-33 16.5z" />
    <glyph glyph-name="brokenbar" unicode="&#xa6;" horiz-adv-x="235" 
d="M97 190h70v-320h-70v320zM167 380h-70v320h70v-320z" />
    <glyph glyph-name="section" unicode="&#xa7;" horiz-adv-x="566" 
d="M366 39q0 27 -21 45t-52.5 31.5t-68.5 27.5t-68.5 33.5t-52.5 48t-21 73.5q0 49 39 84.5t97 58.5q-21 11 -39 24t-32 29.5t-22 37.5t-8 48q0 30 13.5 54.5t38.5 41.5t59 26.5t76 9.5q54 0 97.5 -8t79.5 -19q-4 -32 -10.5 -58.5t-18.5 -56.5h-34l-52 77q-12 5 -22.5 6.5
t-26.5 1.5q-34 0 -50 -17.5t-16 -39.5q0 -27 21.5 -45.5t53.5 -34t69.5 -31t69.5 -36t53.5 -49t21.5 -69.5q0 -26 -11.5 -48t-29.5 -40.5t-40.5 -33t-44.5 -25.5q36 -20 61 -47t25 -71q0 -70 -55 -110t-155 -40q-48 0 -96.5 10t-86.5 28q2 36 12.5 60.5t26.5 53.5h34l59 -84
q11 -8 22 -9.5t23 -1.5q32 0 57 17t25 47zM406 301q0 22 -11.5 39t-30 30t-43 23.5t-50.5 21.5q-22 -16 -38.5 -39t-16.5 -48q0 -22 12 -38.5t31.5 -29.5t44.5 -23.5t52 -21.5q20 17 35 40.5t15 45.5z" />
    <glyph glyph-name="dieresis" unicode="&#xa8;" horiz-adv-x="520" 
d="M175 659q0 32 20 51t53 19q32 0 52.5 -19t20.5 -51q0 -30 -20.5 -49t-52.5 -19q-33 0 -53 19t-20 49zM394 659q0 32 20 51t52 19q33 0 53.5 -19t20.5 -51q0 -30 -20.5 -49t-53.5 -19q-32 0 -52 19t-20 49z" />
    <glyph glyph-name="copyright" unicode="&#xa9;" horiz-adv-x="813" 
d="M65 290q0 83 29.5 148.5t79 110.5t113 69t132.5 24t132.5 -24t113 -69t79 -110.5t29.5 -148.5t-29.5 -148.5t-79 -110.5t-113 -69t-132.5 -24q-72 0 -136.5 24t-113 69t-76.5 110.5t-28 148.5zM132 290q0 -67 23 -121t62 -92t91 -58.5t111 -20.5q61 0 113.5 20.5t91 58.5
t60.5 92t22 121q0 69 -24 123t-63.5 91.5t-91.5 57.5t-108 20q-63 0 -115.5 -20.5t-90.5 -58.5t-59.5 -92t-21.5 -121zM525 220h34q2 -8 4.5 -20.5t4 -27.5t2 -30t-0.5 -27q-17 -14 -53 -23.5t-76 -9.5q-49 0 -89.5 13.5t-70 40t-46 65.5t-16.5 90q0 52 18.5 91t48 65
t67 39.5t75.5 13.5q48 0 83 -8.5t56 -21.5q1 -9 0 -24t-3 -31.5t-4.5 -32.5t-5.5 -26h-34l-30 83q-7 5 -19 5.5t-25 0.5q-45 0 -68.5 -38t-23.5 -116q0 -33 5.5 -61.5t17.5 -49t31 -32t46 -11.5q16 0 28 2.5t16 6.5z" />
    <glyph glyph-name="ordfeminine" unicode="&#xaa;" horiz-adv-x="460" 
d="M269 475q-7 -14 -20 -31t-30.5 -31.5t-40 -24.5t-49.5 -10q-51 0 -77 30t-26 81t18 92t48 70t68.5 44.5t79.5 15.5q24 0 47.5 -6t40.5 -17l87 22l18 -10l-53 -255l50 -10l-1 -28q-20 -12 -57 -20.5t-69 -8.5q-23 0 -32 11.5t-7 28.5l9 57h-4zM187 446q12 0 26.5 8.5
t27.5 21.5t24.5 28.5t17.5 28.5l21 102q-14 6 -25.5 11t-26.5 5q-20 0 -38.5 -10t-33.5 -28.5t-24 -46.5t-9 -64q0 -26 10 -41t30 -15z" />
    <glyph glyph-name="guillemotleft" unicode="&#xab;" horiz-adv-x="500" 
d="M254 259l225 222l35 -36l-150 -189l78 -179l-50 -36zM38 259l287 223l31 -36l-188 -191l116 -179l-47 -37z" />
    <glyph glyph-name="logicalnot" unicode="&#xac;" horiz-adv-x="547" 
d="M55 401h434v-216h-80v126h-354v90z" />
    <glyph glyph-name="uni00AD" unicode="&#xad;" horiz-adv-x="414" 
d="M83 327h287l-20 -90h-287z" />
    <glyph glyph-name="registered" unicode="&#xae;" horiz-adv-x="700" 
d="M115 451q0 66 23 118t62 88t90 55t107 19q57 0 108.5 -19t90 -55t61 -88t22.5 -118t-23 -118t-62 -88t-90 -55t-107 -19q-57 0 -108.5 19t-90 55t-61 88t-22.5 118zM177 451q0 -52 17.5 -93.5t47.5 -71t70 -45t85 -15.5q47 0 87.5 15.5t70 44.5t46 70.5t16.5 94.5
q0 52 -17.5 93.5t-47.5 70.5t-70 45t-85 16q-48 0 -88 -16t-69.5 -45t-46 -70.5t-16.5 -93.5zM366 351q13 -1 20 -3.5t14 -5.5v-33h-138v33q17 6 35 9v215q-11 1 -19 3.5t-16 7.5v31h52q18 0 43 2t41 2q54 0 88 -19.5t34 -64.5q0 -31 -19 -50.5t-47 -28.5q9 -15 16.5 -27
t15.5 -23.5t18.5 -23t24.5 -24.5l23 -12v-30h-64l-28 11q-25 30 -37.5 60t-23.5 59h-33v-88zM393 571q-11 0 -16 -0.5t-11 -2.5v-91h29q24 0 37 12t12 39q-1 23 -14.5 33t-36.5 10z" />
    <glyph glyph-name="macron" unicode="&#xaf;" horiz-adv-x="491" 
d="M194 619l15 70h294l-15 -70h-294z" />
    <glyph glyph-name="macron" unicode="&#x2c9;" horiz-adv-x="491" 
d="M194 619l15 70h294l-15 -70h-294z" />
    <glyph glyph-name="degree" unicode="&#xb0;" horiz-adv-x="408" 
d="M122 571q0 31 11.5 57t31 44.5t46 29t55.5 10.5t55.5 -9t46 -26.5t31 -44t11.5 -61.5q0 -33 -11.5 -59t-31 -44.5t-46 -28t-55.5 -9.5t-55.5 9.5t-46 28t-31 44.5t-11.5 59zM191 571q0 -38 22.5 -59.5t52.5 -21.5q32 0 53.5 20t21.5 61q0 39 -21.5 60t-53.5 21
q-33 0 -54 -21.5t-21 -59.5z" />
    <glyph glyph-name="plusminus" unicode="&#xb1;" 
d="M55 504h185v196h80v-196h185v-80h-185v-132h-80v132h-185v80zM55 244h450v-80h-450v80z" />
    <glyph glyph-name="twosuperior" unicode="&#xb2;" horiz-adv-x="440" 
d="M204 621h-27q-3 12 -6 32.5t-5.5 42t-4 40.5t-0.5 29q39 23 79.5 35.5t98.5 12.5q80 0 113.5 -28.5t33.5 -73.5q0 -36 -21 -69.5t-57.5 -64.5t-85 -59t-103.5 -52v-6l31 7h119l58 67h31q0 -17 -2 -39t-4.5 -43t-5.5 -38.5t-6 -27.5h-357l12 51q52 29 101 61t86.5 65
t60.5 65.5t23 62.5q0 23 -13.5 35t-43.5 12q-14 0 -28 -3t-26 -9z" />
    <glyph glyph-name="threesuperior" unicode="&#xb3;" horiz-adv-x="440" 
d="M257 437q24 0 41.5 8t28 20.5t15.5 27.5t5 29q0 24 -13.5 38t-56.5 14h-38l8 35l91 86l57 42v2l-63 -4h-71l-57 -83h-31q-2 13 -2.5 34t0.5 43.5t2.5 43t3.5 31.5h332l-9 -45l-119 -101l-46 -31l-1 -1l32 4q43 -2 72 -25.5t29 -69.5q0 -32 -11.5 -61t-38.5 -50.5
t-70.5 -34t-106.5 -12.5q-20 0 -42.5 3.5t-44 10t-39.5 15t-29 17.5l57 106h27q8 -13 16.5 -37.5t14.5 -44.5q18 -10 57 -10z" />
    <glyph glyph-name="acute" unicode="&#xb4;" horiz-adv-x="532" 
d="M357 763q8 2 26.5 1.5t38.5 -3.5t36.5 -8.5t21.5 -11.5v-24l-201 -155l-40 22z" />
    <glyph glyph-name="mu" unicode="&#xb5;" horiz-adv-x="622" 
d="M163 13l17 -174l-8 -39q-38 -8 -69.5 -8t-58.5 8l133 629l-59 8l6 39q17 6 41.5 12t50.5 11t50 8.5t40 4.5l33 -6q-8 -37 -15.5 -70.5t-15.5 -67.5t-16 -69.5t-17 -76.5q-17 -82 -13.5 -118t35.5 -36q31 0 71.5 40t73.5 115l47 234l151 49l-86 -436l69 -4l-6 -38
q-23 -12 -58.5 -24t-67.5 -14q-10 -1 -18.5 -0.5t-16.5 2.5l-49 19l24 143h-4q-35 -76 -86.5 -121t-112.5 -45q-20 0 -34.5 7t-25.5 18h-5z" />
    <glyph glyph-name="mu" unicode="&#x3bc;" horiz-adv-x="622" 
d="M163 13l17 -174l-8 -39q-38 -8 -69.5 -8t-58.5 8l133 629l-59 8l6 39q17 6 41.5 12t50.5 11t50 8.5t40 4.5l33 -6q-8 -37 -15.5 -70.5t-15.5 -67.5t-16 -69.5t-17 -76.5q-17 -82 -13.5 -118t35.5 -36q31 0 71.5 40t73.5 115l47 234l151 49l-86 -436l69 -4l-6 -38
q-23 -12 -58.5 -24t-67.5 -14q-10 -1 -18.5 -0.5t-16.5 2.5l-49 19l24 143h-4q-35 -76 -86.5 -121t-112.5 -45q-20 0 -34.5 7t-25.5 18h-5z" />
    <glyph glyph-name="paragraph" unicode="&#xb6;" horiz-adv-x="547" 
d="M452 94q0 -67 -10 -110.5t-29.5 -70t-48 -40t-65.5 -21.5q-20 -29 -49.5 -43.5t-60.5 -20.5l-16 33q22 9 41.5 22.5t33.5 36t22.5 57.5t8.5 87v286q-32 0 -63.5 10t-57 32.5t-41.5 59t-16 88.5q0 42 12.5 78.5t37 63.5t62.5 42.5t89 15.5h226v-43q-17 -8 -35 -14t-41 -10
v-539zM319 -111q41 13 55 64.5t14 140.5v544h-44v-614q0 -40 -5.5 -74.5t-19.5 -60.5z" />
    <glyph glyph-name="periodcentered" unicode="&#xb7;" horiz-adv-x="235" 
d="M50 321q0 36 23 58t61 22t62 -22t24 -58t-24 -57.5t-62 -21.5t-61 21.5t-23 57.5z" />
    <glyph glyph-name="periodcentered" unicode="&#x22c5;" horiz-adv-x="235" 
d="M50 321q0 36 23 58t61 22t62 -22t24 -58t-24 -57.5t-62 -21.5t-61 21.5t-23 57.5z" />
    <glyph glyph-name="periodcentered" unicode="&#x2219;" horiz-adv-x="235" 
d="M50 321q0 36 23 58t61 22t62 -22t24 -58t-24 -57.5t-62 -21.5t-61 21.5t-23 57.5z" />
    <glyph glyph-name="cedilla" unicode="&#xb8;" horiz-adv-x="445" 
d="M187 -68q54 -3 75.5 -20.5t22.5 -50.5q0 -31 -20 -53t-51.5 -36.5t-70 -21.5t-73.5 -7v39q17 3 33.5 8t29 12.5t20 17.5t7.5 23q-1 17 -11 28.5t-42 14.5l61 115h62z" />
    <glyph glyph-name="onesuperior" unicode="&#xb9;" horiz-adv-x="440" 
d="M415 386h-314l7 30q30 14 56.5 24t52.5 15l46 215l15 45q-13 -3 -28 -5t-30.5 -2.5t-30 0t-26.5 1.5l9 42q48 6 100.5 24t93.5 38h40l-76 -358q51 -12 92 -39z" />
    <glyph glyph-name="ordmasculine" unicode="&#xba;" horiz-adv-x="446" 
d="M26 504q0 43 18 81t49.5 66.5t74 44.5t91.5 16q76 0 118.5 -35.5t42.5 -95.5q0 -50 -20 -88.5t-53 -65.5t-75 -41t-85 -14q-33 0 -62.5 9t-51.5 26.5t-34.5 42t-12.5 54.5zM145 492q0 -27 12.5 -48t42.5 -21q18 0 36 11t33 32.5t24 54.5t9 78q0 23 -11.5 42.5t-42.5 19.5
q-18 0 -36.5 -12t-33 -34.5t-24 -53.5t-9.5 -69z" />
    <glyph glyph-name="guillemotright" unicode="&#xbb;" horiz-adv-x="500" 
d="M286 262l-225 -222l-35 36l150 189l-78 179l50 36zM502 262l-287 -223l-31 36l188 191l-116 179l47 37z" />
    <glyph glyph-name="onequarter" unicode="&#xbc;" horiz-adv-x="953" 
d="M375 282h-314l7 30q30 14 56.5 24t52.5 15l46 215l15 45q-13 -3 -28 -5t-30.5 -2.5t-30 0t-26.5 1.5l9 42q48 6 100.5 24t93.5 38h40l-76 -358q51 -12 92 -39zM841 715l48 -42l-665 -686l-47 43zM870 0h-245l7 30q17 9 37.5 17t41.5 12l12 54h-229l7 37l331 277h70
l-54 -254h85l-13 -60h-85l-11 -54q14 -4 27.5 -11t25.5 -18zM757 276l19 43h-3l-42 -43l-100 -87l-41 -23l55 7h90z" />
    <glyph glyph-name="onehalf" unicode="&#xbd;" horiz-adv-x="1026" 
d="M375 282h-314l7 30q30 14 56.5 24t52.5 15l46 215l15 45q-13 -3 -28 -5t-30.5 -2.5t-30 0t-26.5 1.5l9 42q48 6 100.5 24t93.5 38h40l-76 -358q51 -12 92 -39zM835 715l48 -42l-665 -686l-47 43zM704 235h-27q-3 12 -6 32.5t-5.5 42t-4 40.5t-0.5 29q39 23 79.5 35.5
t98.5 12.5q80 0 113.5 -28.5t33.5 -73.5q0 -36 -21 -69.5t-57.5 -64.5t-85 -59t-103.5 -52v-6l31 7h119l58 67h31q0 -17 -2 -39t-4.5 -43t-5.5 -38.5t-6 -27.5h-357l12 51q52 29 101 61t86.5 65t60.5 65.5t23 62.5q0 23 -13.5 35t-43.5 12q-14 0 -28 -3t-26 -9z" />
    <glyph glyph-name="threequarters" unicode="&#xbe;" horiz-adv-x="975" 
d="M232 333q24 0 41.5 8t28 20.5t15.5 27.5t5 29q0 24 -13.5 38t-56.5 14h-38l8 35l91 86l57 42v2l-63 -4h-71l-57 -83h-31q-2 13 -2.5 34t0.5 43.5t2.5 43t3.5 31.5h332l-9 -45l-119 -101l-46 -31l-1 -1l32 4q43 -2 72 -25.5t29 -69.5q0 -32 -11.5 -61t-38.5 -50.5
t-70.5 -34t-106.5 -12.5q-20 0 -42.5 3.5t-44 10t-39.5 15t-29 17.5l57 106h27q8 -13 16.5 -37.5t14.5 -44.5q18 -10 57 -10zM859 715l48 -42l-665 -686l-47 43zM894 0h-245l7 30q17 9 37.5 17t41.5 12l12 54h-229l7 37l331 277h70l-54 -254h85l-13 -60h-85l-11 -54
q14 -4 27.5 -11t25.5 -18zM781 276l19 43h-3l-42 -43l-100 -87l-41 -23l55 7h90z" />
    <glyph glyph-name="questiondown" unicode="&#xbf;" horiz-adv-x="486" 
d="M318 3h34q5 -20 12.5 -52.5t9.5 -65.5q1 -11 0.5 -21.5t-1.5 -20.5q-42 -23 -92 -37t-115 -14q-89 0 -139.5 36t-50.5 102q0 49 20.5 84t52 61.5t69 49t71 47.5t59 55.5t32.5 73.5h33q5 -48 -7 -85t-33 -67t-47.5 -55t-49.5 -50t-38.5 -51.5t-15.5 -58.5
q0 -40 21.5 -58.5t56.5 -18.5q48 0 67 14zM217 432q0 36 23 58t61 22t62 -22t24 -58t-24 -57.5t-62 -21.5t-61 21.5t-23 57.5z" />
    <glyph glyph-name="Agrave" unicode="&#xc0;" horiz-adv-x="724" 
d="M205 0h-249l7 38q18 10 38 17.5t40 11.5l396 645h73l113 -645q19 -4 37.5 -12t31.5 -17l-8 -38h-308l7 38q21 10 44.5 17.5t44.5 11.5l-24 159h-221l-95 -159q21 -3 42 -10.5t38 -18.5zM261 291h179l-28 191v86h-2l-38 -88zM524 764l-34 -19l-236 96v20q3 9 21.5 16.5
t42 13t46 8t33.5 -0.5z" />
    <glyph glyph-name="Aacute" unicode="&#xc1;" horiz-adv-x="724" 
d="M205 0h-249l7 38q18 10 38 17.5t40 11.5l396 645h73l113 -645q19 -4 37.5 -12t31.5 -17l-8 -38h-308l7 38q21 10 44.5 17.5t44.5 11.5l-24 159h-221l-95 -159q21 -3 42 -10.5t38 -18.5zM261 291h179l-28 191v86h-2l-38 -88zM575 898q16 1 36.5 -2t40 -8.5t35 -12.5
t21.5 -14v-20l-247 -96l-28 24z" />
    <glyph glyph-name="Acircumflex" unicode="&#xc2;" horiz-adv-x="724" 
d="M205 0h-249l7 38q18 10 38 17.5t40 11.5l396 645h73l113 -645q19 -4 37.5 -12t31.5 -17l-8 -38h-308l7 38q21 10 44.5 17.5t44.5 11.5l-24 159h-221l-95 -159q21 -3 42 -10.5t38 -18.5zM261 291h179l-28 191v86h-2l-38 -88zM338 743l-28 28l172 117q12 7 33 5q19 0 29 -5
l80 -114l-28 -30l-104 56z" />
    <glyph glyph-name="Atilde" unicode="&#xc3;" horiz-adv-x="724" 
d="M205 0h-249l7 38q18 10 38 17.5t40 11.5l396 645h73l113 -645q19 -4 37.5 -12t31.5 -17l-8 -38h-308l7 38q21 10 44.5 17.5t44.5 11.5l-24 159h-221l-95 -159q21 -3 42 -10.5t38 -18.5zM261 291h179l-28 191v86h-2l-38 -88zM669 817q-32 -32 -60 -48.5t-64 -16.5
q-19 0 -35.5 5.5t-32.5 11.5t-31 11.5t-31 5.5q-14 0 -30.5 -5.5t-32.5 -19.5l-28 47q76 68 135 68q18 0 34.5 -5t31.5 -11t30 -11t31 -5q13 0 29 4.5t32 15.5z" />
    <glyph glyph-name="Adieresis" unicode="&#xc4;" horiz-adv-x="724" 
d="M205 0h-249l7 38q18 10 38 17.5t40 11.5l396 645h73l113 -645q19 -4 37.5 -12t31.5 -17l-8 -38h-308l7 38q21 10 44.5 17.5t44.5 11.5l-24 159h-221l-95 -159q21 -3 42 -10.5t38 -18.5zM261 291h179l-28 191v86h-2l-38 -88zM277 793q0 32 23 48t58 16t58 -16t23 -48
q0 -28 -23 -43.5t-58 -15.5t-58 15.5t-23 43.5zM522 793q0 32 23.5 48t58.5 16t58 -16t23 -48q0 -28 -23 -43.5t-58 -15.5t-58.5 15.5t-23.5 43.5z" />
    <glyph glyph-name="Aring" unicode="&#xc5;" horiz-adv-x="724" 
d="M356 777q0 21 11 39.5t31 32t48.5 21.5t63.5 8q48 0 77 -17t29 -55t-30.5 -64t-75.5 -33l113 -642q19 -4 37.5 -12t31.5 -17l-8 -38h-308l7 38q21 10 44.5 17.5t44.5 11.5l-24 159h-221l-95 -159q21 -3 42 -10.5t38 -18.5l-7 -38h-249l7 38q18 10 38 17.5t40 11.5
l393 639q-78 9 -78 71zM261 291h179l-28 191v86h-2l-38 -88zM439 785q0 -16 12.5 -23.5t27.5 -7.5q24 0 39 11t15 27q0 20 -11 28t-30 8q-23 0 -38 -11.5t-15 -31.5z" />
    <glyph glyph-name="AE" unicode="&#xc6;" horiz-adv-x="953" 
d="M1001 700q-10 -45 -25.5 -93t-32.5 -90h-42l-21 118h-187l-52 -245h123l60 77h31q-2 -24 -6.5 -52.5t-10.5 -57.5t-13.5 -57.5t-15.5 -53.5h-32l-27 79h-123l-55 -260h195l80 127h42q0 -19 -1.5 -43t-4 -49.5t-6.5 -51.5t-9 -48h-536l7 38q18 8 39.5 16t44.5 13l38 177
h-182l-138 -177q38 -9 70 -29l-7 -38h-248l7 38q18 10 38 17.5t39 11.5l468 571q-14 5 -28 10.5t-25 13.5l8 38h538zM329 309h147l64 285h-2l-54 -90z" />
    <glyph glyph-name="Ccedilla" unicode="&#xc7;" horiz-adv-x="652" 
d="M561 210h42q0 -16 -1 -38.5t-4 -48t-7 -50.5t-9 -45q-19 -10 -42 -17.5t-47 -12t-47 -7t-42 -3.5l-35 -58q58 -2 83 -22t25 -55q0 -38 -25.5 -64t-61.5 -42.5t-76 -24t-69 -7.5v46q18 2 35.5 7t32 14t23 21.5t8.5 29.5q-1 18 -11 29t-45 13l54 115q-78 7 -131.5 33.5
t-87.5 65.5t-49 86t-15 94q0 99 29 180.5t84.5 140t136 90.5t182.5 32q66 0 118.5 -9.5t85.5 -25.5q-3 -16 -10 -41t-16 -52.5t-19 -54t-19 -44.5h-42l-23 151q-9 5 -30 8t-42 3q-58 0 -106.5 -28t-84 -79t-55 -123.5t-19.5 -161.5q0 -56 16 -94.5t41.5 -62.5t56 -34.5
t59.5 -10.5t50 5.5t31 11.5z" />
    <glyph glyph-name="Egrave" unicode="&#xc8;" horiz-adv-x="602" 
d="M650 700q-10 -45 -25 -93t-33 -90h-42l-21 118h-187l-52 -245h123l60 77h31q-5 -49 -17.5 -109t-28.5 -112h-32l-27 79h-123l-54 -260h194l80 127h42q0 -18 -1.5 -42t-4 -50t-6.5 -52t-9 -48h-541l7 38q20 9 42.5 17t46.5 12l120 566q-20 4 -40 11.5t-36 17.5l8 38h526z
M485 764l-34 -19l-236 96v20q3 9 21.5 16.5t42 13t46 8t33.5 -0.5z" />
    <glyph glyph-name="Eacute" unicode="&#xc9;" horiz-adv-x="602" 
d="M650 700q-10 -45 -25 -93t-33 -90h-42l-21 118h-187l-52 -245h123l60 77h31q-5 -49 -17.5 -109t-28.5 -112h-32l-27 79h-123l-54 -260h194l80 127h42q0 -18 -1.5 -42t-4 -50t-6.5 -52t-9 -48h-541l7 38q20 9 42.5 17t46.5 12l120 566q-20 4 -40 11.5t-36 17.5l8 38h526z
M478 898q16 1 36.5 -2t40 -8.5t35 -12.5t21.5 -14v-20l-247 -96l-28 24z" />
    <glyph glyph-name="Ecircumflex" unicode="&#xca;" horiz-adv-x="602" 
d="M650 700q-10 -45 -25 -93t-33 -90h-42l-21 118h-187l-52 -245h123l60 77h31q-5 -49 -17.5 -109t-28.5 -112h-32l-27 79h-123l-54 -260h194l80 127h42q0 -18 -1.5 -42t-4 -50t-6.5 -52t-9 -48h-541l7 38q20 9 42.5 17t46.5 12l120 566q-20 4 -40 11.5t-36 17.5l8 38h526z
M288 743l-28 28l172 117q12 7 33 5q19 0 29 -5l80 -114l-28 -30l-104 56z" />
    <glyph glyph-name="Edieresis" unicode="&#xcb;" horiz-adv-x="602" 
d="M650 700q-10 -45 -25 -93t-33 -90h-42l-21 118h-187l-52 -245h123l60 77h31q-5 -49 -17.5 -109t-28.5 -112h-32l-27 79h-123l-54 -260h194l80 127h42q0 -18 -1.5 -42t-4 -50t-6.5 -52t-9 -48h-541l7 38q20 9 42.5 17t46.5 12l120 566q-20 4 -40 11.5t-36 17.5l8 38h526z
M209 793q0 32 23 48t58 16t58 -16t23 -48q0 -28 -23 -43.5t-58 -15.5t-58 15.5t-23 43.5zM454 793q0 32 23.5 48t58.5 16t58 -16t23 -48q0 -28 -23 -43.5t-58 -15.5t-58.5 15.5t-23.5 43.5z" />
    <glyph glyph-name="Igrave" unicode="&#xcc;" horiz-adv-x="369" 
d="M298 0h-312l7 38q47 22 88 29l120 566q-20 3 -39.5 10.5t-35.5 18.5l8 38h312l-8 -38q-20 -11 -43.5 -18.5t-43.5 -10.5l-120 -566q19 -4 39 -11t35 -18zM383 764l-34 -19l-236 96v20q3 9 21.5 16.5t42 13t46 8t33.5 -0.5z" />
    <glyph glyph-name="Iacute" unicode="&#xcd;" horiz-adv-x="369" 
d="M298 0h-312l7 38q47 22 88 29l120 566q-20 3 -39.5 10.5t-35.5 18.5l8 38h312l-8 -38q-20 -11 -43.5 -18.5t-43.5 -10.5l-120 -566q19 -4 39 -11t35 -18zM330 898q16 1 36.5 -2t40 -8.5t35 -12.5t21.5 -14v-20l-247 -96l-28 24z" />
    <glyph glyph-name="Icircumflex" unicode="&#xce;" horiz-adv-x="369" 
d="M298 0h-312l7 38q47 22 88 29l120 566q-20 3 -39.5 10.5t-35.5 18.5l8 38h312l-8 -38q-20 -11 -43.5 -18.5t-43.5 -10.5l-120 -566q19 -4 39 -11t35 -18zM160 743l-28 28l172 117q12 7 33 5q19 0 29 -5l80 -114l-28 -30l-104 56z" />
    <glyph glyph-name="Idieresis" unicode="&#xcf;" horiz-adv-x="369" 
d="M298 0h-312l7 38q47 22 88 29l120 566q-20 3 -39.5 10.5t-35.5 18.5l8 38h312l-8 -38q-20 -11 -43.5 -18.5t-43.5 -10.5l-120 -566q19 -4 39 -11t35 -18zM95 793q0 32 23 48t58 16t58 -16t23 -48q0 -28 -23 -43.5t-58 -15.5t-58 15.5t-23 43.5zM340 793q0 32 23.5 48
t58.5 16t58 -16t23 -48q0 -28 -23 -43.5t-58 -15.5t-58.5 15.5t-23.5 43.5z" />
    <glyph glyph-name="Eth" unicode="&#xd0;" horiz-adv-x="734" 
d="M-24 0l7 38q19 10 42 17.5t47 11.5l55 262h-87l13 60h87l52 244q-23 5 -42.5 12.5t-33.5 16.5l8 38h116q17 0 42.5 1t53 2.5t53 3t43.5 1.5q84 0 142.5 -18t95 -51t53 -78.5t16.5 -100.5q0 -57 -10 -113.5t-33 -108.5t-59 -97t-88.5 -78.5t-121.5 -52.5t-158 -19
q-13 0 -35.5 1.5t-48.5 3t-51.5 3t-44.5 1.5h-113zM409 643q-18 0 -38 -1t-34 -3l-54 -250h152l-13 -60h-151l-57 -269q15 -2 38 -3t34 -1q81 0 136 38.5t89 99t48.5 134.5t14.5 145q0 41 -8 73t-27 53.5t-51 32.5t-79 11z" />
    <glyph glyph-name="Ntilde" unicode="&#xd1;" horiz-adv-x="755" 
d="M595 700h247l-8 -38q-23 -17 -47 -27.5t-47 -16.5l-134 -630h-81l-248 510l-24 77h-3l-9 -80l-89 -417q18 -5 40.5 -16.5t36.5 -23.5l-7 -38h-246l7 38q45 28 93 40l116 546q-17 7 -36.5 18t-30.5 21l7 37h212l201 -416l30 -86h4l15 86l70 334q-22 8 -42.5 19.5
t-34.5 24.5zM658 817q-32 -32 -60 -48.5t-64 -16.5q-19 0 -35.5 5.5t-32.5 11.5t-31 11.5t-31 5.5q-14 0 -30.5 -5.5t-32.5 -19.5l-28 47q76 68 135 68q18 0 34.5 -5t31.5 -11t30 -11t31 -5q13 0 29 4.5t32 15.5z" />
    <glyph glyph-name="Ograve" unicode="&#xd2;" horiz-adv-x="751" 
d="M59 271q0 92 28.5 172.5t82 140t131 94t175.5 34.5q67 0 119 -19.5t88 -56t54.5 -88.5t18.5 -117q0 -82 -25 -161.5t-76 -142t-127.5 -101t-179.5 -38.5q-69 0 -123 21.5t-91 59.5t-56 90t-19 112zM229 252q0 -100 37.5 -149.5t101.5 -49.5q57 0 98 37t68 94.5t39.5 129
t12.5 140.5q0 89 -30.5 141t-100.5 52q-39 0 -70.5 -17.5t-57 -47.5t-44 -69.5t-30.5 -83.5t-18 -89.5t-6 -87.5zM573 764l-34 -19l-236 96v20q3 9 21.5 16.5t42 13t46 8t33.5 -0.5z" />
    <glyph glyph-name="Oacute" unicode="&#xd3;" horiz-adv-x="751" 
d="M59 271q0 92 28.5 172.5t82 140t131 94t175.5 34.5q67 0 119 -19.5t88 -56t54.5 -88.5t18.5 -117q0 -82 -25 -161.5t-76 -142t-127.5 -101t-179.5 -38.5q-69 0 -123 21.5t-91 59.5t-56 90t-19 112zM229 252q0 -100 37.5 -149.5t101.5 -49.5q57 0 98 37t68 94.5t39.5 129
t12.5 140.5q0 89 -30.5 141t-100.5 52q-39 0 -70.5 -17.5t-57 -47.5t-44 -69.5t-30.5 -83.5t-18 -89.5t-6 -87.5zM530 898q16 1 36.5 -2t40 -8.5t35 -12.5t21.5 -14v-20l-247 -96l-28 24z" />
    <glyph glyph-name="Ocircumflex" unicode="&#xd4;" horiz-adv-x="751" 
d="M59 271q0 92 28.5 172.5t82 140t131 94t175.5 34.5q67 0 119 -19.5t88 -56t54.5 -88.5t18.5 -117q0 -82 -25 -161.5t-76 -142t-127.5 -101t-179.5 -38.5q-69 0 -123 21.5t-91 59.5t-56 90t-19 112zM229 252q0 -100 37.5 -149.5t101.5 -49.5q57 0 98 37t68 94.5t39.5 129
t12.5 140.5q0 89 -30.5 141t-100.5 52q-39 0 -70.5 -17.5t-57 -47.5t-44 -69.5t-30.5 -83.5t-18 -89.5t-6 -87.5zM352 743l-28 28l172 117q12 7 33 5q19 0 29 -5l80 -114l-28 -30l-104 56z" />
    <glyph glyph-name="Otilde" unicode="&#xd5;" horiz-adv-x="751" 
d="M59 271q0 92 28.5 172.5t82 140t131 94t175.5 34.5q67 0 119 -19.5t88 -56t54.5 -88.5t18.5 -117q0 -82 -25 -161.5t-76 -142t-127.5 -101t-179.5 -38.5q-69 0 -123 21.5t-91 59.5t-56 90t-19 112zM229 252q0 -100 37.5 -149.5t101.5 -49.5q57 0 98 37t68 94.5t39.5 129
t12.5 140.5q0 89 -30.5 141t-100.5 52q-39 0 -70.5 -17.5t-57 -47.5t-44 -69.5t-30.5 -83.5t-18 -89.5t-6 -87.5zM663 817q-32 -32 -60 -48.5t-64 -16.5q-19 0 -35.5 5.5t-32.5 11.5t-31 11.5t-31 5.5q-14 0 -30.5 -5.5t-32.5 -19.5l-28 47q76 68 135 68q18 0 34.5 -5
t31.5 -11t30 -11t31 -5q13 0 29 4.5t32 15.5z" />
    <glyph glyph-name="Odieresis" unicode="&#xd6;" horiz-adv-x="751" 
d="M59 271q0 92 28.5 172.5t82 140t131 94t175.5 34.5q67 0 119 -19.5t88 -56t54.5 -88.5t18.5 -117q0 -82 -25 -161.5t-76 -142t-127.5 -101t-179.5 -38.5q-69 0 -123 21.5t-91 59.5t-56 90t-19 112zM229 252q0 -100 37.5 -149.5t101.5 -49.5q57 0 98 37t68 94.5t39.5 129
t12.5 140.5q0 89 -30.5 141t-100.5 52q-39 0 -70.5 -17.5t-57 -47.5t-44 -69.5t-30.5 -83.5t-18 -89.5t-6 -87.5zM283 793q0 32 23 48t58 16t58 -16t23 -48q0 -28 -23 -43.5t-58 -15.5t-58 15.5t-23 43.5zM528 793q0 32 23.5 48t58.5 16t58 -16t23 -48q0 -28 -23 -43.5
t-58 -15.5t-58.5 15.5t-23.5 43.5z" />
    <glyph glyph-name="multiply" unicode="&#xd7;" 
d="M91 213l131 131l-129 129l57 56l129 -128l130 130l57 -56l-131 -131l133 -133l-57 -57l-133 133l-130 -130z" />
    <glyph glyph-name="Oslash" unicode="&#xd8;" horiz-adv-x="751" 
d="M59 271q0 92 28.5 172.5t82 140t131 94t175.5 34.5q48 0 88 -10t72 -29l38 45l50 -41l-37 -44q35 -37 52 -88t17 -114q0 -82 -25 -161.5t-76 -142t-127.5 -101t-179.5 -38.5q-51 0 -93 12t-75 33l-44 -51l-49 43l42 49q-35 38 -52.5 88t-17.5 109zM368 53q53 0 91 29.5
t63.5 77.5t39.5 108t19 121q3 57 -8 109l-315 -372q34 -73 110 -73zM455 647q-53 0 -92.5 -30.5t-67 -79t-42.5 -108t-19 -117.5q-3 -56 8 -105l315 373q-14 32 -39 49.5t-63 17.5z" />
    <glyph glyph-name="Ugrave" unicode="&#xd9;" horiz-adv-x="715" 
d="M112 700h308l-8 -38q-36 -21 -82 -29l-79 -373q-20 -98 15 -142t110 -44q70 0 117 40.5t68 138.5l79 375q-23 5 -45.5 14t-35.5 20l8 38h248l-8 -38q-18 -13 -42.5 -21t-47.5 -13l-80 -376q-27 -129 -98.5 -195t-204.5 -66q-143 0 -200.5 75t-29.5 205l76 362
q-20 4 -41.5 11t-34.5 18zM554 764l-34 -19l-236 96v20q3 9 21.5 16.5t42 13t46 8t33.5 -0.5z" />
    <glyph glyph-name="Uacute" unicode="&#xda;" horiz-adv-x="715" 
d="M112 700h308l-8 -38q-36 -21 -82 -29l-79 -373q-20 -98 15 -142t110 -44q70 0 117 40.5t68 138.5l79 375q-23 5 -45.5 14t-35.5 20l8 38h248l-8 -38q-18 -13 -42.5 -21t-47.5 -13l-80 -376q-27 -129 -98.5 -195t-204.5 -66q-143 0 -200.5 75t-29.5 205l76 362
q-20 4 -41.5 11t-34.5 18zM605 898q16 1 36.5 -2t40 -8.5t35 -12.5t21.5 -14v-20l-247 -96l-28 24z" />
    <glyph glyph-name="Ucircumflex" unicode="&#xdb;" horiz-adv-x="715" 
d="M112 700h308l-8 -38q-36 -21 -82 -29l-79 -373q-20 -98 15 -142t110 -44q70 0 117 40.5t68 138.5l79 375q-23 5 -45.5 14t-35.5 20l8 38h248l-8 -38q-18 -13 -42.5 -21t-47.5 -13l-80 -376q-27 -129 -98.5 -195t-204.5 -66q-143 0 -200.5 75t-29.5 205l76 362
q-20 4 -41.5 11t-34.5 18zM358 743l-28 28l172 117q12 7 33 5q19 0 29 -5l80 -114l-28 -30l-104 56z" />
    <glyph glyph-name="Udieresis" unicode="&#xdc;" horiz-adv-x="715" 
d="M112 700h308l-8 -38q-36 -21 -82 -29l-79 -373q-20 -98 15 -142t110 -44q70 0 117 40.5t68 138.5l79 375q-23 5 -45.5 14t-35.5 20l8 38h248l-8 -38q-18 -13 -42.5 -21t-47.5 -13l-80 -376q-27 -129 -98.5 -195t-204.5 -66q-143 0 -200.5 75t-29.5 205l76 362
q-20 4 -41.5 11t-34.5 18zM298 793q0 32 23 48t58 16t58 -16t23 -48q0 -28 -23 -43.5t-58 -15.5t-58 15.5t-23 43.5zM543 793q0 32 23.5 48t58.5 16t58 -16t23 -48q0 -28 -23 -43.5t-58 -15.5t-58.5 15.5t-23.5 43.5z" />
    <glyph glyph-name="Yacute" unicode="&#xdd;" horiz-adv-x="695" 
d="M554 700h249l-8 -38q-17 -10 -37 -17.5t-40 -11.5l-267 -340l-48 -226q19 -3 37 -11t33 -18l-8 -38h-308l8 38q19 9 42 17t46 12l48 225l-130 341q-22 4 -41.5 11.5t-33.5 17.5l8 38h325l-8 -38q-14 -8 -34 -16t-46 -13l87 -269l191 269q-21 5 -40 12.5t-33 16.5z
M571 898q16 1 36.5 -2t40 -8.5t35 -12.5t21.5 -14v-20l-247 -96l-28 24z" />
    <glyph glyph-name="Thorn" unicode="&#xde;" horiz-adv-x="629" 
d="M221 63q26 -3 51.5 -11.5t42.5 -18.5l-6 -33h-333l6 33q44 21 89 29l122 576q-20 3 -40 11t-36 18l7 33h313l-7 -33q-20 -11 -43.5 -18.5t-43.5 -10.5l-9 -45q21 2 44.5 3.5t42.5 1.5q109 0 170 -40t61 -124q0 -61 -24.5 -109.5t-68 -82.5t-104 -52t-131.5 -18h-16
t-23.5 0.5t-23.5 1t-16 1.5zM375 533q-20 0 -32 -1.5t-23 -4.5l-62 -286q9 -3 27 -3.5t29 -0.5q40 0 71.5 14t54 39.5t34.5 60t12 75.5q0 52 -24.5 79.5t-86.5 27.5z" />
    <glyph glyph-name="germandbls" unicode="&#xdf;" horiz-adv-x="661" 
d="M300 376q0 45 16.5 79t43.5 59t61.5 42t71.5 28q11 51 -12 81t-71 30q-20 0 -42 -6t-41.5 -21.5t-35 -44t-22.5 -73.5l-84 -507q-10 -71 -41 -118t-68.5 -75.5t-75.5 -42.5t-62 -19l-11 34q12 6 30 19.5t36 37.5t33.5 59.5t23.5 85.5l63 413h-71v39q20 11 42.5 19.5
t42.5 13.5l7 35q12 62 44.5 102.5t74.5 64t88.5 32.5t87.5 9q97 0 146 -35t54 -95q1 -11 -0.5 -22.5t-3.5 -24.5q-31 -5 -63.5 -15.5t-59 -29.5t-43.5 -46t-17 -65q0 -24 12.5 -42.5t30.5 -36t40 -35.5t40 -39t30.5 -47t12.5 -60q0 -38 -17 -69.5t-46.5 -54t-70.5 -35
t-89 -12.5q-51 0 -86 9.5t-55 23.5q0 31 12 59.5t36 45.5l86 -81q16 0 31.5 6.5t27.5 17t19 25t7 31.5q0 25 -12 44t-30 36t-39.5 33.5t-39.5 36t-30 44t-12 57.5z" />
    <glyph glyph-name="agrave" unicode="&#xe0;" horiz-adv-x="563" 
d="M215 68q19 0 39.5 17t39 42.5t34 56t26.5 56.5l37 198q-12 8 -22.5 11.5t-27.5 3.5q-40 0 -72 -26.5t-54 -69t-33.5 -95.5t-11.5 -106q0 -46 11 -67t34 -21zM339 159q-13 -32 -32.5 -62.5t-44.5 -54.5t-55 -39t-65 -15q-52 0 -83 38t-31 113q0 78 21.5 145.5t61 118
t95.5 79t125 28.5q26 0 44.5 -6t39.5 -15q26 10 56 15t72 5l-84 -440h70v-34q-10 -8 -26.5 -16t-36 -14t-40 -10t-38.5 -4q-35 0 -50 15t-15 31q0 18 5 47.5t15 74.5h-4zM394 589l-45 -22l-166 145v29q6 6 26 11.5t42.5 8.5t42.5 3.5t27 -1.5z" />
    <glyph glyph-name="aacute" unicode="&#xe1;" horiz-adv-x="563" 
d="M215 68q19 0 39.5 17t39 42.5t34 56t26.5 56.5l37 198q-12 8 -22.5 11.5t-27.5 3.5q-40 0 -72 -26.5t-54 -69t-33.5 -95.5t-11.5 -106q0 -46 11 -67t34 -21zM339 159q-13 -32 -32.5 -62.5t-44.5 -54.5t-55 -39t-65 -15q-52 0 -83 38t-31 113q0 78 21.5 145.5t61 118
t95.5 79t125 28.5q26 0 44.5 -6t39.5 -15q26 10 56 15t72 5l-84 -440h70v-34q-10 -8 -26.5 -16t-36 -14t-40 -10t-38.5 -4q-35 0 -50 15t-15 31q0 18 5 47.5t15 74.5h-4zM406 763q8 2 26.5 1.5t38.5 -3.5t36.5 -8.5t21.5 -11.5v-24l-201 -155l-40 22z" />
    <glyph glyph-name="acircumflex" unicode="&#xe2;" horiz-adv-x="563" 
d="M215 68q19 0 39.5 17t39 42.5t34 56t26.5 56.5l37 198q-12 8 -22.5 11.5t-27.5 3.5q-40 0 -72 -26.5t-54 -69t-33.5 -95.5t-11.5 -106q0 -46 11 -67t34 -21zM339 159q-13 -32 -32.5 -62.5t-44.5 -54.5t-55 -39t-65 -15q-52 0 -83 38t-31 113q0 78 21.5 145.5t61 118
t95.5 79t125 28.5q26 0 44.5 -6t39.5 -15q26 10 56 15t72 5l-84 -440h70v-34q-10 -8 -26.5 -16t-36 -14t-40 -10t-38.5 -4q-35 0 -50 15t-15 31q0 18 5 47.5t15 74.5h-4zM256 577l-42 25l160 186q3 3 10.5 4.5t15.5 1.5q17 0 26 -6l64 -185l-41 -26l-75 98z" />
    <glyph glyph-name="atilde" unicode="&#xe3;" horiz-adv-x="563" 
d="M215 68q19 0 39.5 17t39 42.5t34 56t26.5 56.5l37 198q-12 8 -22.5 11.5t-27.5 3.5q-40 0 -72 -26.5t-54 -69t-33.5 -95.5t-11.5 -106q0 -46 11 -67t34 -21zM339 159q-13 -32 -32.5 -62.5t-44.5 -54.5t-55 -39t-65 -15q-52 0 -83 38t-31 113q0 78 21.5 145.5t61 118
t95.5 79t125 28.5q26 0 44.5 -6t39.5 -15q26 10 56 15t72 5l-84 -440h70v-34q-10 -8 -26.5 -16t-36 -14t-40 -10t-38.5 -4q-35 0 -50 15t-15 31q0 18 5 47.5t15 74.5h-4zM519 667q-30 -34 -62 -49.5t-55 -15.5q-18 0 -34 5.5t-31 11.5t-29.5 11.5t-29.5 5.5
q-13 0 -26.5 -4.5t-29.5 -15.5l-28 42q37 38 70.5 53t56.5 15q18 0 33.5 -5t29.5 -11t28.5 -11t29.5 -5q13 0 26 2.5t29 12.5z" />
    <glyph glyph-name="adieresis" unicode="&#xe4;" horiz-adv-x="563" 
d="M215 68q19 0 39.5 17t39 42.5t34 56t26.5 56.5l37 198q-12 8 -22.5 11.5t-27.5 3.5q-40 0 -72 -26.5t-54 -69t-33.5 -95.5t-11.5 -106q0 -46 11 -67t34 -21zM339 159q-13 -32 -32.5 -62.5t-44.5 -54.5t-55 -39t-65 -15q-52 0 -83 38t-31 113q0 78 21.5 145.5t61 118
t95.5 79t125 28.5q26 0 44.5 -6t39.5 -15q26 10 56 15t72 5l-84 -440h70v-34q-10 -8 -26.5 -16t-36 -14t-40 -10t-38.5 -4q-35 0 -50 15t-15 31q0 18 5 47.5t15 74.5h-4zM175 659q0 32 20 51t53 19q32 0 52.5 -19t20.5 -51q0 -30 -20.5 -49t-52.5 -19q-33 0 -53 19t-20 49z
M394 659q0 32 20 51t52 19q33 0 53.5 -19t20.5 -51q0 -30 -20.5 -49t-53.5 -19q-32 0 -52 19t-20 49z" />
    <glyph glyph-name="aring" unicode="&#xe5;" horiz-adv-x="563" 
d="M215 68q19 0 39.5 17t39 42.5t34 56t26.5 56.5l37 198q-12 8 -22.5 11.5t-27.5 3.5q-40 0 -72 -26.5t-54 -69t-33.5 -95.5t-11.5 -106q0 -46 11 -67t34 -21zM339 159q-13 -32 -32.5 -62.5t-44.5 -54.5t-55 -39t-65 -15q-52 0 -83 38t-31 113q0 78 21.5 145.5t61 118
t95.5 79t125 28.5q26 0 44.5 -6t39.5 -15q26 10 56 15t72 5l-84 -440h70v-34q-10 -8 -26.5 -16t-36 -14t-40 -10t-38.5 -4q-35 0 -50 15t-15 31q0 18 5 47.5t15 74.5h-4zM259 664q0 48 36 82t101 34q44 0 68.5 -23t24.5 -58q0 -23 -9 -44t-26 -37t-41.5 -25t-55.5 -9
q-47 0 -72.5 21.5t-25.5 58.5zM334 666q0 -15 8.5 -23.5t21.5 -8.5q18 0 34 16.5t16 45.5q0 34 -28 34q-25 0 -38.5 -19t-13.5 -45z" />
    <glyph glyph-name="ae" unicode="&#xe6;" horiz-adv-x="781" 
d="M226 68q18 0 34 8t29.5 20.5t23.5 28.5t16 32q-1 19 0 40t3 38q-81 10 -124 -18.5t-43 -81.5q0 -34 17.5 -50.5t43.5 -16.5zM339 98q-24 -47 -71 -78.5t-106 -31.5q-67 0 -105 36t-38 92q0 90 83 132.5t241 31.5q26 85 19 130t-57 45q-27 0 -54 -10l-57 -105h-44
q-13 22 -24 53t-11 63q44 26 103 41t118 15q57 0 90.5 -15t41.5 -36q29 23 68.5 37t88.5 14q60 0 99 -27.5t39 -75.5q0 -68 -67 -112t-219 -55q-2 -14 -3.5 -28.5t-1.5 -27.5q0 -57 29 -87.5t74 -30.5q19 0 38 6t36 16t31.5 21.5t25.5 22.5l24 -25q-11 -20 -32 -41.5
t-49 -39t-62 -29t-71 -11.5q-136 0 -176 110h-1zM602 455q-33 0 -64.5 -37t-53.5 -125q75 2 120.5 33t45.5 81q0 20 -11 34t-37 14z" />
    <glyph glyph-name="ccedilla" unicode="&#xe7;" horiz-adv-x="445" 
d="M412 109q-12 -19 -29.5 -38t-40.5 -35.5t-50.5 -28.5t-58.5 -17l-36 -58q54 -3 75.5 -20.5t22.5 -50.5q0 -31 -20 -53t-51.5 -36.5t-70 -21.5t-73.5 -7v39q17 3 33.5 8t29 12.5t20 17.5t7.5 23q-1 17 -11 28.5t-42 14.5l55 104q-68 8 -106.5 53.5t-38.5 122.5
q0 70 21.5 133t60.5 110.5t94.5 75t123.5 27.5q45 0 78.5 -9.5t44.5 -22.5q1 -11 -3.5 -27.5t-13.5 -33t-21.5 -31t-25.5 -20.5l-61 87q-27 0 -54.5 -18.5t-49.5 -53t-36 -83t-14 -109.5t25 -89.5t67 -28.5q20 0 38.5 6.5t34.5 15.5t29.5 19.5t23.5 19.5z" />
    <glyph glyph-name="egrave" unicode="&#xe8;" horiz-adv-x="472" 
d="M429 109q-11 -20 -32 -41.5t-49 -39t-62 -29t-71 -11.5q-89 0 -138.5 48.5t-49.5 137.5q0 69 22 130t61.5 107.5t94 73.5t119.5 27q60 0 99 -27.5t39 -75.5q0 -68 -67.5 -112t-218.5 -55q-3 -14 -4.5 -28.5t-1.5 -27.5q0 -57 29 -87.5t74 -30.5q19 0 38 6t36.5 16
t32 21.5t25.5 22.5zM301 455q-34 0 -65.5 -37t-52.5 -125q74 2 119.5 33t45.5 81q0 20 -10.5 34t-36.5 14zM386 589l-45 -22l-166 145v29q6 6 26 11.5t42.5 8.5t42.5 3.5t27 -1.5z" />
    <glyph glyph-name="eacute" unicode="&#xe9;" horiz-adv-x="472" 
d="M429 109q-11 -20 -32 -41.5t-49 -39t-62 -29t-71 -11.5q-89 0 -138.5 48.5t-49.5 137.5q0 69 22 130t61.5 107.5t94 73.5t119.5 27q60 0 99 -27.5t39 -75.5q0 -68 -67.5 -112t-218.5 -55q-3 -14 -4.5 -28.5t-1.5 -27.5q0 -57 29 -87.5t74 -30.5q19 0 38 6t36.5 16
t32 21.5t25.5 22.5zM301 455q-34 0 -65.5 -37t-52.5 -125q74 2 119.5 33t45.5 81q0 20 -10.5 34t-36.5 14zM373 763q8 2 26.5 1.5t38.5 -3.5t36.5 -8.5t21.5 -11.5v-24l-201 -155l-40 22z" />
    <glyph glyph-name="ecircumflex" unicode="&#xea;" horiz-adv-x="472" 
d="M429 109q-11 -20 -32 -41.5t-49 -39t-62 -29t-71 -11.5q-89 0 -138.5 48.5t-49.5 137.5q0 69 22 130t61.5 107.5t94 73.5t119.5 27q60 0 99 -27.5t39 -75.5q0 -68 -67.5 -112t-218.5 -55q-3 -14 -4.5 -28.5t-1.5 -27.5q0 -57 29 -87.5t74 -30.5q19 0 38 6t36.5 16
t32 21.5t25.5 22.5zM301 455q-34 0 -65.5 -37t-52.5 -125q74 2 119.5 33t45.5 81q0 20 -10.5 34t-36.5 14zM223 577l-42 25l160 186q3 3 10.5 4.5t15.5 1.5q17 0 26 -6l64 -185l-41 -26l-75 98z" />
    <glyph glyph-name="edieresis" unicode="&#xeb;" horiz-adv-x="472" 
d="M429 109q-11 -20 -32 -41.5t-49 -39t-62 -29t-71 -11.5q-89 0 -138.5 48.5t-49.5 137.5q0 69 22 130t61.5 107.5t94 73.5t119.5 27q60 0 99 -27.5t39 -75.5q0 -68 -67.5 -112t-218.5 -55q-3 -14 -4.5 -28.5t-1.5 -27.5q0 -57 29 -87.5t74 -30.5q19 0 38 6t36.5 16
t32 21.5t25.5 22.5zM301 455q-34 0 -65.5 -37t-52.5 -125q74 2 119.5 33t45.5 81q0 20 -10.5 34t-36.5 14zM139 659q0 32 20 51t53 19q32 0 52.5 -19t20.5 -51q0 -30 -20.5 -49t-52.5 -19q-33 0 -53 19t-20 49zM358 659q0 32 20 51t52 19q33 0 53.5 -19t20.5 -51
q0 -30 -20.5 -49t-53.5 -19q-32 0 -52 19t-20 49z" />
    <glyph glyph-name="igrave" unicode="&#xec;" horiz-adv-x="304" 
d="M59 442v34q15 6 40 12.5t53 11.5t55.5 8.5t48.5 3.5l18 -12l-90 -431h70v-34q-13 -9 -30.5 -17t-37 -14t-39.5 -9.5t-38 -3.5q-38 0 -52.5 14.5t-14.5 31.5q0 20 3 39t8 42l68 310zM263 589l-45 -22l-166 145v29q6 6 26 11.5t42.5 8.5t42.5 3.5t27 -1.5z" />
    <glyph glyph-name="iacute" unicode="&#xed;" horiz-adv-x="304" 
d="M59 442v34q15 6 40 12.5t53 11.5t55.5 8.5t48.5 3.5l18 -12l-90 -431h70v-34q-13 -9 -30.5 -17t-37 -14t-39.5 -9.5t-38 -3.5q-38 0 -52.5 14.5t-14.5 31.5q0 20 3 39t8 42l68 310zM265 763q8 2 26.5 1.5t38.5 -3.5t36.5 -8.5t21.5 -11.5v-24l-201 -155l-40 22z" />
    <glyph glyph-name="icircumflex" unicode="&#xee;" horiz-adv-x="304" 
d="M59 442v34q15 6 40 12.5t53 11.5t55.5 8.5t48.5 3.5l18 -12l-90 -431h70v-34q-13 -9 -30.5 -17t-37 -14t-39.5 -9.5t-38 -3.5q-38 0 -52.5 14.5t-14.5 31.5q0 20 3 39t8 42l68 310zM123 577l-42 25l160 186q3 3 10.5 4.5t15.5 1.5q17 0 26 -6l64 -185l-41 -26l-75 98z
" />
    <glyph glyph-name="idieresis" unicode="&#xef;" horiz-adv-x="304" 
d="M59 442v34q15 6 40 12.5t53 11.5t55.5 8.5t48.5 3.5l18 -12l-90 -431h70v-34q-13 -9 -30.5 -17t-37 -14t-39.5 -9.5t-38 -3.5q-38 0 -52.5 14.5t-14.5 31.5q0 20 3 39t8 42l68 310zM35 659q0 32 20 51t53 19q32 0 52.5 -19t20.5 -51q0 -30 -20.5 -49t-52.5 -19
q-33 0 -53 19t-20 49zM254 659q0 32 20 51t52 19q33 0 53.5 -19t20.5 -51q0 -30 -20.5 -49t-53.5 -19q-32 0 -52 19t-20 49z" />
    <glyph glyph-name="eth" unicode="&#xf0;" horiz-adv-x="530" 
d="M240 614l94 40q-19 25 -43.5 42t-52.5 26v28h127q17 -6 36.5 -19.5t39.5 -34.5l95 40l23 -53l-83 -36q20 -34 32 -79.5t12 -105.5q0 -100 -23.5 -186.5t-66.5 -150.5t-104 -100.5t-135 -36.5q-37 0 -68.5 12.5t-54 35.5t-35 57t-12.5 78q0 72 23.5 133.5t63.5 106t93 70
t111 25.5q20 0 40 -4t31 -12q0 32 -5.5 60t-15.5 51l-98 -41zM315 449q-41 0 -70 -28t-47 -71.5t-26.5 -95.5t-8.5 -100q0 -22 3 -42t9.5 -35t18.5 -23.5t30 -8.5q30 0 57 30.5t48 83t34 122.5t15 150q-15 10 -31 14t-32 4z" />
    <glyph glyph-name="ntilde" unicode="&#xf1;" horiz-adv-x="588" 
d="M384 285q7 31 12.5 55t5.5 50q0 17 -7.5 29.5t-26.5 12.5t-39.5 -14.5t-40 -36t-36 -47.5t-26.5 -48l-60 -286h-138l86 429l-59 13l2 34q14 7 36 13.5t48 11.5t53.5 8t52.5 3l20 -12l-31 -146h5q18 33 42 62t51 50t57 33.5t61 12.5q42 0 66 -27t24 -72q0 -23 -5 -52.5
t-12 -58.5l-55 -233h72v-34q-10 -8 -26.5 -16t-36 -14t-40.5 -10t-40 -4q-34 0 -49.5 13t-15.5 30q0 21 5 45t10 46zM527 667q-30 -34 -62 -49.5t-55 -15.5q-18 0 -34 5.5t-31 11.5t-29.5 11.5t-29.5 5.5q-13 0 -26.5 -4.5t-29.5 -15.5l-28 42q37 38 70.5 53t56.5 15
q18 0 33.5 -5t29.5 -11t28.5 -11t29.5 -5q13 0 26 2.5t29 12.5z" />
    <glyph glyph-name="ograve" unicode="&#xf2;" horiz-adv-x="549" 
d="M29 192q0 54 18 110.5t55 103t93.5 76.5t132.5 30q90 0 141 -49t51 -146q0 -66 -20 -125.5t-58 -105t-92.5 -72t-124.5 -26.5q-42 0 -78 12.5t-62.5 38t-41 63.5t-14.5 90zM311 455q-40 0 -66.5 -30t-43 -75.5t-23.5 -98.5t-7 -98q0 -51 19.5 -79.5t53.5 -28.5
q29 0 53.5 24.5t42.5 66t28 95t10 111.5q0 55 -17.5 84t-49.5 29zM390 589l-45 -22l-166 145v29q6 6 26 11.5t42.5 8.5t42.5 3.5t27 -1.5z" />
    <glyph glyph-name="oacute" unicode="&#xf3;" horiz-adv-x="549" 
d="M29 192q0 54 18 110.5t55 103t93.5 76.5t132.5 30q90 0 141 -49t51 -146q0 -66 -20 -125.5t-58 -105t-92.5 -72t-124.5 -26.5q-42 0 -78 12.5t-62.5 38t-41 63.5t-14.5 90zM311 455q-40 0 -66.5 -30t-43 -75.5t-23.5 -98.5t-7 -98q0 -51 19.5 -79.5t53.5 -28.5
q29 0 53.5 24.5t42.5 66t28 95t10 111.5q0 55 -17.5 84t-49.5 29zM387 763q8 2 26.5 1.5t38.5 -3.5t36.5 -8.5t21.5 -11.5v-24l-201 -155l-40 22z" />
    <glyph glyph-name="ocircumflex" unicode="&#xf4;" horiz-adv-x="549" 
d="M29 192q0 54 18 110.5t55 103t93.5 76.5t132.5 30q90 0 141 -49t51 -146q0 -66 -20 -125.5t-58 -105t-92.5 -72t-124.5 -26.5q-42 0 -78 12.5t-62.5 38t-41 63.5t-14.5 90zM311 455q-40 0 -66.5 -30t-43 -75.5t-23.5 -98.5t-7 -98q0 -51 19.5 -79.5t53.5 -28.5
q29 0 53.5 24.5t42.5 66t28 95t10 111.5q0 55 -17.5 84t-49.5 29zM240 577l-42 25l160 186q3 3 10.5 4.5t15.5 1.5q17 0 26 -6l64 -185l-41 -26l-75 98z" />
    <glyph glyph-name="otilde" unicode="&#xf5;" horiz-adv-x="549" 
d="M29 192q0 54 18 110.5t55 103t93.5 76.5t132.5 30q90 0 141 -49t51 -146q0 -66 -20 -125.5t-58 -105t-92.5 -72t-124.5 -26.5q-42 0 -78 12.5t-62.5 38t-41 63.5t-14.5 90zM311 455q-40 0 -66.5 -30t-43 -75.5t-23.5 -98.5t-7 -98q0 -51 19.5 -79.5t53.5 -28.5
q29 0 53.5 24.5t42.5 66t28 95t10 111.5q0 55 -17.5 84t-49.5 29zM514 667q-30 -34 -62 -49.5t-55 -15.5q-18 0 -34 5.5t-31 11.5t-29.5 11.5t-29.5 5.5q-13 0 -26.5 -4.5t-29.5 -15.5l-28 42q37 38 70.5 53t56.5 15q18 0 33.5 -5t29.5 -11t28.5 -11t29.5 -5q13 0 26 2.5
t29 12.5z" />
    <glyph glyph-name="odieresis" unicode="&#xf6;" horiz-adv-x="549" 
d="M29 192q0 54 18 110.5t55 103t93.5 76.5t132.5 30q90 0 141 -49t51 -146q0 -66 -20 -125.5t-58 -105t-92.5 -72t-124.5 -26.5q-42 0 -78 12.5t-62.5 38t-41 63.5t-14.5 90zM311 455q-40 0 -66.5 -30t-43 -75.5t-23.5 -98.5t-7 -98q0 -51 19.5 -79.5t53.5 -28.5
q29 0 53.5 24.5t42.5 66t28 95t10 111.5q0 55 -17.5 84t-49.5 29zM151 659q0 32 20 51t53 19q32 0 52.5 -19t20.5 -51q0 -30 -20.5 -49t-52.5 -19q-33 0 -53 19t-20 49zM370 659q0 32 20 51t52 19q33 0 53.5 -19t20.5 -51q0 -30 -20.5 -49t-53.5 -19q-32 0 -52 19t-20 49z
" />
    <glyph glyph-name="divide" unicode="&#xf7;" 
d="M55 386h450v-80h-450v80zM195 536q0 36 23 58t61 22t62 -22t24 -58t-24 -57.5t-62 -21.5t-61 21.5t-23 57.5zM195 155q0 36 23 58t61 22t62 -22t24 -58t-24 -57.5t-62 -21.5t-61 21.5t-23 57.5z" />
    <glyph glyph-name="oslash" unicode="&#xf8;" horiz-adv-x="549" 
d="M29 192q0 54 18 110.5t55 103t93.5 76.5t132.5 30q69 0 116 -32l66 73l48 -41l-69 -76q31 -48 31 -119q0 -66 -20 -125.5t-58 -105t-92.5 -72t-124.5 -26.5q-72 0 -119 34l-73 -80l-46 42l75 82q-33 50 -33 126zM244 45q25 0 46.5 19t37.5 50.5t26.5 73t14.5 86.5
q2 10 3 20t2 21l-194 -214q15 -56 64 -56zM311 455q-35 0 -59 -22t-39.5 -56t-23.5 -75t-11 -79q-2 -10 -2.5 -19t-1.5 -19l195 215q-15 55 -58 55z" />
    <glyph glyph-name="ugrave" unicode="&#xf9;" horiz-adv-x="585" 
d="M546 69v-34q-10 -8 -26.5 -16t-36 -14t-41 -10t-42.5 -4q-36 0 -49.5 14.5t-13.5 30.5q0 18 4 50t16 74h-4q-13 -24 -33 -54t-47 -56.5t-62 -44t-77 -17.5q-41 0 -66.5 24.5t-25.5 69.5q0 22 6.5 63t16 89.5t21 100t20.5 94.5l-59 13v34q16 6 40 12t50 11t53 8.5t49 4.5
l22 -12q-16 -75 -32.5 -142.5t-30.5 -142.5q-5 -24 -10.5 -53t-5.5 -58q0 -18 9.5 -27t23.5 -9q25 0 49.5 19.5t45 47t36 56.5t22.5 48l52 261h135l-79 -431h70zM398 589l-45 -22l-166 145v29q6 6 26 11.5t42.5 8.5t42.5 3.5t27 -1.5z" />
    <glyph glyph-name="uacute" unicode="&#xfa;" horiz-adv-x="585" 
d="M546 69v-34q-10 -8 -26.5 -16t-36 -14t-41 -10t-42.5 -4q-36 0 -49.5 14.5t-13.5 30.5q0 18 4 50t16 74h-4q-13 -24 -33 -54t-47 -56.5t-62 -44t-77 -17.5q-41 0 -66.5 24.5t-25.5 69.5q0 22 6.5 63t16 89.5t21 100t20.5 94.5l-59 13v34q16 6 40 12t50 11t53 8.5t49 4.5
l22 -12q-16 -75 -32.5 -142.5t-30.5 -142.5q-5 -24 -10.5 -53t-5.5 -58q0 -18 9.5 -27t23.5 -9q25 0 49.5 19.5t45 47t36 56.5t22.5 48l52 261h135l-79 -431h70zM405 763q8 2 26.5 1.5t38.5 -3.5t36.5 -8.5t21.5 -11.5v-24l-201 -155l-40 22z" />
    <glyph glyph-name="ucircumflex" unicode="&#xfb;" horiz-adv-x="585" 
d="M546 69v-34q-10 -8 -26.5 -16t-36 -14t-41 -10t-42.5 -4q-36 0 -49.5 14.5t-13.5 30.5q0 18 4 50t16 74h-4q-13 -24 -33 -54t-47 -56.5t-62 -44t-77 -17.5q-41 0 -66.5 24.5t-25.5 69.5q0 22 6.5 63t16 89.5t21 100t20.5 94.5l-59 13v34q16 6 40 12t50 11t53 8.5t49 4.5
l22 -12q-16 -75 -32.5 -142.5t-30.5 -142.5q-5 -24 -10.5 -53t-5.5 -58q0 -18 9.5 -27t23.5 -9q25 0 49.5 19.5t45 47t36 56.5t22.5 48l52 261h135l-79 -431h70zM255 577l-42 25l160 186q3 3 10.5 4.5t15.5 1.5q17 0 26 -6l64 -185l-41 -26l-75 98z" />
    <glyph glyph-name="udieresis" unicode="&#xfc;" horiz-adv-x="585" 
d="M546 69v-34q-10 -8 -26.5 -16t-36 -14t-41 -10t-42.5 -4q-36 0 -49.5 14.5t-13.5 30.5q0 18 4 50t16 74h-4q-13 -24 -33 -54t-47 -56.5t-62 -44t-77 -17.5q-41 0 -66.5 24.5t-25.5 69.5q0 22 6.5 63t16 89.5t21 100t20.5 94.5l-59 13v34q16 6 40 12t50 11t53 8.5t49 4.5
l22 -12q-16 -75 -32.5 -142.5t-30.5 -142.5q-5 -24 -10.5 -53t-5.5 -58q0 -18 9.5 -27t23.5 -9q25 0 49.5 19.5t45 47t36 56.5t22.5 48l52 261h135l-79 -431h70zM170 659q0 32 20 51t53 19q32 0 52.5 -19t20.5 -51q0 -30 -20.5 -49t-52.5 -19q-33 0 -53 19t-20 49zM389 659
q0 32 20 51t52 19q33 0 53.5 -19t20.5 -51q0 -30 -20.5 -49t-53.5 -19q-32 0 -52 19t-20 49z" />
    <glyph glyph-name="yacute" unicode="&#xfd;" horiz-adv-x="487" 
d="M72 429l-64 8v34q5 4 20 10.5t35.5 13.5t43.5 12t45 5q27 0 42 -13t20 -36l77 -303l5 -60h2l21 59q20 48 39 103.5t30 103.5q0 11 -3.5 30.5t-7.5 40t-8 38t-6 23.5q14 6 35 9t42 3t39 -3t29 -9q-26 -119 -79.5 -247t-123.5 -251q-58 -103 -115.5 -156t-132.5 -53
q-21 0 -38.5 5.5t-31.5 14.5q-3 14 2 33t14.5 37t22.5 33t27 20l75 -53q7 5 18 14.5t22 24t22 34.5t20 46zM376 763q8 2 26.5 1.5t38.5 -3.5t36.5 -8.5t21.5 -11.5v-24l-201 -155l-40 22z" />
    <glyph glyph-name="thorn" unicode="&#xfe;" horiz-adv-x="572" 
d="M135 -133q17 -3 35.5 -11.5t31.5 -17.5v-38h-206l-13 13l181 865l-58 14v34q16 7 41 13.5t52 11.5t53 8t46 3l20 -12l-82 -388h4q16 31 36.5 58.5t44 48t51 32t58.5 11.5q51 0 84.5 -40t33.5 -112q0 -81 -23 -149.5t-62.5 -118t-94 -77t-117.5 -27.5q-29 0 -47.5 4.5
t-38.5 15.5zM353 432q-21 0 -40.5 -15.5t-36.5 -38.5t-31 -50t-23 -49l-44 -217q13 -9 25.5 -13t36.5 -4q34 0 64 27t52.5 70t35 97t12.5 107q0 42 -13 64t-38 22z" />
    <glyph glyph-name="ydieresis" unicode="&#xff;" horiz-adv-x="487" 
d="M72 429l-64 8v34q5 4 20 10.5t35.5 13.5t43.5 12t45 5q27 0 42 -13t20 -36l77 -303l5 -60h2l21 59q20 48 39 103.5t30 103.5q0 11 -3.5 30.5t-7.5 40t-8 38t-6 23.5q14 6 35 9t42 3t39 -3t29 -9q-26 -119 -79.5 -247t-123.5 -251q-58 -103 -115.5 -156t-132.5 -53
q-21 0 -38.5 5.5t-31.5 14.5q-3 14 2 33t14.5 37t22.5 33t27 20l75 -53q7 5 18 14.5t22 24t22 34.5t20 46zM128 659q0 32 20 51t53 19q32 0 52.5 -19t20.5 -51q0 -30 -20.5 -49t-52.5 -19q-33 0 -53 19t-20 49zM347 659q0 32 20 51t52 19q33 0 53.5 -19t20.5 -51
q0 -30 -20.5 -49t-53.5 -19q-32 0 -52 19t-20 49z" />
    <glyph glyph-name="Amacron" unicode="&#x100;" horiz-adv-x="724" 
d="M205 0h-249l7 38q18 10 38 17.5t40 11.5l396 645h73l113 -645q19 -4 37.5 -12t31.5 -17l-8 -38h-308l7 38q21 10 44.5 17.5t44.5 11.5l-24 159h-221l-95 -159q21 -3 42 -10.5t38 -18.5zM261 291h179l-28 191v86h-2l-38 -88zM315 779l15 70h324l-15 -70h-324z" />
    <glyph glyph-name="amacron" unicode="&#x101;" horiz-adv-x="563" 
d="M215 68q19 0 39.5 17t39 42.5t34 56t26.5 56.5l37 198q-12 8 -22.5 11.5t-27.5 3.5q-40 0 -72 -26.5t-54 -69t-33.5 -95.5t-11.5 -106q0 -46 11 -67t34 -21zM339 159q-13 -32 -32.5 -62.5t-44.5 -54.5t-55 -39t-65 -15q-52 0 -83 38t-31 113q0 78 21.5 145.5t61 118
t95.5 79t125 28.5q26 0 44.5 -6t39.5 -15q26 10 56 15t72 5l-84 -440h70v-34q-10 -8 -26.5 -16t-36 -14t-40 -10t-38.5 -4q-35 0 -50 15t-15 31q0 18 5 47.5t15 74.5h-4zM214 619l15 70h294l-15 -70h-294z" />
    <glyph glyph-name="Abreve" unicode="&#x102;" horiz-adv-x="724" 
d="M205 0h-249l7 38q18 10 38 17.5t40 11.5l396 645h73l113 -645q19 -4 37.5 -12t31.5 -17l-8 -38h-308l7 38q21 10 44.5 17.5t44.5 11.5l-24 159h-221l-95 -159q21 -3 42 -10.5t38 -18.5zM261 291h179l-28 191v86h-2l-38 -88zM623 897q7 1 20.5 -6t20.5 -17
q-10 -20 -30 -40.5t-46.5 -37t-57.5 -27t-62 -10.5q-67 0 -102 34.5t-40 82.5q7 12 21.5 19t29.5 5q11 -22 36 -34.5t60 -13.5q19 0 40 2.5t41 8.5t38 14.5t31 19.5z" />
    <glyph glyph-name="abreve" unicode="&#x103;" horiz-adv-x="563" 
d="M215 68q19 0 39.5 17t39 42.5t34 56t26.5 56.5l37 198q-12 8 -22.5 11.5t-27.5 3.5q-40 0 -72 -26.5t-54 -69t-33.5 -95.5t-11.5 -106q0 -46 11 -67t34 -21zM339 159q-13 -32 -32.5 -62.5t-44.5 -54.5t-55 -39t-65 -15q-52 0 -83 38t-31 113q0 78 21.5 145.5t61 118
t95.5 79t125 28.5q26 0 44.5 -6t39.5 -15q26 10 56 15t72 5l-84 -440h70v-34q-10 -8 -26.5 -16t-36 -14t-40 -10t-38.5 -4q-35 0 -50 15t-15 31q0 18 5 47.5t15 74.5h-4zM531 724q-11 -29 -29.5 -54.5t-42 -44.5t-50.5 -30t-55 -11q-59 0 -94 39.5t-37 102.5l37 22
q16 -26 40.5 -43t56.5 -18q18 0 37.5 3t38 10t35.5 18t30 26z" />
    <glyph glyph-name="Aogonek" unicode="&#x104;" horiz-adv-x="724" 
d="M205 0h-249l7 38q18 10 38 17.5t40 11.5l396 645h73l113 -645q19 -4 37.5 -12t31.5 -17l-4 -20l-4 -18h-33q-43 -27 -70 -65t-27 -70q0 -26 15.5 -40t38.5 -14q12 0 23 1t23 4v-43q-14 -11 -41.5 -19.5t-59.5 -8.5q-61 0 -93.5 28.5t-32.5 69.5q0 54 41 92t109 65h-201
l7 38q21 10 44.5 17.5t44.5 11.5l-24 159h-221l-95 -159q21 -3 42 -10.5t38 -18.5zM261 291h179l-28 191v86h-2l-38 -88z" />
    <glyph glyph-name="aogonek" unicode="&#x105;" horiz-adv-x="563" 
d="M339 159q-13 -32 -32.5 -62.5t-44.5 -54.5t-55 -39t-65 -15q-52 0 -83 38t-31 113q0 78 21.5 145.5t61 118t95.5 79t125 28.5q26 0 44.5 -6t39.5 -15q26 10 56 15t72 5l-84 -440h70v-34q-17 -14 -43 -23q-17 -11 -34 -24.5t-30.5 -30.5t-22 -36t-8.5 -40q0 -23 13 -36.5
t37 -13.5q10 0 19.5 2t23.5 7v-41q-8 -6 -19 -10.5t-24 -7.5t-25 -5t-21 -2q-69 0 -98.5 27t-29.5 65q0 42 28.5 72.5t78.5 53.5q-27 3 -39 17t-12 28q0 18 5 47.5t15 74.5h-4zM215 68q19 0 39.5 17t39 42.5t34 56t26.5 56.5l37 198q-12 8 -22.5 11.5t-27.5 3.5
q-40 0 -72 -26.5t-54 -69t-33.5 -95.5t-11.5 -106q0 -46 11 -67t34 -21z" />
    <glyph glyph-name="Cacute" unicode="&#x106;" horiz-adv-x="652" 
d="M561 210h42q0 -16 -1 -38.5t-4 -48t-7 -50.5t-9 -45q-21 -11 -46.5 -18.5t-51.5 -12.5t-50 -7t-42 -2q-92 0 -155 25t-103 65t-57.5 90t-17.5 101q0 99 29 180.5t84.5 140t136 90.5t182.5 32q66 0 118.5 -9.5t85.5 -25.5q-3 -16 -10 -41t-16 -52.5t-19 -54t-19 -44.5h-42
l-23 151q-9 5 -30 8t-42 3q-58 0 -106.5 -28t-84 -79t-55 -123.5t-19.5 -161.5q0 -56 16 -94.5t41.5 -62.5t56 -34.5t59.5 -10.5t50 5.5t31 11.5zM541 898q16 1 36.5 -2t40 -8.5t35 -12.5t21.5 -14v-20l-247 -96l-28 24z" />
    <glyph glyph-name="cacute" unicode="&#x107;" horiz-adv-x="445" 
d="M412 109q-13 -21 -34 -43t-48.5 -39t-60.5 -28t-70 -11q-79 0 -125.5 47t-46.5 131q0 70 21.5 133t60.5 110.5t94.5 75t123.5 27.5q45 0 78.5 -9.5t44.5 -22.5q1 -11 -3.5 -27.5t-13.5 -33t-21.5 -31t-25.5 -20.5l-61 87q-27 0 -54.5 -18.5t-49.5 -53t-36 -83t-14 -109.5
t25 -89.5t67 -28.5q20 0 38.5 6.5t34.5 15.5t29.5 19.5t23.5 19.5zM366 763q8 2 26.5 1.5t38.5 -3.5t36.5 -8.5t21.5 -11.5v-24l-201 -155l-40 22z" />
    <glyph glyph-name="Ccircumflex" unicode="&#x108;" horiz-adv-x="652" 
d="M561 210h42q0 -16 -1 -38.5t-4 -48t-7 -50.5t-9 -45q-21 -11 -46.5 -18.5t-51.5 -12.5t-50 -7t-42 -2q-92 0 -155 25t-103 65t-57.5 90t-17.5 101q0 99 29 180.5t84.5 140t136 90.5t182.5 32q66 0 118.5 -9.5t85.5 -25.5q-3 -16 -10 -41t-16 -52.5t-19 -54t-19 -44.5h-42
l-23 151q-9 5 -30 8t-42 3q-58 0 -106.5 -28t-84 -79t-55 -123.5t-19.5 -161.5q0 -56 16 -94.5t41.5 -62.5t56 -34.5t59.5 -10.5t50 5.5t31 11.5zM354 743l-28 28l172 117q12 7 33 5q19 0 29 -5l80 -114l-28 -30l-104 56z" />
    <glyph glyph-name="ccircumflex" unicode="&#x109;" horiz-adv-x="445" 
d="M412 109q-13 -21 -34 -43t-48.5 -39t-60.5 -28t-70 -11q-79 0 -125.5 47t-46.5 131q0 70 21.5 133t60.5 110.5t94.5 75t123.5 27.5q45 0 78.5 -9.5t44.5 -22.5q1 -11 -3.5 -27.5t-13.5 -33t-21.5 -31t-25.5 -20.5l-61 87q-27 0 -54.5 -18.5t-49.5 -53t-36 -83t-14 -109.5
t25 -89.5t67 -28.5q20 0 38.5 6.5t34.5 15.5t29.5 19.5t23.5 19.5zM225 577l-42 25l160 186q3 3 10.5 4.5t15.5 1.5q17 0 26 -6l64 -185l-41 -26l-75 98z" />
    <glyph glyph-name="Ccaron" unicode="&#x10c;" horiz-adv-x="652" 
d="M561 210h42q0 -16 -1 -38.5t-4 -48t-7 -50.5t-9 -45q-21 -11 -46.5 -18.5t-51.5 -12.5t-50 -7t-42 -2q-92 0 -155 25t-103 65t-57.5 90t-17.5 101q0 99 29 180.5t84.5 140t136 90.5t182.5 32q66 0 118.5 -9.5t85.5 -25.5q-3 -16 -10 -41t-16 -52.5t-19 -54t-19 -44.5h-42
l-23 151q-9 5 -30 8t-42 3q-58 0 -106.5 -28t-84 -79t-55 -123.5t-19.5 -161.5q0 -56 16 -94.5t41.5 -62.5t56 -34.5t59.5 -10.5t50 5.5t31 11.5zM652 902q8 0 19.5 -10.5t14.5 -20.5l-167 -112q-5 -3 -13.5 -5t-18.5 -1q-8 0 -16.5 1.5t-13.5 4.5l-85 109q3 11 13.5 22.5
t20.5 11.5l99 -55z" />
    <glyph glyph-name="ccaron" unicode="&#x10d;" horiz-adv-x="445" 
d="M412 109q-13 -21 -34 -43t-48.5 -39t-60.5 -28t-70 -11q-79 0 -125.5 47t-46.5 131q0 70 21.5 133t60.5 110.5t94.5 75t123.5 27.5q45 0 78.5 -9.5t44.5 -22.5q1 -11 -3.5 -27.5t-13.5 -33t-21.5 -31t-25.5 -20.5l-61 87q-27 0 -54.5 -18.5t-49.5 -53t-36 -83t-14 -109.5
t25 -89.5t67 -28.5q20 0 38.5 6.5t34.5 15.5t29.5 19.5t23.5 19.5zM472 792q10 0 25 -9.5t17 -15.5l-173 -181q-4 -3 -11.5 -4t-15.5 -1q-15 0 -25 5l-81 180q1 3 7 7.5t13.5 8.5t15 7t12.5 3l80 -93z" />
    <glyph glyph-name="Dcaron" unicode="&#x10e;" horiz-adv-x="734" 
d="M-24 0l7 38q19 10 42 17.5t47 11.5l120 566q-23 5 -42.5 12.5t-33.5 16.5l8 38h116q17 0 42.5 1t53 2.5t53 3t43.5 1.5q84 0 142.5 -18t95 -51t53 -78.5t16.5 -100.5q0 -57 -10 -113.5t-33 -108.5t-59 -97t-88.5 -78.5t-121.5 -52.5t-158 -19q-13 0 -35.5 1.5t-48.5 3
t-51.5 3t-44.5 1.5h-113zM409 643q-18 0 -34 -1t-30 -3l-123 -579q15 -2 34 -3t30 -1q81 0 136 38.5t89 99t48.5 134.5t14.5 145q0 41 -8 73t-27 53.5t-51 32.5t-79 11zM595 902q8 0 19.5 -10.5t14.5 -20.5l-167 -112q-5 -3 -13.5 -5t-18.5 -1q-8 0 -16.5 1.5t-13.5 4.5
l-85 109q3 11 13.5 22.5t20.5 11.5l99 -55z" />
    <glyph glyph-name="dcaron" unicode="&#x10f;" horiz-adv-x="570" 
d="M215 68q21 0 41.5 17.5t39 43.5t34 56t26.5 55l36 197q-13 8 -24.5 11.5t-27.5 3.5q-38 0 -69.5 -25.5t-53.5 -67t-34 -95t-12 -109.5q0 -87 44 -87zM340 159q-15 -35 -35.5 -66t-45 -54t-53.5 -37t-61 -14q-51 0 -83.5 39t-32.5 118q0 71 19.5 136.5t57 116t92 81
t124.5 30.5q33 0 48.5 -4t32.5 -12l34 176l-69 13v34q15 6 41 12t55.5 11t58 8.5t46.5 4.5l20 -11l-129 -672h72v-34q-10 -8 -26.5 -16t-36 -14t-40.5 -10t-39 -4q-35 0 -50 16t-15 33t5 49t14 70h-4zM581 534q13 22 24.5 47.5t20 52t13.5 51.5t5 45l21 25q7 1 22.5 -1.5
t33 -7t33.5 -10.5t24 -13q-5 -28 -23 -59.5t-43 -61t-52.5 -53t-49.5 -35.5z" />
    <glyph glyph-name="Dcroat" unicode="&#x110;" horiz-adv-x="734" 
d="M-24 0l7 38q19 10 42 17.5t47 11.5l55 262h-87l13 60h87l52 244q-23 5 -42.5 12.5t-33.5 16.5l8 38h116q17 0 42.5 1t53 2.5t53 3t43.5 1.5q84 0 142.5 -18t95 -51t53 -78.5t16.5 -100.5q0 -57 -10 -113.5t-33 -108.5t-59 -97t-88.5 -78.5t-121.5 -52.5t-158 -19
q-13 0 -35.5 1.5t-48.5 3t-51.5 3t-44.5 1.5h-113zM409 643q-18 0 -38 -1t-34 -3l-54 -250h152l-13 -60h-151l-57 -269q15 -2 38 -3t34 -1q81 0 136 38.5t89 99t48.5 134.5t14.5 145q0 41 -8 73t-27 53.5t-51 32.5t-79 11z" />
    <glyph glyph-name="dcroat" unicode="&#x111;" horiz-adv-x="570" 
d="M276 620h151l10 49l-69 13v34q15 6 41 12t55.5 11t58 8.5t46.5 4.5l20 -11l-23 -121h77l-14 -61h-75l-94 -490h72v-34q-10 -8 -26.5 -16t-36 -14t-40.5 -10t-39 -4q-35 0 -50 16t-15 33t5 49t14 70h-4q-15 -35 -35.5 -66t-45 -54t-53.5 -37t-61 -14q-51 0 -83.5 39
t-32.5 118q0 71 19.5 136.5t57 116t92 81t124.5 30.5q33 0 48.5 -4t32.5 -12l12 66h-153zM215 68q21 0 41.5 17.5t39 43.5t34 56t26.5 55l36 197q-13 8 -24.5 11.5t-27.5 3.5q-38 0 -69.5 -25.5t-53.5 -67t-34 -95t-12 -109.5q0 -87 44 -87z" />
    <glyph glyph-name="Emacron" unicode="&#x112;" horiz-adv-x="602" 
d="M650 700q-10 -45 -25 -93t-33 -90h-42l-21 118h-187l-52 -245h123l60 77h31q-5 -49 -17.5 -109t-28.5 -112h-32l-27 79h-123l-54 -260h194l80 127h42q0 -18 -1.5 -42t-4 -50t-6.5 -52t-9 -48h-541l7 38q20 9 42.5 17t46.5 12l120 566q-20 4 -40 11.5t-36 17.5l8 38h526z
M244 779l15 70h324l-15 -70h-324z" />
    <glyph glyph-name="emacron" unicode="&#x113;" horiz-adv-x="472" 
d="M429 109q-11 -20 -32 -41.5t-49 -39t-62 -29t-71 -11.5q-89 0 -138.5 48.5t-49.5 137.5q0 69 22 130t61.5 107.5t94 73.5t119.5 27q60 0 99 -27.5t39 -75.5q0 -68 -67.5 -112t-218.5 -55q-3 -14 -4.5 -28.5t-1.5 -27.5q0 -57 29 -87.5t74 -30.5q19 0 38 6t36.5 16
t32 21.5t25.5 22.5zM301 455q-34 0 -65.5 -37t-52.5 -125q74 2 119.5 33t45.5 81q0 20 -10.5 34t-36.5 14zM187 619l15 70h294l-15 -70h-294z" />
    <glyph glyph-name="Edotaccent" unicode="&#x116;" horiz-adv-x="602" 
d="M650 700q-10 -45 -25 -93t-33 -90h-42l-21 118h-187l-52 -245h123l60 77h31q-5 -49 -17.5 -109t-28.5 -112h-32l-27 79h-123l-54 -260h194l80 127h42q0 -18 -1.5 -42t-4 -50t-6.5 -52t-9 -48h-541l7 38q20 9 42.5 17t46.5 12l120 566q-20 4 -40 11.5t-36 17.5l8 38h526z
M325 819q0 32 23 49t68 17t67 -17t22 -49q0 -31 -22 -48t-67 -17t-68 17t-23 48z" />
    <glyph glyph-name="edotaccent" unicode="&#x117;" horiz-adv-x="472" 
d="M429 109q-11 -20 -32 -41.5t-49 -39t-62 -29t-71 -11.5q-89 0 -138.5 48.5t-49.5 137.5q0 69 22 130t61.5 107.5t94 73.5t119.5 27q60 0 99 -27.5t39 -75.5q0 -68 -67.5 -112t-218.5 -55q-3 -14 -4.5 -28.5t-1.5 -27.5q0 -57 29 -87.5t74 -30.5q19 0 38 6t36.5 16
t32 21.5t25.5 22.5zM301 455q-34 0 -65.5 -37t-52.5 -125q74 2 119.5 33t45.5 81q0 20 -10.5 34t-36.5 14zM261 667q0 34 23 53t58 19q38 0 60.5 -19t22.5 -53q0 -32 -22.5 -51t-60.5 -19q-35 0 -58 19t-23 51z" />
    <glyph glyph-name="Eogonek" unicode="&#x118;" horiz-adv-x="602" 
d="M650 700q-10 -45 -25 -93t-33 -90h-42l-21 118h-187l-52 -245h123l60 77h31q-5 -49 -17.5 -109t-28.5 -112h-32l-27 79h-123l-54 -260h194l80 127h42q0 -18 -1.5 -42t-4 -50t-6.5 -52t-9 -48h-45q-43 -27 -70 -65t-27 -70q0 -26 15.5 -40t38.5 -14q12 0 23 1t23 4v-43
q-14 -11 -41.5 -19.5t-59.5 -8.5q-61 0 -93.5 28.5t-32.5 69.5q0 54 41 92t109 65h-422l7 38q20 9 42.5 17t46.5 12l120 566q-20 4 -40 11.5t-36 17.5l8 38h526z" />
    <glyph glyph-name="eogonek" unicode="&#x119;" horiz-adv-x="472" 
d="M429 109q-14 -26 -43.5 -53.5t-69.5 -45.5q-17 -10 -34 -24t-30.5 -30.5t-21.5 -35t-8 -39.5q0 -23 13 -36.5t37 -13.5q10 0 19.5 2t23.5 7v-41q-8 -6 -19 -10.5t-24 -7.5t-25 -5t-21 -2q-69 0 -98.5 27t-29.5 65q0 41 26.5 70.5t74.5 52.5q-82 5 -127 52t-45 133
q0 69 22 130t61.5 107.5t94 73.5t119.5 27q60 0 99 -27.5t39 -75.5q0 -68 -67.5 -112t-218.5 -55q-3 -14 -4.5 -28.5t-1.5 -27.5q0 -55 28.5 -86.5t74.5 -31.5q19 0 38 6t36.5 16t32 21.5t25.5 22.5zM301 455q-34 0 -65.5 -37t-52.5 -125q74 2 119.5 33t45.5 81
q0 20 -10.5 34t-36.5 14z" />
    <glyph glyph-name="Ecaron" unicode="&#x11a;" horiz-adv-x="602" 
d="M650 700q-10 -45 -25 -93t-33 -90h-42l-21 118h-187l-52 -245h123l60 77h31q-5 -49 -17.5 -109t-28.5 -112h-32l-27 79h-123l-54 -260h194l80 127h42q0 -18 -1.5 -42t-4 -50t-6.5 -52t-9 -48h-541l7 38q20 9 42.5 17t46.5 12l120 566q-20 4 -40 11.5t-36 17.5l8 38h526z
M577 902q8 0 19.5 -10.5t14.5 -20.5l-167 -112q-5 -3 -13.5 -5t-18.5 -1q-8 0 -16.5 1.5t-13.5 4.5l-85 109q3 11 13.5 22.5t20.5 11.5l99 -55z" />
    <glyph glyph-name="ecaron" unicode="&#x11b;" horiz-adv-x="472" 
d="M429 109q-11 -20 -32 -41.5t-49 -39t-62 -29t-71 -11.5q-89 0 -138.5 48.5t-49.5 137.5q0 69 22 130t61.5 107.5t94 73.5t119.5 27q60 0 99 -27.5t39 -75.5q0 -68 -67.5 -112t-218.5 -55q-3 -14 -4.5 -28.5t-1.5 -27.5q0 -57 29 -87.5t74 -30.5q19 0 38 6t36.5 16
t32 21.5t25.5 22.5zM301 455q-34 0 -65.5 -37t-52.5 -125q74 2 119.5 33t45.5 81q0 20 -10.5 34t-36.5 14zM465 792q10 0 25 -9.5t17 -15.5l-173 -181q-4 -3 -11.5 -4t-15.5 -1q-15 0 -25 5l-81 180q1 3 7 7.5t13.5 8.5t15 7t12.5 3l80 -93z" />
    <glyph glyph-name="Gcircumflex" unicode="&#x11c;" horiz-adv-x="709" 
d="M603 44q-25 -13 -56.5 -23.5t-64 -17.5t-62.5 -11t-52 -4q-68 0 -125 17t-98 52t-63.5 88t-22.5 125q0 99 29.5 180t85 139.5t136.5 90.5t183 32q33 0 65.5 -2.5t62 -7t53.5 -11t39 -14.5q-3 -15 -10 -38.5t-16 -50.5t-19 -54t-20 -49h-41l-23 152q-14 5 -39.5 7.5
t-47.5 2.5q-67 0 -117.5 -32.5t-84 -87.5t-50 -127t-16.5 -151q0 -52 12 -89t32.5 -61t48 -35t59.5 -11q29 0 60.5 8t49.5 19l40 188q-25 2 -47 10t-39 19l8 38h273l-8 -38q-11 -9 -27.5 -16.5t-40.5 -12.5zM379 743l-28 28l172 117q12 7 33 5q19 0 29 -5l80 -114l-28 -30
l-104 56z" />
    <glyph glyph-name="gcircumflex" unicode="&#x11d;" horiz-adv-x="520" 
d="M294 512q57 0 93.5 -13t53.5 -27q10 9 27 18.5t36.5 18t39 15.5t35.5 12q5 -9 6.5 -24t0 -30.5t-6.5 -29.5t-13 -23l-99 11q5 -8 8.5 -21t3.5 -29q0 -36 -17 -68.5t-49.5 -56.5t-78 -38.5t-102.5 -14.5q-17 0 -27.5 0.5t-23.5 3.5q-5 -4 -11.5 -8.5t-13 -9.5t-11 -11.5
t-4.5 -14.5q0 -15 25 -23t62 -14t81 -14t81 -23t62 -40.5t25 -67.5q0 -46 -29.5 -83t-77 -63.5t-107 -41t-120.5 -14.5q-50 0 -88 9.5t-63.5 26t-38 37.5t-12.5 44q0 52 45 87.5t114 58.5q-26 11 -41.5 26.5t-15.5 39.5q0 15 9 31t23 31t31 27.5t34 20.5q-15 3 -31.5 12
t-30 22.5t-22.5 32t-9 39.5q0 39 17 72t49 56.5t77.5 37t103.5 13.5zM190 -155q27 0 52.5 6.5t45.5 19t32.5 31.5t12.5 45q0 24 -19.5 38.5t-49.5 24t-65.5 15.5t-67.5 14q-28 -21 -42 -50t-14 -58q0 -40 31 -63t84 -23zM282 457q-24 0 -42 -10t-30 -27t-18 -40t-6 -49
q0 -35 17.5 -49.5t37.5 -14.5q24 0 42 10t30 26.5t18 38.5t6 47q0 30 -14 49t-41 19zM213 577l-42 25l160 186q3 3 10.5 4.5t15.5 1.5q17 0 26 -6l64 -185l-41 -26l-75 98z" />
    <glyph glyph-name="Gbreve" unicode="&#x11e;" horiz-adv-x="709" 
d="M603 44q-25 -13 -56.5 -23.5t-64 -17.5t-62.5 -11t-52 -4q-68 0 -125 17t-98 52t-63.5 88t-22.5 125q0 99 29.5 180t85 139.5t136.5 90.5t183 32q33 0 65.5 -2.5t62 -7t53.5 -11t39 -14.5q-3 -15 -10 -38.5t-16 -50.5t-19 -54t-20 -49h-41l-23 152q-14 5 -39.5 7.5
t-47.5 2.5q-67 0 -117.5 -32.5t-84 -87.5t-50 -127t-16.5 -151q0 -52 12 -89t32.5 -61t48 -35t59.5 -11q29 0 60.5 8t49.5 19l40 188q-25 2 -47 10t-39 19l8 38h273l-8 -38q-11 -9 -27.5 -16.5t-40.5 -12.5zM662 897q7 1 20.5 -6t20.5 -17q-10 -20 -30 -40.5t-46.5 -37
t-57.5 -27t-62 -10.5q-67 0 -102 34.5t-40 82.5q7 12 21.5 19t29.5 5q11 -22 36 -34.5t60 -13.5q19 0 40 2.5t41 8.5t38 14.5t31 19.5z" />
    <glyph glyph-name="gbreve" unicode="&#x11f;" horiz-adv-x="520" 
d="M294 512q57 0 93.5 -13t53.5 -27q10 9 27 18.5t36.5 18t39 15.5t35.5 12q5 -9 6.5 -24t0 -30.5t-6.5 -29.5t-13 -23l-99 11q5 -8 8.5 -21t3.5 -29q0 -36 -17 -68.5t-49.5 -56.5t-78 -38.5t-102.5 -14.5q-17 0 -27.5 0.5t-23.5 3.5q-5 -4 -11.5 -8.5t-13 -9.5t-11 -11.5
t-4.5 -14.5q0 -15 25 -23t62 -14t81 -14t81 -23t62 -40.5t25 -67.5q0 -46 -29.5 -83t-77 -63.5t-107 -41t-120.5 -14.5q-50 0 -88 9.5t-63.5 26t-38 37.5t-12.5 44q0 52 45 87.5t114 58.5q-26 11 -41.5 26.5t-15.5 39.5q0 15 9 31t23 31t31 27.5t34 20.5q-15 3 -31.5 12
t-30 22.5t-22.5 32t-9 39.5q0 39 17 72t49 56.5t77.5 37t103.5 13.5zM190 -155q27 0 52.5 6.5t45.5 19t32.5 31.5t12.5 45q0 24 -19.5 38.5t-49.5 24t-65.5 15.5t-67.5 14q-28 -21 -42 -50t-14 -58q0 -40 31 -63t84 -23zM282 457q-24 0 -42 -10t-30 -27t-18 -40t-6 -49
q0 -35 17.5 -49.5t37.5 -14.5q24 0 42 10t30 26.5t18 38.5t6 47q0 30 -14 49t-41 19zM490 724q-11 -29 -29.5 -54.5t-42 -44.5t-50.5 -30t-55 -11q-59 0 -94 39.5t-37 102.5l37 22q16 -26 40.5 -43t56.5 -18q18 0 37.5 3t38 10t35.5 18t30 26z" />
    <glyph glyph-name="Gcommaaccent" unicode="&#x122;" horiz-adv-x="709" 
d="M603 44q-25 -13 -56.5 -23.5t-64 -17.5t-62.5 -11t-52 -4q-68 0 -125 17t-98 52t-63.5 88t-22.5 125q0 99 29.5 180t85 139.5t136.5 90.5t183 32q33 0 65.5 -2.5t62 -7t53.5 -11t39 -14.5q-3 -15 -10 -38.5t-16 -50.5t-19 -54t-20 -49h-41l-23 152q-14 5 -39.5 7.5
t-47.5 2.5q-67 0 -117.5 -32.5t-84 -87.5t-50 -127t-16.5 -151q0 -52 12 -89t32.5 -61t48 -35t59.5 -11q29 0 60.5 8t49.5 19l40 188q-25 2 -47 10t-39 19l8 38h273l-8 -38q-11 -9 -27.5 -16.5t-40.5 -12.5zM242 -242q80 17 91 66q-9 15 -24.5 25.5t-34.5 15.5q-1 15 6.5 31
t20.5 29.5t29 22.5t31 10q44 -3 72.5 -24.5t27.5 -62.5q0 -30 -15.5 -56.5t-43 -47.5t-65.5 -35t-84 -18z" />
    <glyph glyph-name="gcommaaccent" unicode="&#x123;" horiz-adv-x="520" 
d="M294 512q57 0 93.5 -13t53.5 -27q10 9 27 18.5t36.5 18t39 15.5t35.5 12q5 -9 6.5 -24t0 -30.5t-6.5 -29.5t-13 -23l-99 11q5 -8 8.5 -21t3.5 -29q0 -36 -17 -68.5t-49.5 -56.5t-78 -38.5t-102.5 -14.5q-17 0 -27.5 0.5t-23.5 3.5q-5 -4 -11.5 -8.5t-13 -9.5t-11 -11.5
t-4.5 -14.5q0 -15 25 -23t62 -14t81 -14t81 -23t62 -40.5t25 -67.5q0 -46 -29.5 -83t-77 -63.5t-107 -41t-120.5 -14.5q-50 0 -88 9.5t-63.5 26t-38 37.5t-12.5 44q0 52 45 87.5t114 58.5q-26 11 -41.5 26.5t-15.5 39.5q0 15 9 31t23 31t31 27.5t34 20.5q-15 3 -31.5 12
t-30 22.5t-22.5 32t-9 39.5q0 39 17 72t49 56.5t77.5 37t103.5 13.5zM190 -155q27 0 52.5 6.5t45.5 19t32.5 31.5t12.5 45q0 24 -19.5 38.5t-49.5 24t-65.5 15.5t-67.5 14q-28 -21 -42 -50t-14 -58q0 -40 31 -63t84 -23zM282 457q-24 0 -42 -10t-30 -27t-18 -40t-6 -49
q0 -35 17.5 -49.5t37.5 -14.5q24 0 42 10t30 26.5t18 38.5t6 47q0 30 -14 49t-41 19zM418 762.985q-37.9971 -7.99902 -59.9961 -25.498t-26.998 -40.498q7.99902 -13.999 22.998 -23.998q14.999 -10 34.998 -14.999q1 -14.999 -6.5 -30.998
q-7.49902 -15.999 -19.498 -28.999q-12 -12.999 -27.499 -21.998q-15.499 -9 -30.498 -10q-37.9971 2 -60.9961 20.999q-22.998 18.999 -21.999 59.9961q0 28.998 13.5 55.4971q13.499 26.498 37.9971 47.9971q24.499 21.498 58.9971 35.498q34.4971 13.999 76.4951 17.998z
" />
    <glyph glyph-name="Hcircumflex" unicode="&#x124;" horiz-adv-x="766" 
d="M279 0h-303l7 38q20 10 43.5 17.5t45.5 11.5l120 566q-23 4 -43 12t-33 17l8 38h303l-8 -38q-15 -11 -36 -18t-41 -11l-52 -242h265l52 242q-43 11 -65 29l8 38h303l-8 -38q-19 -11 -42.5 -18.5t-45.5 -10.5l-120 -566q22 -4 41.5 -12t33.5 -17l-7 -38h-303l7 38
q17 9 37 17t41 12l54 259h-265l-54 -259q34 -7 64 -29zM370 743l-28 28l172 117q12 7 33 5q19 0 29 -5l80 -114l-28 -30l-104 56z" />
    <glyph glyph-name="hcircumflex" unicode="&#x125;" horiz-adv-x="581" 
d="M90 682v32q15 6 38.5 12.5t51 12t56.5 9.5t55 4l21 -9l-84 -389h5q19 32 42.5 61t49.5 50.5t55 34t59 12.5q46 0 71 -26.5t25 -65.5q0 -27 -5 -58t-12 -60l-57 -233h74v-34q-20 -16 -58.5 -30t-87.5 -14q-33 0 -48 13.5t-15 32.5q0 18 4.5 37t9.5 44l37 167
q7 31 12.5 56.5t5.5 48.5q0 18 -7.5 30t-22.5 12q-23 0 -46 -16.5t-43 -39.5t-35.5 -48t-22.5 -42l-59 -286h-138l135 669zM141 753l-28 28l172 117q12 7 33 5q19 0 29 -5l80 -114l-28 -30l-104 56z" />
    <glyph glyph-name="Hbar" unicode="&#x126;" horiz-adv-x="782" 
d="M101 561h75l16 72q-23 4 -43 12t-33 17l8 38h303l-8 -38q-15 -11 -36 -18t-41 -11l-16 -72h265l16 72q-43 11 -65 29l8 38h303l-8 -38q-19 -11 -42.5 -18.5t-45.5 -10.5l-15 -72h76l-14 -63h-76l-91 -431q22 -4 41.5 -12t33.5 -17l-7 -38h-303l7 38q17 9 37 17t41 12
l54 259h-265l-54 -259q34 -7 64 -29l-7 -38h-303l7 38q20 10 43.5 17.5t45.5 11.5l91 431h-76zM555 391l23 107h-265l-23 -107h265z" />
    <glyph glyph-name="hbar" unicode="&#x127;" horiz-adv-x="581" 
d="M66 615h79l11 54l-66 13v32q15 6 38.5 12.5t51 12t56.5 9.5t55 4l21 -9l-28 -128h149l-14 -61h-148l-43 -200h5q19 32 42.5 61t49.5 50.5t55 34t59 12.5q46 0 71 -26.5t25 -65.5q0 -27 -5 -58t-12 -60l-57 -233h74v-34q-20 -16 -58.5 -30t-87.5 -14q-33 0 -48 13.5
t-15 32.5q0 18 4.5 37t9.5 44l37 167q7 31 12.5 56.5t5.5 48.5q0 18 -7.5 30t-22.5 12q-23 0 -46 -16.5t-43 -39.5t-35.5 -48t-22.5 -42l-59 -286h-138l112 554h-81z" />
    <glyph glyph-name="Imacron" unicode="&#x12a;" horiz-adv-x="369" 
d="M298 0h-312l7 38q47 22 88 29l120 566q-20 3 -39.5 10.5t-35.5 18.5l8 38h312l-8 -38q-20 -11 -43.5 -18.5t-43.5 -10.5l-120 -566q19 -4 39 -11t35 -18zM137 779l15 70h324l-15 -70h-324z" />
    <glyph glyph-name="imacron" unicode="&#x12b;" horiz-adv-x="304" 
d="M59 442v34q15 6 40 12.5t53 11.5t55.5 8.5t48.5 3.5l18 -12l-90 -431h70v-34q-13 -9 -30.5 -17t-37 -14t-39.5 -9.5t-38 -3.5q-38 0 -52.5 14.5t-14.5 31.5q0 20 3 39t8 42l68 310zM71 619l15 70h294l-15 -70h-294z" />
    <glyph glyph-name="Iogonek" unicode="&#x12e;" horiz-adv-x="369" 
d="M298 0h-49q-21 -14 -39 -30.5t-30.5 -34.5t-20 -36t-7.5 -34q0 -26 16 -40t38 -14q12 0 23 1t23 4v-43q-14 -11 -41 -19.5t-59 -8.5q-61 0 -94 28.5t-33 69.5q0 54 41.5 92t108.5 65h-189l7 38q47 22 88 29l120 566q-20 3 -39.5 10.5t-35.5 18.5l8 38h312l-8 -38
q-20 -11 -43.5 -18.5t-43.5 -10.5l-120 -566q19 -4 39 -11t35 -18z" />
    <glyph glyph-name="iogonek" unicode="&#x12f;" horiz-adv-x="304" 
d="M59 442v34q15 6 40 12.5t53 11.5t55.5 8.5t48.5 3.5l18 -12l-90 -431h70v-34q-20 -14 -44 -23q-17 -11 -33.5 -24.5t-30 -30.5t-22 -36t-8.5 -40q0 -23 12.5 -36.5t36.5 -13.5q17 0 44 9v-41q-8 -6 -19 -10.5t-24 -7.5t-25 -5t-21 -2q-69 0 -98.5 27t-29.5 65
q0 42 28 72.5t77 53.5q-30 2 -42.5 15.5t-12.5 29.5q0 20 3 39t8 42l68 310zM141 667q0 34 23 53t58 19q38 0 60.5 -19t22.5 -53q0 -32 -22.5 -51t-60.5 -19q-35 0 -58 19t-23 51z" />
    <glyph glyph-name="Idotaccent" unicode="&#x130;" horiz-adv-x="369" 
d="M298 0h-312l7 38q47 22 88 29l120 566q-20 3 -39.5 10.5t-35.5 18.5l8 38h312l-8 -38q-20 -11 -43.5 -18.5t-43.5 -10.5l-120 -566q19 -4 39 -11t35 -18zM212 819q0 32 23 49t68 17t67 -17t22 -49q0 -31 -22 -48t-67 -17t-68 17t-23 48z" />
    <glyph glyph-name="dotlessi" unicode="&#x131;" horiz-adv-x="304" 
d="M59 442v34q15 6 40 12.5t53 11.5t55.5 8.5t48.5 3.5l18 -12l-90 -431h70v-34q-13 -9 -30.5 -17t-37 -14t-39.5 -9.5t-38 -3.5q-38 0 -52.5 14.5t-14.5 31.5q0 20 3 39t8 42l68 310z" />
    <glyph glyph-name="Jcircumflex" unicode="&#x134;" horiz-adv-x="361" 
d="M129 700h309l-8 -38q-17 -11 -40.5 -18.5t-43.5 -10.5l-108 -512q-17 -82 -52.5 -134.5t-76 -83.5t-79 -45t-61.5 -18l-12 26q19 13 36.5 32t34 47.5t31.5 69.5t28 100l109 518q-21 4 -41 11.5t-34 17.5zM156 743l-28 28l172 117q12 7 33 5q19 0 29 -5l80 -114l-28 -30
l-104 56z" />
    <glyph glyph-name="jcircumflex" unicode="&#x135;" horiz-adv-x="299" 
d="M119 429l-59 13v34q15 7 38 13.5t49.5 11.5t53.5 8t51 3l20 -12l-92 -457q-15 -71 -45 -118t-65 -76t-71 -43t-64 -18l-16 31q12 6 28 19t32 37t31.5 60.5t26.5 88.5zM111 577l-42 25l160 186q3 3 10.5 4.5t15.5 1.5q17 0 26 -6l64 -185l-41 -26l-75 98z" />
    <glyph glyph-name="Kcommaaccent" unicode="&#x136;" horiz-adv-x="705" 
d="M499 700h272l-8 -38q-18 -11 -41.5 -18.5t-43.5 -10.5l-242 -243q16 -33 39 -73t48.5 -83t53 -87t54.5 -84l42 -29l-7 -34h-168l-35 28q-18 30 -37 66.5t-37 76t-34.5 79.5t-29.5 78h-48l-55 -261q20 -5 36.5 -13t27.5 -16l-7 -38h-303l7 38q22 11 44.5 18t44.5 11
l120 566q-23 3 -43 11t-33 18l8 38h303l-8 -38q-14 -8 -34.5 -16t-42.5 -13l-54 -254l59 14l211 240q-20 5 -37.5 12.5t-29.5 16.5zM196 -242q80 17 91 66q-9 15 -24.5 25.5t-34.5 15.5q-1 15 6.5 31t20.5 29.5t29 22.5t31 10q44 -3 72.5 -24.5t27.5 -62.5
q0 -30 -15.5 -56.5t-43 -47.5t-65.5 -35t-84 -18z" />
    <glyph glyph-name="kcommaaccent" unicode="&#x137;" horiz-adv-x="539" 
d="M315 45q-28 48 -44.5 95t-31.5 89l-33 10l-45 -239h-140l133 669l-67 13v34q14 6 37 12.5t50 11.5t56.5 8.5t57.5 3.5l21 -11l-93 -458h32q17 13 35 31t34 36t28.5 35.5t19.5 29.5q1 7 1.5 19t0 24.5t-1 24t-1.5 17.5q17 6 43 9.5t53 3.5t50.5 -3.5t34.5 -9.5
q-13 -33 -38.5 -65t-55 -60t-58 -50.5t-46.5 -35.5q7 -19 21.5 -48t32.5 -60.5t38 -61t37 -50.5h54v-34q-10 -8 -25.5 -16t-33.5 -14t-37 -10t-37 -4q-24 0 -44.5 11t-37.5 43zM124 -239q38 8 60 25.5t27 40.5q-8 14 -23 24t-35 15q-1 15 6.5 31t19.5 29t27.5 22t30.5 10
q38 -2 61 -21t22 -60q0 -29 -13.5 -55.5t-38 -48t-59 -35.5t-76.5 -18z" />
    <glyph glyph-name="Lacute" unicode="&#x139;" horiz-adv-x="577" 
d="M124 700h328l-8 -38q-22 -11 -49.5 -18.5t-52.5 -10.5l-120 -568h193l104 179h42q0 -23 -3 -54t-8 -65t-11.5 -67t-13.5 -58h-549l7 38q26 12 48 19t41 10l120 566q-22 4 -42 11t-34 18zM398 898q16 1 36.5 -2t40 -8.5t35 -12.5t21.5 -14v-20l-247 -96l-28 24z" />
    <glyph glyph-name="lacute" unicode="&#x13a;" horiz-adv-x="299" 
d="M153 669l-68 13v34q14 6 38 12t52 11.5t57.5 9t54.5 3.5l20 -11l-131 -672h71v-34q-10 -8 -27 -16t-37.5 -14t-42.5 -10t-42 -4q-34 0 -49.5 14.5t-15.5 31.5q0 20 3 39t8 42zM324 913q16 1 36.5 -2t40 -8.5t35 -12.5t21.5 -14v-20l-247 -96l-28 24z" />
    <glyph glyph-name="Lcommaaccent" unicode="&#x13b;" horiz-adv-x="577" 
d="M124 700h328l-8 -38q-22 -11 -49.5 -18.5t-52.5 -10.5l-120 -568h193l104 179h42q0 -23 -3 -54t-8 -65t-11.5 -67t-13.5 -58h-549l7 38q26 12 48 19t41 10l120 566q-22 4 -42 11t-34 18zM142 -242q80 17 91 66q-9 15 -24.5 25.5t-34.5 15.5q-1 15 6.5 31t20.5 29.5
t29 22.5t31 10q44 -3 72.5 -24.5t27.5 -62.5q0 -30 -15.5 -56.5t-43 -47.5t-65.5 -35t-84 -18z" />
    <glyph glyph-name="lcommaaccent" unicode="&#x13c;" horiz-adv-x="299" 
d="M153 669l-68 13v34q14 6 38 12t52 11.5t57.5 9t54.5 3.5l20 -11l-131 -672h71v-34q-10 -8 -27 -16t-37.5 -14t-42.5 -10t-42 -4q-34 0 -49.5 14.5t-15.5 31.5q0 20 3 39t8 42zM0 -239q38 8 60 25.5t27 40.5q-8 14 -23 24t-35 15q-1 15 6.5 31t19.5 29t27.5 22t30.5 10
q38 -2 61 -21t22 -60q0 -29 -13.5 -55.5t-38 -48t-59 -35.5t-76.5 -18z" />
    <glyph glyph-name="Lcaron" unicode="&#x13d;" horiz-adv-x="602" 
d="M124 700h328l-8 -38q-22 -11 -49.5 -18.5t-52.5 -10.5l-120 -568h193l104 179h42q0 -23 -3 -54t-8 -65t-11.5 -67t-13.5 -58h-549l7 38q26 12 48 19t41 10l120 566q-22 4 -42 11t-34 18zM478 491q10 22 18.5 49t14 54.5t8 52.5t2.5 45l21 25q13 0 32.5 -3.5t38.5 -9.5
t34.5 -14t22.5 -15q-3 -26 -20 -57.5t-41 -60.5t-51 -52.5t-51 -33.5z" />
    <glyph glyph-name="lcaron" unicode="&#x13e;" horiz-adv-x="299" 
d="M153 669l-68 13v34q14 6 38 12t52 11.5t57.5 9t54.5 3.5l20 -11l-131 -672h71v-34q-10 -8 -27 -16t-37.5 -14t-42.5 -10t-42 -4q-34 0 -49.5 14.5t-15.5 31.5q0 20 3 39t8 42zM302 534q13 22 24.5 47.5t20 52t13.5 51.5t5 45l21 25q7 1 22.5 -1.5t33 -7t33.5 -10.5
t24 -13q-5 -28 -23 -59.5t-43 -61t-52.5 -53t-49.5 -35.5z" />
    <glyph glyph-name="Lslash" unicode="&#x141;" horiz-adv-x="577" 
d="M124 700h328l-8 -38q-22 -11 -49.5 -18.5t-52.5 -10.5l-46 -214l131 71l-17 -79l-130 -71l-58 -275h193l104 179h42q0 -23 -3 -54t-8 -65t-11.5 -67t-13.5 -58h-549l7 38q26 12 48 19t41 10l38 181l-92 -50l17 79l92 50l65 306q-22 4 -42 11t-34 18z" />
    <glyph glyph-name="lslash" unicode="&#x142;" horiz-adv-x="324" 
d="M10 295l89 50l65 324l-68 13v34q14 6 38 12t52 11.5t57.5 9t54.5 3.5l20 -11l-61 -309l95 53l-16 -79l-94 -53l-55 -284h71v-34q-10 -8 -27 -16t-37.5 -14t-42.5 -10t-42 -4q-34 0 -49.5 14.5t-15.5 31.5q0 20 3 39t8 42l29 148l-90 -50z" />
    <glyph glyph-name="Nacute" unicode="&#x143;" horiz-adv-x="755" 
d="M595 700h247l-8 -38q-23 -17 -47 -27.5t-47 -16.5l-134 -630h-81l-248 510l-24 77h-3l-9 -80l-89 -417q18 -5 40.5 -16.5t36.5 -23.5l-7 -38h-246l7 38q45 28 93 40l116 546q-17 7 -36.5 18t-30.5 21l7 37h212l201 -416l30 -86h4l15 86l70 334q-22 8 -42.5 19.5
t-34.5 24.5zM528 898q16 1 36.5 -2t40 -8.5t35 -12.5t21.5 -14v-20l-247 -96l-28 24z" />
    <glyph glyph-name="nacute" unicode="&#x144;" horiz-adv-x="588" 
d="M384 285q7 31 12.5 55t5.5 50q0 17 -7.5 29.5t-26.5 12.5t-39.5 -14.5t-40 -36t-36 -47.5t-26.5 -48l-60 -286h-138l86 429l-59 13l2 34q14 7 36 13.5t48 11.5t53.5 8t52.5 3l20 -12l-31 -146h5q18 33 42 62t51 50t57 33.5t61 12.5q42 0 66 -27t24 -72q0 -23 -5 -52.5
t-12 -58.5l-55 -233h72v-34q-10 -8 -26.5 -16t-36 -14t-40.5 -10t-40 -4q-34 0 -49.5 13t-15.5 30q0 21 5 45t10 46zM425 763q8 2 26.5 1.5t38.5 -3.5t36.5 -8.5t21.5 -11.5v-24l-201 -155l-40 22z" />
    <glyph glyph-name="Ncommaaccent" unicode="&#x145;" horiz-adv-x="755" 
d="M595 700h247l-8 -38q-23 -17 -47 -27.5t-47 -16.5l-134 -630h-81l-248 510l-24 77h-3l-9 -80l-89 -417q18 -5 40.5 -16.5t36.5 -23.5l-7 -38h-246l7 38q45 28 93 40l116 546q-17 7 -36.5 18t-30.5 21l7 37h212l201 -416l30 -86h4l15 86l70 334q-22 8 -42.5 19.5
t-34.5 24.5zM191 -242q80 17 91 66q-9 15 -24.5 25.5t-34.5 15.5q-1 15 6.5 31t20.5 29.5t29 22.5t31 10q44 -3 72.5 -24.5t27.5 -62.5q0 -30 -15.5 -56.5t-43 -47.5t-65.5 -35t-84 -18z" />
    <glyph glyph-name="ncommaaccent" unicode="&#x146;" horiz-adv-x="588" 
d="M384 285q7 31 12.5 55t5.5 50q0 17 -7.5 29.5t-26.5 12.5t-39.5 -14.5t-40 -36t-36 -47.5t-26.5 -48l-60 -286h-138l86 429l-59 13l2 34q14 7 36 13.5t48 11.5t53.5 8t52.5 3l20 -12l-31 -146h5q18 33 42 62t51 50t57 33.5t61 12.5q42 0 66 -27t24 -72q0 -23 -5 -52.5
t-12 -58.5l-55 -233h72v-34q-10 -8 -26.5 -16t-36 -14t-40.5 -10t-40 -4q-34 0 -49.5 13t-15.5 30q0 21 5 45t10 46zM124 -239q38 8 60 25.5t27 40.5q-8 14 -23 24t-35 15q-1 15 6.5 31t19.5 29t27.5 22t30.5 10q38 -2 61 -21t22 -60q0 -29 -13.5 -55.5t-38 -48t-59 -35.5
t-76.5 -18z" />
    <glyph glyph-name="Ncaron" unicode="&#x147;" horiz-adv-x="755" 
d="M595 700h247l-8 -38q-23 -17 -47 -27.5t-47 -16.5l-134 -630h-81l-248 510l-24 77h-3l-9 -80l-89 -417q18 -5 40.5 -16.5t36.5 -23.5l-7 -38h-246l7 38q45 28 93 40l116 546q-17 7 -36.5 18t-30.5 21l7 37h212l201 -416l30 -86h4l15 86l70 334q-22 8 -42.5 19.5
t-34.5 24.5zM654 902q8 0 19.5 -10.5t14.5 -20.5l-167 -112q-5 -3 -13.5 -5t-18.5 -1q-8 0 -16.5 1.5t-13.5 4.5l-85 109q3 11 13.5 22.5t20.5 11.5l99 -55z" />
    <glyph glyph-name="ncaron" unicode="&#x148;" horiz-adv-x="588" 
d="M384 285q7 31 12.5 55t5.5 50q0 17 -7.5 29.5t-26.5 12.5t-39.5 -14.5t-40 -36t-36 -47.5t-26.5 -48l-60 -286h-138l86 429l-59 13l2 34q14 7 36 13.5t48 11.5t53.5 8t52.5 3l20 -12l-31 -146h5q18 33 42 62t51 50t57 33.5t61 12.5q42 0 66 -27t24 -72q0 -23 -5 -52.5
t-12 -58.5l-55 -233h72v-34q-10 -8 -26.5 -16t-36 -14t-40.5 -10t-40 -4q-34 0 -49.5 13t-15.5 30q0 21 5 45t10 46zM507 792q10 0 25 -9.5t17 -15.5l-173 -181q-4 -3 -11.5 -4t-15.5 -1q-15 0 -25 5l-81 180q1 3 7 7.5t13.5 8.5t15 7t12.5 3l80 -93z" />
    <glyph glyph-name="Omacron" unicode="&#x14c;" horiz-adv-x="751" 
d="M59 271q0 92 28.5 172.5t82 140t131 94t175.5 34.5q67 0 119 -19.5t88 -56t54.5 -88.5t18.5 -117q0 -82 -25 -161.5t-76 -142t-127.5 -101t-179.5 -38.5q-69 0 -123 21.5t-91 59.5t-56 90t-19 112zM229 252q0 -100 37.5 -149.5t101.5 -49.5q57 0 98 37t68 94.5t39.5 129
t12.5 140.5q0 89 -30.5 141t-100.5 52q-39 0 -70.5 -17.5t-57 -47.5t-44 -69.5t-30.5 -83.5t-18 -89.5t-6 -87.5zM324 779l15 70h324l-15 -70h-324z" />
    <glyph glyph-name="omacron" unicode="&#x14d;" horiz-adv-x="549" 
d="M29 192q0 54 18 110.5t55 103t93.5 76.5t132.5 30q90 0 141 -49t51 -146q0 -66 -20 -125.5t-58 -105t-92.5 -72t-124.5 -26.5q-42 0 -78 12.5t-62.5 38t-41 63.5t-14.5 90zM311 455q-40 0 -66.5 -30t-43 -75.5t-23.5 -98.5t-7 -98q0 -51 19.5 -79.5t53.5 -28.5
q29 0 53.5 24.5t42.5 66t28 95t10 111.5q0 55 -17.5 84t-49.5 29zM188 619l15 70h294l-15 -70h-294z" />
    <glyph glyph-name="Ohungarumlaut" unicode="&#x150;" horiz-adv-x="751" 
d="M59 271q0 92 28.5 172.5t82 140t131 94t175.5 34.5q67 0 119 -19.5t88 -56t54.5 -88.5t18.5 -117q0 -82 -25 -161.5t-76 -142t-127.5 -101t-179.5 -38.5q-69 0 -123 21.5t-91 59.5t-56 90t-19 112zM229 252q0 -100 37.5 -149.5t101.5 -49.5q57 0 98 37t68 94.5t39.5 129
t12.5 140.5q0 89 -30.5 141t-100.5 52q-39 0 -70.5 -17.5t-57 -47.5t-44 -69.5t-30.5 -83.5t-18 -89.5t-6 -87.5zM385 888q6 1 21.5 -1.5t32.5 -6.5t31 -9.5t17 -10.5v-14l-135 -97l-37 23zM581 888q7 1 22.5 -1.5t33 -7t32 -10.5t19.5 -12l-1 -10l-182 -100l-39 23z" />
    <glyph glyph-name="ohungarumlaut" unicode="&#x151;" horiz-adv-x="549" 
d="M29 192q0 54 18 110.5t55 103t93.5 76.5t132.5 30q90 0 141 -49t51 -146q0 -66 -20 -125.5t-58 -105t-92.5 -72t-124.5 -26.5q-42 0 -78 12.5t-62.5 38t-41 63.5t-14.5 90zM311 455q-40 0 -66.5 -30t-43 -75.5t-23.5 -98.5t-7 -98q0 -51 19.5 -79.5t53.5 -28.5
q29 0 53.5 24.5t42.5 66t28 95t10 111.5q0 55 -17.5 84t-49.5 29zM291 768q6 2 23 1t35.5 -4t34 -7.5t18.5 -10.5v-24l-138 -138l-41 20zM487 768q7 2 23 1t34 -5t33.5 -10t21.5 -14v-22l-208 -133l-37 22z" />
    <glyph glyph-name="OE" unicode="&#x152;" horiz-adv-x="984" 
d="M441 0q-24 -5 -47.5 -8.5t-47.5 -3.5q-74 0 -128 19t-89 54.5t-52.5 85t-17.5 111.5q0 94 27.5 177t80 144.5t129 97t175.5 35.5q10 0 25.5 -1t32 -2.5t32 -4t27.5 -4.5h444q-11 -45 -26 -93t-32 -90h-42l-21 118h-187l-52 -245h123l60 77h31q-5 -49 -17.5 -109
t-28.5 -112h-32l-27 79h-123l-55 -260h195l80 127h42q0 -19 -1.5 -43t-4 -49.5t-6.5 -51.5t-9 -48h-458zM357 53q24 0 50 6.5t49 17.5l114 540q-20 13 -47 21.5t-58 8.5q-56 0 -99.5 -35.5t-74 -93.5t-46.5 -132t-16 -150q0 -41 6 -75t21 -58t39.5 -37t61.5 -13z" />
    <glyph glyph-name="oe" unicode="&#x153;" horiz-adv-x="814" 
d="M311 455q-40 0 -66.5 -30t-43 -75.5t-23.5 -98.5t-7 -98q0 -51 19.5 -79.5t53.5 -28.5q29 0 53.5 24.5t42 66t27.5 95t10 111.5q0 55 -17 84t-49 29zM400 53q-35 -35 -82 -50t-93 -15q-42 0 -78 12.5t-62.5 38t-41 63.5t-14.5 90q0 54 18 110.5t55 103t93.5 76.5
t132.5 30q49 0 89.5 -17.5t61.5 -51.5q36 33 83 51t96 18q60 0 99 -27.5t39 -75.5q0 -68 -67 -112t-219 -55q-2 -14 -3.5 -28.5t-1.5 -27.5q0 -57 29 -87.5t74 -30.5q19 0 38 6t36 16t31.5 21.5t25.5 22.5l24 -25q-11 -20 -32 -41.5t-49 -39t-62 -29t-71 -11.5q-57 0 -93 19
t-56 46zM635 455q-33 0 -64.5 -37t-53.5 -125q75 2 120.5 33t45.5 81q0 20 -11 34t-37 14z" />
    <glyph glyph-name="Racute" unicode="&#x154;" horiz-adv-x="692" 
d="M222 67q21 -6 38 -13.5t31 -15.5l-7 -38h-308l7 38q25 12 46.5 18.5t42.5 10.5l120 566q-49 11 -76 29l8 38h106q20 0 45.5 1t53.5 2.5t57 3t55 1.5q111 0 164.5 -43t53.5 -122q0 -37 -12 -71.5t-35.5 -64t-58 -52t-80.5 -35.5q26 -63 64.5 -128t75.5 -126l42 -32l-7 -34
h-159l-37 33q-34 55 -62.5 127.5t-41.5 142.5h-76zM395 643q-16 0 -29 -2t-24 -4l-59 -279h58q41 0 71.5 15.5t50.5 42t30 60.5t10 72q1 51 -25.5 73t-82.5 22zM478 898q16 1 36.5 -2t40 -8.5t35 -12.5t21.5 -14v-20l-247 -96l-28 24z" />
    <glyph glyph-name="racute" unicode="&#x155;" horiz-adv-x="435" 
d="M314 405q-19 -8 -42.5 -36t-39.5 -71l-64 -298h-140l89 429l-57 13v34q17 8 39.5 14.5t48 11t52.5 7t52 3.5l20 -12l-26 -124h4q30 58 69 97t91 39q14 0 28 -2.5t26 -9.5q2 -21 -3.5 -45.5t-14.5 -46.5t-21 -39t-23 -23zM356 763q8 2 26.5 1.5t38.5 -3.5t36.5 -8.5
t21.5 -11.5v-24l-201 -155l-40 22z" />
    <glyph glyph-name="Rcommaaccent" unicode="&#x156;" horiz-adv-x="692" 
d="M222 67q21 -6 38 -13.5t31 -15.5l-7 -38h-308l7 38q25 12 46.5 18.5t42.5 10.5l120 566q-49 11 -76 29l8 38h106q20 0 45.5 1t53.5 2.5t57 3t55 1.5q111 0 164.5 -43t53.5 -122q0 -37 -12 -71.5t-35.5 -64t-58 -52t-80.5 -35.5q26 -63 64.5 -128t75.5 -126l42 -32l-7 -34
h-159l-37 33q-34 55 -62.5 127.5t-41.5 142.5h-76zM395 643q-16 0 -29 -2t-24 -4l-59 -279h58q41 0 71.5 15.5t50.5 42t30 60.5t10 72q1 51 -25.5 73t-82.5 22zM176 -242q80 17 91 66q-9 15 -24.5 25.5t-34.5 15.5q-1 15 6.5 31t20.5 29.5t29 22.5t31 10q44 -3 72.5 -24.5
t27.5 -62.5q0 -30 -15.5 -56.5t-43 -47.5t-65.5 -35t-84 -18z" />
    <glyph glyph-name="rcommaaccent" unicode="&#x157;" horiz-adv-x="435" 
d="M314 405q-19 -8 -42.5 -36t-39.5 -71l-64 -298h-140l89 429l-57 13v34q17 8 39.5 14.5t48 11t52.5 7t52 3.5l20 -12l-26 -124h4q30 58 69 97t91 39q14 0 28 -2.5t26 -9.5q2 -21 -3.5 -45.5t-14.5 -46.5t-21 -39t-23 -23zM19 -239q38 8 60 25.5t27 40.5q-8 14 -23 24
t-35 15q-1 15 6.5 31t19.5 29t27.5 22t30.5 10q38 -2 61 -21t22 -60q0 -29 -13.5 -55.5t-38 -48t-59 -35.5t-76.5 -18z" />
    <glyph glyph-name="Rcaron" unicode="&#x158;" horiz-adv-x="692" 
d="M222 67q21 -6 38 -13.5t31 -15.5l-7 -38h-308l7 38q25 12 46.5 18.5t42.5 10.5l120 566q-49 11 -76 29l8 38h106q20 0 45.5 1t53.5 2.5t57 3t55 1.5q111 0 164.5 -43t53.5 -122q0 -37 -12 -71.5t-35.5 -64t-58 -52t-80.5 -35.5q26 -63 64.5 -128t75.5 -126l42 -32l-7 -34
h-159l-37 33q-34 55 -62.5 127.5t-41.5 142.5h-76zM395 643q-16 0 -29 -2t-24 -4l-59 -279h58q41 0 71.5 15.5t50.5 42t30 60.5t10 72q1 51 -25.5 73t-82.5 22zM573 902q8 0 19.5 -10.5t14.5 -20.5l-167 -112q-5 -3 -13.5 -5t-18.5 -1q-8 0 -16.5 1.5t-13.5 4.5l-85 109
q3 11 13.5 22.5t20.5 11.5l99 -55z" />
    <glyph glyph-name="rcaron" unicode="&#x159;" horiz-adv-x="435" 
d="M314 405q-19 -8 -42.5 -36t-39.5 -71l-64 -298h-140l89 429l-57 13v34q17 8 39.5 14.5t48 11t52.5 7t52 3.5l20 -12l-26 -124h4q30 58 69 97t91 39q14 0 28 -2.5t26 -9.5q2 -21 -3.5 -45.5t-14.5 -46.5t-21 -39t-23 -23zM435 792q10 0 25 -9.5t17 -15.5l-173 -181
q-4 -3 -11.5 -4t-15.5 -1q-15 0 -25 5l-81 180q1 3 7 7.5t13.5 8.5t15 7t12.5 3l80 -93z" />
    <glyph glyph-name="Sacute" unicode="&#x15a;" horiz-adv-x="556" 
d="M140 83q10 -10 36 -20t55 -10q31 0 58 5.5t46.5 17.5t30.5 31.5t11 47.5q0 36 -19 61.5t-47 46.5t-61.5 41.5t-61.5 46.5t-47 61t-19 86q0 53 21 93t58 67t88 40.5t112 13.5t111.5 -8.5t88.5 -26.5q-5 -20 -13 -46t-17.5 -51.5t-19 -48t-16.5 -37.5h-41l-17 137
q-14 8 -37.5 12t-48.5 4q-26 0 -48.5 -5.5t-39 -17t-26.5 -29.5t-10 -43q0 -35 19.5 -61t48 -47.5t62.5 -43t62.5 -48t48 -61.5t19.5 -84q0 -106 -78.5 -162.5t-224.5 -56.5q-32 0 -64.5 4t-61.5 11t-51 15t-32 17q6 24 15 50.5t19 53t20.5 50t19.5 41.5h41zM469 898
q16 1 36.5 -2t40 -8.5t35 -12.5t21.5 -14v-20l-247 -96l-28 24z" />
    <glyph glyph-name="sacute" unicode="&#x15b;" horiz-adv-x="432" 
d="M229 110q0 22 -12 39.5t-30 34.5t-39.5 33.5t-39.5 37.5t-30 46.5t-12 59.5q0 76 54.5 113.5t148.5 37.5q16 0 35.5 -1.5t39.5 -5.5t38.5 -9.5t33.5 -14.5q1 -11 -1.5 -28.5t-9 -35t-17 -32t-25.5 -19.5l-80 89q-32 0 -53.5 -13t-21.5 -46q0 -22 12.5 -40t30.5 -34.5
t40 -33.5t40 -37.5t30.5 -46.5t12.5 -60q0 -38 -17 -67t-46.5 -49t-70.5 -30t-89 -10q-51 0 -91.5 11.5t-60.5 25.5q-1 32 11.5 63t36.5 48l97 -91q33 0 59 16t26 49zM347 763q8 2 26.5 1.5t38.5 -3.5t36.5 -8.5t21.5 -11.5v-24l-201 -155l-40 22z" />
    <glyph glyph-name="Scircumflex" unicode="&#x15c;" horiz-adv-x="556" 
d="M140 83q10 -10 36 -20t55 -10q31 0 58 5.5t46.5 17.5t30.5 31.5t11 47.5q0 36 -19 61.5t-47 46.5t-61.5 41.5t-61.5 46.5t-47 61t-19 86q0 53 21 93t58 67t88 40.5t112 13.5t111.5 -8.5t88.5 -26.5q-5 -20 -13 -46t-17.5 -51.5t-19 -48t-16.5 -37.5h-41l-17 137
q-14 8 -37.5 12t-48.5 4q-26 0 -48.5 -5.5t-39 -17t-26.5 -29.5t-10 -43q0 -35 19.5 -61t48 -47.5t62.5 -43t62.5 -48t48 -61.5t19.5 -84q0 -106 -78.5 -162.5t-224.5 -56.5q-32 0 -64.5 4t-61.5 11t-51 15t-32 17q6 24 15 50.5t19 53t20.5 50t19.5 41.5h41zM275 743l-28 28
l172 117q12 7 33 5q19 0 29 -5l80 -114l-28 -30l-104 56z" />
    <glyph glyph-name="scircumflex" unicode="&#x15d;" horiz-adv-x="432" 
d="M229 110q0 22 -12 39.5t-30 34.5t-39.5 33.5t-39.5 37.5t-30 46.5t-12 59.5q0 76 54.5 113.5t148.5 37.5q16 0 35.5 -1.5t39.5 -5.5t38.5 -9.5t33.5 -14.5q1 -11 -1.5 -28.5t-9 -35t-17 -32t-25.5 -19.5l-80 89q-32 0 -53.5 -13t-21.5 -46q0 -22 12.5 -40t30.5 -34.5
t40 -33.5t40 -37.5t30.5 -46.5t12.5 -60q0 -38 -17 -67t-46.5 -49t-70.5 -30t-89 -10q-51 0 -91.5 11.5t-60.5 25.5q-1 32 11.5 63t36.5 48l97 -91q33 0 59 16t26 49zM182 577l-42 25l160 186q3 3 10.5 4.5t15.5 1.5q17 0 26 -6l64 -185l-41 -26l-75 98z" />
    <glyph glyph-name="Scedilla" unicode="&#x15e;" horiz-adv-x="556" 
d="M140 83q10 -10 36 -20t55 -10q31 0 58 5.5t46.5 17.5t30.5 31.5t11 47.5q0 36 -19 61.5t-47 46.5t-61.5 41.5t-61.5 46.5t-47 61t-19 86q0 53 21 93t58 67t88 40.5t112 13.5t111.5 -8.5t88.5 -26.5q-5 -20 -13 -46t-17.5 -51.5t-19 -48t-16.5 -37.5h-41l-17 137
q-14 8 -37.5 12t-48.5 4q-26 0 -48.5 -5.5t-39 -17t-26.5 -29.5t-10 -43q0 -35 19.5 -61t48 -47.5t62.5 -43t62.5 -48t48 -61.5t19.5 -84q0 -100 -69.5 -155.5t-198.5 -62.5l-35 -59q58 -2 83 -22t25 -55q0 -38 -25.5 -64t-61.5 -42.5t-76 -24t-69 -7.5v46q18 2 35.5 7
t32 14t23 21.5t8.5 29.5q-1 18 -11 29t-45 13l53 114q-29 1 -57.5 5.5t-53 11t-43 14t-27.5 15.5q6 24 15 50.5t19 53t20.5 50t19.5 41.5h41z" />
    <glyph glyph-name="Scedilla" unicode="&#xf6c1;" horiz-adv-x="556" 
d="M140 83q10 -10 36 -20t55 -10q31 0 58 5.5t46.5 17.5t30.5 31.5t11 47.5q0 36 -19 61.5t-47 46.5t-61.5 41.5t-61.5 46.5t-47 61t-19 86q0 53 21 93t58 67t88 40.5t112 13.5t111.5 -8.5t88.5 -26.5q-5 -20 -13 -46t-17.5 -51.5t-19 -48t-16.5 -37.5h-41l-17 137
q-14 8 -37.5 12t-48.5 4q-26 0 -48.5 -5.5t-39 -17t-26.5 -29.5t-10 -43q0 -35 19.5 -61t48 -47.5t62.5 -43t62.5 -48t48 -61.5t19.5 -84q0 -100 -69.5 -155.5t-198.5 -62.5l-35 -59q58 -2 83 -22t25 -55q0 -38 -25.5 -64t-61.5 -42.5t-76 -24t-69 -7.5v46q18 2 35.5 7
t32 14t23 21.5t8.5 29.5q-1 18 -11 29t-45 13l53 114q-29 1 -57.5 5.5t-53 11t-43 14t-27.5 15.5q6 24 15 50.5t19 53t20.5 50t19.5 41.5h41z" />
    <glyph glyph-name="scedilla" unicode="&#x15f;" horiz-adv-x="432" 
d="M229 110q0 22 -12 39.5t-30 34.5t-39.5 33.5t-39.5 37.5t-30 46.5t-12 59.5q0 76 54.5 113.5t148.5 37.5q16 0 35.5 -1.5t39.5 -5.5t38.5 -9.5t33.5 -14.5q1 -11 -1.5 -28.5t-9 -35t-17 -32t-25.5 -19.5l-80 89q-32 0 -53.5 -13t-21.5 -46q0 -22 12.5 -40t30.5 -34.5
t40 -33.5t40 -37.5t30.5 -46.5t12.5 -60t-14 -61t-38.5 -46.5t-59 -31.5t-75.5 -15l-35 -58q54 -3 75.5 -20.5t22.5 -50.5q0 -31 -20 -53t-51.5 -36.5t-70 -21.5t-73.5 -7v39q17 3 33.5 8t29 12.5t20 17.5t7.5 23q-1 17 -11 28.5t-42 14.5l54 103q-42 3 -76 13t-51 23
q-1 32 11.5 63t36.5 48l97 -91q33 0 59 16t26 49z" />
    <glyph glyph-name="scedilla" unicode="&#xf6c2;" horiz-adv-x="432" 
d="M229 110q0 22 -12 39.5t-30 34.5t-39.5 33.5t-39.5 37.5t-30 46.5t-12 59.5q0 76 54.5 113.5t148.5 37.5q16 0 35.5 -1.5t39.5 -5.5t38.5 -9.5t33.5 -14.5q1 -11 -1.5 -28.5t-9 -35t-17 -32t-25.5 -19.5l-80 89q-32 0 -53.5 -13t-21.5 -46q0 -22 12.5 -40t30.5 -34.5
t40 -33.5t40 -37.5t30.5 -46.5t12.5 -60t-14 -61t-38.5 -46.5t-59 -31.5t-75.5 -15l-35 -58q54 -3 75.5 -20.5t22.5 -50.5q0 -31 -20 -53t-51.5 -36.5t-70 -21.5t-73.5 -7v39q17 3 33.5 8t29 12.5t20 17.5t7.5 23q-1 17 -11 28.5t-42 14.5l54 103q-42 3 -76 13t-51 23
q-1 32 11.5 63t36.5 48l97 -91q33 0 59 16t26 49z" />
    <glyph glyph-name="Scaron" unicode="&#x160;" horiz-adv-x="556" 
d="M140 83q10 -10 36 -20t55 -10q31 0 58 5.5t46.5 17.5t30.5 31.5t11 47.5q0 36 -19 61.5t-47 46.5t-61.5 41.5t-61.5 46.5t-47 61t-19 86q0 53 21 93t58 67t88 40.5t112 13.5t111.5 -8.5t88.5 -26.5q-5 -20 -13 -46t-17.5 -51.5t-19 -48t-16.5 -37.5h-41l-17 137
q-14 8 -37.5 12t-48.5 4q-26 0 -48.5 -5.5t-39 -17t-26.5 -29.5t-10 -43q0 -35 19.5 -61t48 -47.5t62.5 -43t62.5 -48t48 -61.5t19.5 -84q0 -106 -78.5 -162.5t-224.5 -56.5q-32 0 -64.5 4t-61.5 11t-51 15t-32 17q6 24 15 50.5t19 53t20.5 50t19.5 41.5h41zM573 902
q8 0 19.5 -10.5t14.5 -20.5l-167 -112q-5 -3 -13.5 -5t-18.5 -1q-8 0 -16.5 1.5t-13.5 4.5l-85 109q3 11 13.5 22.5t20.5 11.5l99 -55z" />
    <glyph glyph-name="scaron" unicode="&#x161;" horiz-adv-x="432" 
d="M229 110q0 22 -12 39.5t-30 34.5t-39.5 33.5t-39.5 37.5t-30 46.5t-12 59.5q0 76 54.5 113.5t148.5 37.5q16 0 35.5 -1.5t39.5 -5.5t38.5 -9.5t33.5 -14.5q1 -11 -1.5 -28.5t-9 -35t-17 -32t-25.5 -19.5l-80 89q-32 0 -53.5 -13t-21.5 -46q0 -22 12.5 -40t30.5 -34.5
t40 -33.5t40 -37.5t30.5 -46.5t12.5 -60q0 -38 -17 -67t-46.5 -49t-70.5 -30t-89 -10q-51 0 -91.5 11.5t-60.5 25.5q-1 32 11.5 63t36.5 48l97 -91q33 0 59 16t26 49zM423 792q10 0 25 -9.5t17 -15.5l-173 -181q-4 -3 -11.5 -4t-15.5 -1q-15 0 -25 5l-81 180q1 3 7 7.5
t13.5 8.5t15 7t12.5 3l80 -93z" />
    <glyph glyph-name="Tcedilla" unicode="&#x162;" horiz-adv-x="662" 
d="M461 0h-141l-42 -70q58 -2 83 -22t25 -55q0 -38 -25.5 -64t-61.5 -42.5t-76 -24t-69 -7.5v46q18 2 35.5 7t32 14t23 21.5t8.5 29.5q-1 18 -11 29t-45 13l59 125h-139l8 38q22 9 49 17t54 12l121 568h-116l-101 -171h-41q0 20 2.5 51t6 64t8.5 65.5t11 55.5h637
q-5 -24 -13.5 -56t-18.5 -65t-20.5 -63.5t-19.5 -51.5h-42l-27 171h-116l-121 -568q25 -5 49 -12t42 -17z" />
    <glyph glyph-name="tcedilla" unicode="&#x163;" horiz-adv-x="367" 
d="M45 476q19 12 42 20.5t45 13.5l16 76q7 6 22 11.5t33 10t36.5 8.5t33.5 6l21 -12l-24 -110h117q2 -12 -1.5 -31.5t-11.5 -31.5h-117l-58 -259q-4 -19 -6 -33.5t-2 -26.5q0 -26 13 -38t35 -12q25 0 47 6t42 17l13 -26q-20 -23 -63.5 -45.5t-94.5 -29.5l-36 -58
q54 -3 75.5 -20.5t22.5 -50.5q0 -31 -20 -53t-51.5 -36.5t-70 -21.5t-73.5 -7v39q17 3 33.5 8t29 12.5t20 17.5t7.5 23q-1 17 -11 28.5t-42 14.5l55 104q-38 7 -56.5 29.5t-18.5 58.5q0 23 4 49t8 44l58 266h-72v39z" />
    <glyph glyph-name="Tcaron" unicode="&#x164;" horiz-adv-x="662" 
d="M461 0h-344l8 38q22 9 49 17t54 12l121 568h-116l-101 -171h-41q0 20 2.5 51t6 64t8.5 65.5t11 55.5h637q-5 -24 -13.5 -56t-18.5 -65t-20.5 -63.5t-19.5 -51.5h-42l-27 171h-116l-121 -568q25 -5 49 -12t42 -17zM609 902q8 0 19.5 -10.5t14.5 -20.5l-167 -112
q-5 -3 -13.5 -5t-18.5 -1q-8 0 -16.5 1.5t-13.5 4.5l-85 109q3 11 13.5 22.5t20.5 11.5l99 -55z" />
    <glyph glyph-name="tcaron" unicode="&#x165;" horiz-adv-x="367" 
d="M45 476q19 12 42 20.5t45 13.5l16 76q7 6 22 11.5t33 10t36.5 8.5t33.5 6l21 -12l-24 -110h117q2 -12 -1.5 -31.5t-11.5 -31.5h-117l-58 -259q-4 -19 -6 -33.5t-2 -26.5q0 -26 13 -38t35 -12q25 0 47 6t42 17l13 -26q-12 -13 -32 -26.5t-45 -25t-54 -18.5t-59 -7
q-52 0 -78 24t-26 66q0 23 4 49t8 44l58 266h-72v39zM308 549q13 22 24.5 47.5t20 52t13.5 51.5t5 45l21 25q7 1 22.5 -1.5t33 -7t33.5 -10.5t24 -13q-5 -28 -23 -59.5t-43 -61t-52.5 -53t-49.5 -35.5z" />
    <glyph glyph-name="Umacron" unicode="&#x16a;" horiz-adv-x="715" 
d="M112 700h308l-8 -38q-36 -21 -82 -29l-79 -373q-20 -98 15 -142t110 -44q70 0 117 40.5t68 138.5l79 375q-23 5 -45.5 14t-35.5 20l8 38h248l-8 -38q-18 -13 -42.5 -21t-47.5 -13l-80 -376q-27 -129 -98.5 -195t-204.5 -66q-143 0 -200.5 75t-29.5 205l76 362
q-20 4 -41.5 11t-34.5 18zM325 779l15 70h324l-15 -70h-324z" />
    <glyph glyph-name="umacron" unicode="&#x16b;" horiz-adv-x="585" 
d="M546 69v-34q-10 -8 -26.5 -16t-36 -14t-41 -10t-42.5 -4q-36 0 -49.5 14.5t-13.5 30.5q0 18 4 50t16 74h-4q-13 -24 -33 -54t-47 -56.5t-62 -44t-77 -17.5q-41 0 -66.5 24.5t-25.5 69.5q0 22 6.5 63t16 89.5t21 100t20.5 94.5l-59 13v34q16 6 40 12t50 11t53 8.5t49 4.5
l22 -12q-16 -75 -32.5 -142.5t-30.5 -142.5q-5 -24 -10.5 -53t-5.5 -58q0 -18 9.5 -27t23.5 -9q25 0 49.5 19.5t45 47t36 56.5t22.5 48l52 261h135l-79 -431h70zM213 619l15 70h294l-15 -70h-294z" />
    <glyph glyph-name="Ubreve" unicode="&#x16c;" horiz-adv-x="715" 
d="M112 700h308l-8 -38q-36 -21 -82 -29l-79 -373q-20 -98 15 -142t110 -44q70 0 117 40.5t68 138.5l79 375q-23 5 -45.5 14t-35.5 20l8 38h248l-8 -38q-18 -13 -42.5 -21t-47.5 -13l-80 -376q-27 -129 -98.5 -195t-204.5 -66q-143 0 -200.5 75t-29.5 205l76 362
q-20 4 -41.5 11t-34.5 18zM637 897q7 1 20.5 -6t20.5 -17q-10 -20 -30 -40.5t-46.5 -37t-57.5 -27t-62 -10.5q-67 0 -102 34.5t-40 82.5q7 12 21.5 19t29.5 5q11 -22 36 -34.5t60 -13.5q19 0 40 2.5t41 8.5t38 14.5t31 19.5z" />
    <glyph glyph-name="ubreve" unicode="&#x16d;" horiz-adv-x="585" 
d="M546 69v-34q-10 -8 -26.5 -16t-36 -14t-41 -10t-42.5 -4q-36 0 -49.5 14.5t-13.5 30.5q0 18 4 50t16 74h-4q-13 -24 -33 -54t-47 -56.5t-62 -44t-77 -17.5q-41 0 -66.5 24.5t-25.5 69.5q0 22 6.5 63t16 89.5t21 100t20.5 94.5l-59 13v34q16 6 40 12t50 11t53 8.5t49 4.5
l22 -12q-16 -75 -32.5 -142.5t-30.5 -142.5q-5 -24 -10.5 -53t-5.5 -58q0 -18 9.5 -27t23.5 -9q25 0 49.5 19.5t45 47t36 56.5t22.5 48l52 261h135l-79 -431h70zM528 724q-11 -29 -29.5 -54.5t-42 -44.5t-50.5 -30t-55 -11q-59 0 -94 39.5t-37 102.5l37 22q16 -26 40.5 -43
t56.5 -18q18 0 37.5 3t38 10t35.5 18t30 26z" />
    <glyph glyph-name="Uring" unicode="&#x16e;" horiz-adv-x="715" 
d="M112 700h308l-8 -38q-36 -21 -82 -29l-79 -373q-20 -98 15 -142t110 -44q70 0 117 40.5t68 138.5l79 375q-23 5 -45.5 14t-35.5 20l8 38h248l-8 -38q-18 -13 -42.5 -21t-47.5 -13l-80 -376q-27 -129 -98.5 -195t-204.5 -66q-143 0 -200.5 75t-29.5 205l76 362
q-20 4 -41.5 11t-34.5 18zM378 777q0 21 11 39.5t31 32t48.5 21.5t63.5 8q48 0 77 -17t29 -55q0 -23 -11.5 -42t-32 -32.5t-48 -20.5t-59.5 -7q-54 0 -81.5 19t-27.5 54zM461 785q0 -16 12.5 -23.5t27.5 -7.5q24 0 39 11t15 27q0 20 -11 28t-30 8q-23 0 -38 -11.5t-15 -31.5
z" />
    <glyph glyph-name="uring" unicode="&#x16f;" horiz-adv-x="585" 
d="M546 69v-34q-10 -8 -26.5 -16t-36 -14t-41 -10t-42.5 -4q-36 0 -49.5 14.5t-13.5 30.5q0 18 4 50t16 74h-4q-13 -24 -33 -54t-47 -56.5t-62 -44t-77 -17.5q-41 0 -66.5 24.5t-25.5 69.5q0 22 6.5 63t16 89.5t21 100t20.5 94.5l-59 13v34q16 6 40 12t50 11t53 8.5t49 4.5
l22 -12q-16 -75 -32.5 -142.5t-30.5 -142.5q-5 -24 -10.5 -53t-5.5 -58q0 -18 9.5 -27t23.5 -9q25 0 49.5 19.5t45 47t36 56.5t22.5 48l52 261h135l-79 -431h70zM255 664q0 48 36 82t101 34q44 0 68.5 -23t24.5 -58q0 -23 -9 -44t-26 -37t-41.5 -25t-55.5 -9
q-47 0 -72.5 21.5t-25.5 58.5zM330 666q0 -15 8.5 -23.5t21.5 -8.5q18 0 34 16.5t16 45.5q0 34 -28 34q-25 0 -38.5 -19t-13.5 -45z" />
    <glyph glyph-name="Uhungarumlaut" unicode="&#x170;" horiz-adv-x="715" 
d="M112 700h308l-8 -38q-36 -21 -82 -29l-79 -373q-20 -98 15 -142t110 -44q70 0 117 40.5t68 138.5l79 375q-23 5 -45.5 14t-35.5 20l8 38h248l-8 -38q-18 -13 -42.5 -21t-47.5 -13l-80 -376q-27 -129 -98.5 -195t-204.5 -66q-143 0 -200.5 75t-29.5 205l76 362
q-20 4 -41.5 11t-34.5 18zM422 888q6 1 21.5 -1.5t32.5 -6.5t31 -9.5t17 -10.5v-14l-135 -97l-37 23zM618 888q7 1 22.5 -1.5t33 -7t32 -10.5t19.5 -12l-1 -10l-182 -100l-39 23z" />
    <glyph glyph-name="uhungarumlaut" unicode="&#x171;" horiz-adv-x="585" 
d="M546 69v-34q-10 -8 -26.5 -16t-36 -14t-41 -10t-42.5 -4q-36 0 -49.5 14.5t-13.5 30.5q0 18 4 50t16 74h-4q-13 -24 -33 -54t-47 -56.5t-62 -44t-77 -17.5q-41 0 -66.5 24.5t-25.5 69.5q0 22 6.5 63t16 89.5t21 100t20.5 94.5l-59 13v34q16 6 40 12t50 11t53 8.5t49 4.5
l22 -12q-16 -75 -32.5 -142.5t-30.5 -142.5q-5 -24 -10.5 -53t-5.5 -58q0 -18 9.5 -27t23.5 -9q25 0 49.5 19.5t45 47t36 56.5t22.5 48l52 261h135l-79 -431h70zM304 768q6 2 23 1t35.5 -4t34 -7.5t18.5 -10.5v-24l-138 -138l-41 20zM500 768q7 2 23 1t34 -5t33.5 -10
t21.5 -14v-22l-208 -133l-37 22z" />
    <glyph glyph-name="Uogonek" unicode="&#x172;" horiz-adv-x="715" 
d="M112 700h308l-8 -38q-36 -21 -82 -29l-79 -373q-20 -98 15 -142t110 -44q70 0 117 40.5t68 138.5l79 375q-23 5 -45.5 14t-35.5 20l8 38h248l-8 -38q-18 -13 -42.5 -21t-47.5 -13l-80 -376q-20 -97 -64 -157.5t-119 -86.5q-24 -13 -44 -30.5t-34.5 -37t-23 -39
t-8.5 -36.5q0 -26 16 -40t38 -14q12 0 23 1t23 4v-43q-14 -11 -41 -19.5t-59 -8.5q-61 0 -94 28.5t-33 69.5q0 49 35.5 85.5t93.5 62.5h-12q-143 0 -200.5 75t-29.5 205l76 362q-20 4 -41.5 11t-34.5 18z" />
    <glyph glyph-name="uogonek" unicode="&#x173;" horiz-adv-x="585" 
d="M546 69v-34q-18 -14 -42 -23q-17 -11 -34 -24.5t-30.5 -30.5t-22 -36t-8.5 -40q0 -23 13 -36.5t37 -13.5q10 0 19.5 2t23.5 7v-41q-8 -6 -19 -10.5t-24 -7.5t-25 -5t-21 -2q-69 0 -98.5 27t-29.5 65q0 42 28 72t78 53q-31 2 -42.5 16t-11.5 29q0 18 4 50t16 74h-4
q-13 -24 -33 -54t-47 -56.5t-62 -44t-77 -17.5q-41 0 -66.5 24.5t-25.5 69.5q0 22 6.5 63t16 89.5t21 100t20.5 94.5l-59 13v34q16 6 40 12t50 11t53 8.5t49 4.5l22 -12q-16 -75 -32.5 -142.5t-30.5 -142.5q-5 -24 -10.5 -53t-5.5 -58q0 -18 9.5 -27t23.5 -9q25 0 49.5 19.5
t45 47t36 56.5t22.5 48l52 261h135l-79 -431h70z" />
    <glyph glyph-name="Ydieresis" unicode="&#x178;" horiz-adv-x="695" 
d="M554 700h249l-8 -38q-17 -10 -37 -17.5t-40 -11.5l-267 -340l-48 -226q19 -3 37 -11t33 -18l-8 -38h-308l8 38q19 9 42 17t46 12l48 225l-130 341q-22 4 -41.5 11.5t-33.5 17.5l8 38h325l-8 -38q-14 -8 -34 -16t-46 -13l87 -269l191 269q-21 5 -40 12.5t-33 16.5z
M289 793q0 32 23 48t58 16t58 -16t23 -48q0 -28 -23 -43.5t-58 -15.5t-58 15.5t-23 43.5zM534 793q0 32 23.5 48t58.5 16t58 -16t23 -48q0 -28 -23 -43.5t-58 -15.5t-58.5 15.5t-23.5 43.5z" />
    <glyph glyph-name="Zacute" unicode="&#x179;" horiz-adv-x="631" 
d="M539 211h41q0 -21 -2 -48t-5 -55t-7.5 -56t-9.5 -52h-551v65l491 570h-230l-89 -143h-42q0 22 1.5 50t5 56.5t7.5 55t9 46.5h516v-65l-492 -570h264zM496 898q16 1 36.5 -2t40 -8.5t35 -12.5t21.5 -14v-20l-247 -96l-28 24z" />
    <glyph glyph-name="zacute" unicode="&#x17a;" horiz-adv-x="468" 
d="M122 183v1l191 199q-39 -1 -84.5 3.5t-93.5 12.5l-46 -72l-34 6l14 141q6 39 57 39q20 0 50 -3.5t67.5 -8.5t81 -9.5t90.5 -7.5l26 28q14 -1 29 -13.5t17 -29.5l-322 -336q51 -11 99 -27.5t90 -39.5l67 66l33 -14l-44 -141q-5 -15 -19.5 -25t-34.5 -10q-21 0 -50.5 13
t-66.5 29.5t-79 32.5t-88 22l-47 -48q-8 0 -16 4t-15 10t-11.5 14t-3.5 17zM365 763q8 2 26.5 1.5t38.5 -3.5t36.5 -8.5t21.5 -11.5v-24l-201 -155l-40 22z" />
    <glyph glyph-name="Zdotaccent" unicode="&#x17b;" horiz-adv-x="631" 
d="M539 211h41q0 -21 -2 -48t-5 -55t-7.5 -56t-9.5 -52h-551v65l491 570h-230l-89 -143h-42q0 22 1.5 50t5 56.5t7.5 55t9 46.5h516v-65l-492 -570h264zM333 819q0 32 23 49t68 17t67 -17t22 -49q0 -31 -22 -48t-67 -17t-68 17t-23 48z" />
    <glyph glyph-name="zdotaccent" unicode="&#x17c;" horiz-adv-x="468" 
d="M122 183v1l191 199q-39 -1 -84.5 3.5t-93.5 12.5l-46 -72l-34 6l14 141q6 39 57 39q20 0 50 -3.5t67.5 -8.5t81 -9.5t90.5 -7.5l26 28q14 -1 29 -13.5t17 -29.5l-322 -336q51 -11 99 -27.5t90 -39.5l67 66l33 -14l-44 -141q-5 -15 -19.5 -25t-34.5 -10q-21 0 -50.5 13
t-66.5 29.5t-79 32.5t-88 22l-47 -48q-8 0 -16 4t-15 10t-11.5 14t-3.5 17zM216 667q0 34 23 53t58 19q38 0 60.5 -19t22.5 -53q0 -32 -22.5 -51t-60.5 -19q-35 0 -58 19t-23 51z" />
    <glyph glyph-name="Zcaron" unicode="&#x17d;" horiz-adv-x="631" 
d="M539 211h41q0 -21 -2 -48t-5 -55t-7.5 -56t-9.5 -52h-551v65l491 570h-230l-89 -143h-42q0 22 1.5 50t5 56.5t7.5 55t9 46.5h516v-65l-492 -570h264zM571 902q8 0 19.5 -10.5t14.5 -20.5l-167 -112q-5 -3 -13.5 -5t-18.5 -1q-8 0 -16.5 1.5t-13.5 4.5l-85 109
q3 11 13.5 22.5t20.5 11.5l99 -55z" />
    <glyph glyph-name="zcaron" unicode="&#x17e;" horiz-adv-x="468" 
d="M122 183v1l191 199q-39 -1 -84.5 3.5t-93.5 12.5l-46 -72l-34 6l14 141q6 39 57 39q20 0 50 -3.5t67.5 -8.5t81 -9.5t90.5 -7.5l26 28q14 -1 29 -13.5t17 -29.5l-322 -336q51 -11 99 -27.5t90 -39.5l67 66l33 -14l-44 -141q-5 -15 -19.5 -25t-34.5 -10q-21 0 -50.5 13
t-66.5 29.5t-79 32.5t-88 22l-47 -48q-8 0 -16 4t-15 10t-11.5 14t-3.5 17zM438 792q10 0 25 -9.5t17 -15.5l-173 -181q-4 -3 -11.5 -4t-15.5 -1q-15 0 -25 5l-81 180q1 3 7 7.5t13.5 8.5t15 7t12.5 3l80 -93z" />
    <glyph glyph-name="longs" unicode="&#x17f;" horiz-adv-x="316" 
d="M113 437h-71v39q20 11 42.5 19.5t42.5 13.5l7 35q13 62 35.5 102.5t52.5 64t68 32.5t82 9q32 0 65 -5.5t53 -16.5q2 -14 -1.5 -30.5t-11 -31.5t-17.5 -27t-22 -18l-72 76q-14 -3 -27.5 -9.5t-25.5 -21.5t-23.5 -43t-20.5 -75l-84 -507q-10 -71 -41 -118t-68.5 -75.5
t-75.5 -42.5t-62 -19l-11 34q12 6 30 19.5t36 37.5t33.5 59.5t23.5 85.5z" />
    <glyph glyph-name="florin" unicode="&#x192;" 
d="M200 437h-70v39q20 11 42.5 19.5t42.5 13.5l7 35q13 62 35.5 102.5t52.5 64t67.5 32.5t81.5 9q32 0 65 -5.5t54 -16.5q2 -14 -1.5 -30.5t-11 -31.5t-18 -27t-22.5 -18l-71 76q-14 -3 -27.5 -9t-25.5 -21.5t-23 -43.5t-21 -75l-10 -50h111q2 -11 -0.5 -30.5t-12.5 -32.5
h-111l-56 -394q-11 -71 -42 -118t-68.5 -75.5t-75 -42.5t-61.5 -19l-11 32q12 6 30 20t36 38t33.5 60t23.5 86z" />
    <glyph glyph-name="uni01F4" unicode="&#x1f4;" horiz-adv-x="709" 
d="M603 44q-25 -13 -56.5 -23.5t-64 -17.5t-62.5 -11t-52 -4q-68 0 -125 17t-98 52t-63.5 88t-22.5 125q0 99 29.5 180t85 139.5t136.5 90.5t183 32q33 0 65.5 -2.5t62 -7t53.5 -11t39 -14.5q-3 -15 -10 -38.5t-16 -50.5t-19 -54t-20 -49h-41l-23 152q-14 5 -39.5 7.5
t-47.5 2.5q-67 0 -117.5 -32.5t-84 -87.5t-50 -127t-16.5 -151q0 -52 12 -89t32.5 -61t48 -35t59.5 -11q29 0 60.5 8t49.5 19l40 188q-25 2 -47 10t-39 19l8 38h273l-8 -38q-11 -9 -27.5 -16.5t-40.5 -12.5zM559 898q16 1 36.5 -2t40 -8.5t35 -12.5t21.5 -14v-20l-247 -96
l-28 24z" />
    <glyph glyph-name="uni01F5" unicode="&#x1f5;" horiz-adv-x="520" 
d="M294 512q57 0 93.5 -13t53.5 -27q10 9 27 18.5t36.5 18t39 15.5t35.5 12q5 -9 6.5 -24t0 -30.5t-6.5 -29.5t-13 -23l-99 11q5 -8 8.5 -21t3.5 -29q0 -36 -17 -68.5t-49.5 -56.5t-78 -38.5t-102.5 -14.5q-17 0 -27.5 0.5t-23.5 3.5q-5 -4 -11.5 -8.5t-13 -9.5t-11 -11.5
t-4.5 -14.5q0 -15 25 -23t62 -14t81 -14t81 -23t62 -40.5t25 -67.5q0 -46 -29.5 -83t-77 -63.5t-107 -41t-120.5 -14.5q-50 0 -88 9.5t-63.5 26t-38 37.5t-12.5 44q0 52 45 87.5t114 58.5q-26 11 -41.5 26.5t-15.5 39.5q0 15 9 31t23 31t31 27.5t34 20.5q-15 3 -31.5 12
t-30 22.5t-22.5 32t-9 39.5q0 39 17 72t49 56.5t77.5 37t103.5 13.5zM190 -155q27 0 52.5 6.5t45.5 19t32.5 31.5t12.5 45q0 24 -19.5 38.5t-49.5 24t-65.5 15.5t-67.5 14q-28 -21 -42 -50t-14 -58q0 -40 31 -63t84 -23zM282 457q-24 0 -42 -10t-30 -27t-18 -40t-6 -49
q0 -35 17.5 -49.5t37.5 -14.5q24 0 42 10t30 26.5t18 38.5t6 47q0 30 -14 49t-41 19zM380 763q8 2 26.5 1.5t38.5 -3.5t36.5 -8.5t21.5 -11.5v-24l-201 -155l-40 22z" />
    <glyph glyph-name="Scommaaccent" unicode="&#x218;" horiz-adv-x="556" 
d="M140 83q10 -10 36 -20t55 -10q31 0 58 5.5t46.5 17.5t30.5 31.5t11 47.5q0 36 -19 61.5t-47 46.5t-61.5 41.5t-61.5 46.5t-47 61t-19 86q0 53 21 93t58 67t88 40.5t112 13.5t111.5 -8.5t88.5 -26.5q-5 -20 -13 -46t-17.5 -51.5t-19 -48t-16.5 -37.5h-41l-17 137
q-14 8 -37.5 12t-48.5 4q-26 0 -48.5 -5.5t-39 -17t-26.5 -29.5t-10 -43q0 -35 19.5 -61t48 -47.5t62.5 -43t62.5 -48t48 -61.5t19.5 -84q0 -106 -78.5 -162.5t-224.5 -56.5q-32 0 -64.5 4t-61.5 11t-51 15t-32 17q6 24 15 50.5t19 53t20.5 50t19.5 41.5h41zM99 -242
q80 17 91 66q-9 15 -24.5 25.5t-34.5 15.5q-1 15 6.5 31t20.5 29.5t29 22.5t31 10q44 -3 72.5 -24.5t27.5 -62.5q0 -30 -15.5 -56.5t-43 -47.5t-65.5 -35t-84 -18z" />
    <glyph glyph-name="scommaaccent" unicode="&#x219;" horiz-adv-x="432" 
d="M229 110q0 22 -12 39.5t-30 34.5t-39.5 33.5t-39.5 37.5t-30 46.5t-12 59.5q0 76 54.5 113.5t148.5 37.5q16 0 35.5 -1.5t39.5 -5.5t38.5 -9.5t33.5 -14.5q1 -11 -1.5 -28.5t-9 -35t-17 -32t-25.5 -19.5l-80 89q-32 0 -53.5 -13t-21.5 -46q0 -22 12.5 -40t30.5 -34.5
t40 -33.5t40 -37.5t30.5 -46.5t12.5 -60q0 -38 -17 -67t-46.5 -49t-70.5 -30t-89 -10q-51 0 -91.5 11.5t-60.5 25.5q-1 32 11.5 63t36.5 48l97 -91q33 0 59 16t26 49zM35 -239q38 8 60 25.5t27 40.5q-8 14 -23 24t-35 15q-1 15 6.5 31t19.5 29t27.5 22t30.5 10q38 -2 61 -21
t22 -60q0 -29 -13.5 -55.5t-38 -48t-59 -35.5t-76.5 -18z" />
    <glyph glyph-name="Tcommaaccent" unicode="&#x21a;" horiz-adv-x="662" 
d="M461 0h-344l8 38q22 9 49 17t54 12l121 568h-116l-101 -171h-41q0 20 2.5 51t6 64t8.5 65.5t11 55.5h637q-5 -24 -13.5 -56t-18.5 -65t-20.5 -63.5t-19.5 -51.5h-42l-27 171h-116l-121 -568q25 -5 49 -12t42 -17zM156 -242q80 17 91 66q-9 15 -24.5 25.5t-34.5 15.5
q-1 15 6.5 31t20.5 29.5t29 22.5t31 10q44 -3 72.5 -24.5t27.5 -62.5q0 -30 -15.5 -56.5t-43 -47.5t-65.5 -35t-84 -18z" />
    <glyph glyph-name="tcommaaccent" unicode="&#x21b;" horiz-adv-x="367" 
d="M45 476q19 12 42 20.5t45 13.5l16 76q7 6 22 11.5t33 10t36.5 8.5t33.5 6l21 -12l-24 -110h117q2 -12 -1.5 -31.5t-11.5 -31.5h-117l-58 -259q-4 -19 -6 -33.5t-2 -26.5q0 -26 13 -38t35 -12q25 0 47 6t42 17l13 -26q-12 -13 -32 -26.5t-45 -25t-54 -18.5t-59 -7
q-52 0 -78 24t-26 66q0 23 4 49t8 44l58 266h-72v39zM34 -239q38 8 60 25.5t27 40.5q-8 14 -23 24t-35 15q-1 15 6.5 31t19.5 29t27.5 22t30.5 10q38 -2 61 -21t22 -60q0 -29 -13.5 -55.5t-38 -48t-59 -35.5t-76.5 -18z" />
    <glyph glyph-name="uni0237" unicode="&#x237;" horiz-adv-x="299" 
d="M119 429l-59 13v34q15 7 38 13.5t49.5 11.5t53.5 8t51 3l20 -12l-92 -457q-15 -71 -45 -118t-65 -76t-71 -43t-64 -18l-16 31q12 6 28 19t32 37t31.5 60.5t26.5 88.5z" />
    <glyph glyph-name="afii57929" unicode="&#x2bc;" horiz-adv-x="308" 
d="M121 457q37 11 62 37t30 53q-8 16 -26.5 25.5t-35.5 15.5q-1 18 7 36.5t21 34t28 26.5t29 14q35 -2 61.5 -22t26.5 -63q0 -36 -17.5 -69t-45 -60t-61 -45.5t-65.5 -25.5z" />
    <glyph glyph-name="circumflex" unicode="&#x2c6;" horiz-adv-x="450" 
d="M221 577l-42 25l160 186q3 3 10.5 4.5t15.5 1.5q17 0 26 -6l64 -185l-41 -26l-75 98z" />
    <glyph glyph-name="caron" unicode="&#x2c7;" horiz-adv-x="390" 
d="M447 792q10 0 25 -9.5t17 -15.5l-173 -181q-4 -3 -11.5 -4t-15.5 -1q-15 0 -25 5l-81 180q1 3 7 7.5t13.5 8.5t15 7t12.5 3l80 -93z" />
    <glyph glyph-name="breve" unicode="&#x2d8;" horiz-adv-x="510" 
d="M525 724q-11 -29 -29.5 -54.5t-42 -44.5t-50.5 -30t-55 -11q-59 0 -94 39.5t-37 102.5l37 22q16 -26 40.5 -43t56.5 -18q18 0 37.5 3t38 10t35.5 18t30 26z" />
    <glyph glyph-name="dotaccent" unicode="&#x2d9;" horiz-adv-x="321" 
d="M191 667q0 34 23 53t58 19q38 0 60.5 -19t22.5 -53q0 -32 -22.5 -51t-60.5 -19q-35 0 -58 19t-23 51z" />
    <glyph glyph-name="ring" unicode="&#x2da;" horiz-adv-x="472" 
d="M218 664q0 48 36 82t101 34q44 0 68.5 -23t24.5 -58q0 -23 -9 -44t-26 -37t-41.5 -25t-55.5 -9q-47 0 -72.5 21.5t-25.5 58.5zM293 666q0 -15 8.5 -23.5t21.5 -8.5q18 0 34 16.5t16 45.5q0 34 -28 34q-25 0 -38.5 -19t-13.5 -45z" />
    <glyph glyph-name="ogonek" unicode="&#x2db;" horiz-adv-x="433" 
d="M303 28q-19 -9 -40.5 -24t-40 -34t-30.5 -41.5t-12 -47.5q0 -23 12.5 -36.5t36.5 -13.5q17 0 44 9v-41q-8 -6 -19 -10.5t-24 -7.5t-25 -5t-21 -2q-69 0 -98.5 27t-29.5 65q0 30 15.5 54t43.5 43.5t66 35.5t83 29h39z" />
    <glyph glyph-name="tilde" unicode="&#x2dc;" horiz-adv-x="437" 
d="M437 667q-30 -34 -62 -49.5t-55 -15.5q-18 0 -34 5.5t-31 11.5t-29.5 11.5t-29.5 5.5q-13 0 -26.5 -4.5t-29.5 -15.5l-28 42q37 38 70.5 53t56.5 15q18 0 33.5 -5t29.5 -11t28.5 -11t29.5 -5q13 0 26 2.5t29 12.5z" />
    <glyph glyph-name="hungarumlaut" unicode="&#x2dd;" horiz-adv-x="645" 
d="M317 768q6 2 23 1t35.5 -4t34 -7.5t18.5 -10.5v-24l-138 -138l-41 20zM513 768q7 2 23 1t34 -5t33.5 -10t21.5 -14v-22l-208 -133l-37 22z" />
    <glyph glyph-name="acutecomb" unicode="&#x301;" horiz-adv-x="2" 
d="M-113 763q8 2 26.5 1.5t38.5 -3.5t36.5 -8.5t21.5 -11.5v-24l-201 -155l-40 22z" />
    <glyph glyph-name="uni0394" unicode="&#x394;" horiz-adv-x="657" 
d="M-19 0v45l293 655h42l287 -655v-45h-622zM261 507l-191 -432h369z" />
    <glyph glyph-name="uni0394" unicode="&#x2206;" horiz-adv-x="657" 
d="M-19 0v45l293 655h42l287 -655v-45h-622zM261 507l-191 -432h369z" />
    <glyph glyph-name="uni03A9" unicode="&#x3a9;" horiz-adv-x="797" 
d="M30 0q0 18 1.5 48t4.5 63t6.5 65t7.5 54h34l44 -118h168q-44 16 -86 42t-75 62t-53 83t-20 106q0 72 25 129t70.5 96.5t109 60.5t139.5 21q78 0 139.5 -20.5t104 -59t65.5 -94.5t23 -128q0 -62 -21.5 -111.5t-55 -86t-74 -61.5t-77.5 -39h158l45 118h34q4 -23 8 -55.5
t6.5 -65.5t4 -62.5t1.5 -46.5h-318v119q21 10 43 35t40 61t29.5 81.5t11.5 97.5q0 117 -42.5 185t-124.5 68q-49 0 -83 -17.5t-55.5 -49t-31 -76t-9.5 -99.5q0 -54 13 -101t32.5 -84.5t42.5 -63.5t43 -37v-119h-328z" />
    <glyph glyph-name="uni03A9" unicode="&#x2126;" horiz-adv-x="797" 
d="M30 0q0 18 1.5 48t4.5 63t6.5 65t7.5 54h34l44 -118h168q-44 16 -86 42t-75 62t-53 83t-20 106q0 72 25 129t70.5 96.5t109 60.5t139.5 21q78 0 139.5 -20.5t104 -59t65.5 -94.5t23 -128q0 -62 -21.5 -111.5t-55 -86t-74 -61.5t-77.5 -39h158l45 118h34q4 -23 8 -55.5
t6.5 -65.5t4 -62.5t1.5 -46.5h-318v119q21 10 43 35t40 61t29.5 81.5t11.5 97.5q0 117 -42.5 185t-124.5 68q-49 0 -83 -17.5t-55.5 -49t-31 -76t-9.5 -99.5q0 -54 13 -101t32.5 -84.5t42.5 -63.5t43 -37v-119h-328z" />
    <glyph glyph-name="pi" unicode="&#x3c0;" horiz-adv-x="678" 
d="M573 64l-7 -35q-16 -6 -38.5 -12.5t-48 -11.5t-52 -9t-51.5 -5h-34l89 419h-146l-26 -123q-20 -95 -46.5 -168t-54.5 -119q-8 -4 -22 -5t-30 -1q-14 0 -27 0.5t-23.5 1.5t-17 2t-6.5 2l-4 9q29 31 59 79.5t56 104t46 112.5t30 105h-17q-28 0 -53 -14.5t-54 -44.5l-20 8
q14 36 29 63.5t36 46.5t49.5 28.5t68.5 8.5q11 0 43 -1t75 -2t90.5 -2t88.5 -1q32 0 53 0.5t35 3.5t24.5 8t22.5 14l16 -9q-12 -50 -41 -78.5t-72 -28.5h-12l-72 -338z" />
    <glyph glyph-name="afii10023" unicode="&#x401;" horiz-adv-x="602" 
d="M650 700q-10 -45 -25 -93t-33 -90h-42l-21 118h-187l-52 -245h123l60 77h31q-5 -49 -17.5 -109t-28.5 -112h-32l-27 79h-123l-54 -260h194l80 127h42q0 -18 -1.5 -42t-4 -50t-6.5 -52t-9 -48h-541l7 38q20 9 42.5 17t46.5 12l120 566q-20 4 -40 11.5t-36 17.5l8 38h526z
M211 793q0 32 23 48t58 16t58 -16t23 -48q0 -28 -23 -43.5t-58 -15.5t-58 15.5t-23 43.5zM456 793q0 32 23.5 48t58.5 16t58 -16t23 -48q0 -28 -23 -43.5t-58 -15.5t-58.5 15.5t-23.5 43.5z" />
    <glyph glyph-name="afii10051" unicode="&#x402;" horiz-adv-x="801" 
d="M786 279q0 -75 -26 -129.5t-69 -89t-98 -50t-113 -13.5l3 45q74 17 113.5 76t39.5 150q0 21 -3.5 38.5t-13 29.5t-26 18.5t-42.5 6.5q-33 0 -64 -9.5t-59 -24.5l-55 -260q15 -5 28.5 -13t24.5 -16l-7 -38h-307l7 38q22 9 49 17t55 12l120 568h-116l-100 -171h-42
q1 20 4 51t6.5 64t8 65.5t9.5 55.5h637q-5 -25 -12.5 -52.5t-16 -54.5t-18 -52.5t-18.5 -46.5h-42l-34 141h-116l-53 -248q38 20 83.5 32t101.5 12q81 0 121 -40t40 -112z" />
    <glyph glyph-name="afii10052" unicode="&#x403;" horiz-adv-x="537" 
d="M222 67q23 -4 46 -12t43 -17l-7 -38h-328l7 38q46 22 89 29l120 566q-20 4 -39.5 11t-36.5 18l8 38h512q-4 -24 -11.5 -55t-16.5 -64t-19.5 -64.5t-21.5 -56.5h-41l-25 175h-159zM482 898q16 1 36.5 -2t40 -8.5t35 -12.5t21.5 -14v-20l-247 -96l-28 24z" />
    <glyph glyph-name="afii10053" unicode="&#x404;" horiz-adv-x="657" 
d="M561 210h42q0 -16 -1 -38.5t-4 -48t-7 -50.5t-9 -45q-21 -11 -46.5 -18.5t-51.5 -12.5t-50 -7t-42 -2q-92 0 -155 25t-103 65t-57.5 90t-17.5 101q0 99 29 180.5t84.5 140t136 90.5t182.5 32q66 0 118.5 -9.5t85.5 -25.5q-3 -16 -10 -41t-16 -52.5t-19 -54t-19 -44.5h-42
l-23 151q-9 5 -30 8t-42 3q-47 0 -88 -18t-74 -52.5t-56 -83.5t-35 -112l266 16q4 -23 -2.5 -53.5t-14.5 -50.5q-57 8 -126.5 13t-132.5 7q-1 -14 -1.5 -28.5t-0.5 -29.5q0 -56 16 -94.5t41.5 -62.5t56 -34.5t59.5 -10.5t50 5.5t31 11.5z" />
    <glyph glyph-name="afii10054" unicode="&#x405;" horiz-adv-x="556" 
d="M140 83q10 -10 36 -20t55 -10q31 0 58 5.5t46.5 17.5t30.5 31.5t11 47.5q0 36 -19 61.5t-47 46.5t-61.5 41.5t-61.5 46.5t-47 61t-19 86q0 53 21 93t58 67t88 40.5t112 13.5t111.5 -8.5t88.5 -26.5q-5 -20 -13 -46t-17.5 -51.5t-19 -48t-16.5 -37.5h-41l-17 137
q-14 8 -37.5 12t-48.5 4q-26 0 -48.5 -5.5t-39 -17t-26.5 -29.5t-10 -43q0 -35 19.5 -61t48 -47.5t62.5 -43t62.5 -48t48 -61.5t19.5 -84q0 -106 -78.5 -162.5t-224.5 -56.5q-32 0 -64.5 4t-61.5 11t-51 15t-32 17q6 24 15 50.5t19 53t20.5 50t19.5 41.5h41z" />
    <glyph glyph-name="afii10055" unicode="&#x406;" horiz-adv-x="369" 
d="M298 0h-312l7 38q47 22 88 29l120 566q-20 3 -39.5 10.5t-35.5 18.5l8 38h312l-8 -38q-20 -11 -43.5 -18.5t-43.5 -10.5l-120 -566q19 -4 39 -11t35 -18z" />
    <glyph glyph-name="afii10056" unicode="&#x407;" horiz-adv-x="369" 
d="M298 0h-312l7 38q47 22 88 29l120 566q-20 3 -39.5 11t-35.5 18l8 38h312l-8 -38q-20 -11 -43.5 -18.5t-43.5 -10.5l-120 -566q19 -4 39 -11t35 -18zM134 793q0 32 19.5 48t53.5 16q33 0 53.5 -16t20.5 -48q0 -28 -20.5 -43.5t-53.5 -15.5q-34 0 -53.5 15.5t-19.5 43.5z
M339 793q0 32 20.5 48t53.5 16q34 0 53.5 -16t19.5 -48q0 -28 -19.5 -43.5t-53.5 -15.5q-33 0 -53.5 15.5t-20.5 43.5z" />
    <glyph glyph-name="afii10057" unicode="&#x408;" horiz-adv-x="361" 
d="M129 700h309l-8 -38q-17 -11 -40.5 -18.5t-43.5 -10.5l-108 -512q-17 -82 -52.5 -134.5t-76 -83.5t-79 -45t-61.5 -18l-12 26q19 13 36.5 32t34 47.5t31.5 69.5t28 100l109 518q-21 4 -41 11.5t-34 17.5z" />
    <glyph glyph-name="afii10058" unicode="&#x409;" horiz-adv-x="963" 
d="M326 0l7 38q20 10 41 17.5t42 11.5l120 568h-163q-36 -152 -68 -253.5t-61.5 -167.5t-57.5 -104.5t-55 -66.5q-25 -26 -57 -40.5t-59 -14.5q-9 4 -16.5 15t-13 25.5t-9 31.5t-4.5 34v16.5t1 16.5l35 38l114 -29q19 28 40 67.5t43 97.5t44.5 137t45.5 185q-30 5 -55.5 16
t-42.5 23l8 38h583l-8 -38q-21 -10 -45 -17.5t-49 -11.5l-46 -214q19 3 44.5 5t45.5 2q103 0 160.5 -42.5t57.5 -119.5q0 -76 -31 -127t-79.5 -82t-108 -44.5t-116.5 -13.5q-5 0 -20.5 0.5t-35.5 1t-41 1t-36 0.5h-154zM680 361q-32 0 -53 -6l-61 -289q3 -1 10 -2t14.5 -1.5
t15 -0.5h11.5q34 0 64.5 14t53 40t35.5 64.5t13 86.5q0 45 -22 69.5t-81 24.5z" />
    <glyph glyph-name="afii10059" unicode="&#x40a;" horiz-adv-x="1033" 
d="M402 0l8 38q20 11 37.5 18t39.5 11l58 272h-265l-58 -272q35 -7 65 -29l-8 -38h-303l8 38q20 10 43.5 17.5t44.5 11.5l120 566q-23 4 -43 12t-33 17l8 38h303l-8 -38q-17 -10 -37 -18t-40 -11l-48 -229h265l48 229q-20 4 -33.5 10.5t-31.5 18.5l8 38h309l-8 -38
q-20 -10 -44 -17.5t-50 -11.5l-48 -230q19 3 44 5t45 2q103 0 161.5 -41t58.5 -117q0 -74 -30.5 -123.5t-79 -78.5t-108 -41t-116.5 -12q-5 0 -20.5 0.5t-35.5 1t-41 1t-36 0.5h-149zM749 345q-33 0 -54 -6l-58 -273q7 -2 25 -3t27 -1q34 0 63.5 12t52 36t35.5 60t13 84
q0 40 -22.5 65.5t-81.5 25.5z" />
    <glyph glyph-name="afii10060" unicode="&#x40b;" horiz-adv-x="838" 
d="M494 635l-53 -250q31 17 78.5 31t103.5 14q32 0 59.5 -8t47.5 -24.5t32 -42t13 -61.5q2 -34 -7 -74l-32 -153q17 -3 34.5 -11t30.5 -18l-7 -38h-222l43 207q6 30 8.5 57.5t-3.5 48.5t-23 34t-50 13t-62 -9.5t-57 -25.5l-55 -258q15 -5 30 -13t26 -16l-8 -38h-309l8 38
q22 8 49 16.5t54 12.5l120 568h-115l-101 -171h-41q0 20 2.5 51t6.5 64t9 65.5t10 55.5h637q-5 -24 -12.5 -51t-16.5 -54t-18 -52.5t-18 -46.5h-42l-34 139h-116z" />
    <glyph glyph-name="afii10061" unicode="&#x40c;" horiz-adv-x="705" 
d="M499 700h272l-8 -38q-18 -11 -41.5 -18.5t-43.5 -10.5l-242 -243q16 -33 39 -73t48.5 -83t53 -87t54.5 -84l42 -29l-7 -34h-168l-35 28q-18 30 -37 66.5t-37 76t-34.5 79.5t-29.5 78h-48l-55 -261q20 -5 36.5 -13t27.5 -16l-7 -38h-303l7 38q22 11 44.5 18t44.5 11
l120 566q-23 3 -43 11t-33 18l8 38h303l-8 -38q-14 -8 -34.5 -16t-42.5 -13l-54 -254l59 14l211 240q-20 5 -37.5 12.5t-29.5 16.5zM524 898q16 1 36.5 -2t40 -8.5t35 -12.5t21.5 -14v-20l-247 -96l-28 24z" />
    <glyph glyph-name="afii10062" unicode="&#x40e;" horiz-adv-x="679" 
d="M608 633q-23 5 -40 12.5t-31 16.5l8 38h242l-8 -38q-13 -8 -32.5 -16t-44.5 -13l-282 -447q-69 -103 -132.5 -153.5t-124.5 -37.5q-11 9 -18.5 26.5t-11.5 37.5t-4.5 39.5t1.5 31.5l35 30l130 -37q11 9 21 22t20 29l-178 459q-18 5 -34.5 12t-28.5 17l8 38h311l-8 -38
q-16 -9 -37.5 -16.5t-44.5 -12.5l93 -271l7 -64h2l34 66zM483 741q-42 0 -73.5 10.5t-51.5 27t-29.5 36t-9.5 38.5q8 8 22 14.5t30.5 11.5t33.5 8t31 3l34 -13v-60q10 -5 19.5 -8.5t25.5 -3.5q21 0 43 4.5t41.5 14.5t35 24t23.5 34q12 -1 25.5 -7t19.5 -14q-8 -20 -24.5 -41
t-43.5 -38.5t-64.5 -29t-87.5 -11.5z" />
    <glyph glyph-name="afii10145" unicode="&#x40f;" horiz-adv-x="755" 
d="M542 700h300l-8 -38q-17 -9 -38.5 -17t-49.5 -12l-120 -566q20 -4 39.5 -11t36.5 -18l-8 -38h-285q-14 -42 -39.5 -97t-54.5 -103h-44q-6 50 -9.5 101t0.5 99h-286l8 38q20 12 43 18.5t45 10.5l120 566q-19 2 -38 9t-38 20l8 38h300l-8 -38q-11 -8 -29.5 -16t-44.5 -13
l-120 -568h254l120 568q-19 5 -33.5 12t-28.5 17z" />
    <glyph glyph-name="afii10017" unicode="&#x410;" horiz-adv-x="724" 
d="M205 0h-249l7 38q18 10 38 17.5t40 11.5l396 645h73l113 -645q19 -4 37.5 -12t31.5 -17l-8 -38h-308l7 38q21 10 44.5 17.5t44.5 11.5l-24 159h-221l-95 -159q21 -3 42 -10.5t38 -18.5zM261 291h179l-28 191v86h-2l-38 -88z" />
    <glyph glyph-name="afii10018" unicode="&#x411;" horiz-adv-x="636" 
d="M192 633q-46 8 -76 29l8 38h537q-5 -24 -12.5 -51.5t-16.5 -55.5t-18.5 -54t-18.5 -47h-41l-32 143h-180l-48 -228q24 4 52 5.5t48 1.5q101 0 158.5 -37.5t57.5 -119.5q0 -62 -25 -110.5t-69.5 -81.5t-105.5 -50.5t-134 -17.5q-5 0 -25 0.5t-44.5 1t-49.5 1t-40 0.5h-141
l7 38q42 21 89 29zM343 349q-16 0 -33 -1.5t-30 -4.5l-58 -277q4 -1 11.5 -2t16.5 -1.5t17 -0.5h13q39 0 70 15.5t52 41.5t32 61t11 73q0 46 -21 71t-81 25z" />
    <glyph glyph-name="afii10019" unicode="&#x412;" horiz-adv-x="644" 
d="M-24 -1l7 38q22 11 45 19t44 10l120 566q-20 4 -40 11.5t-36 17.5l8 38h159q38 0 73.5 3t79.5 3q48 0 88 -7.5t68.5 -23t44.5 -41t16 -61.5q0 -42 -14.5 -75t-40 -58t-60.5 -41t-76 -24v-4q27 -2 54 -10t48.5 -24t35 -40.5t13.5 -58.5q0 -54 -21.5 -98.5t-63.5 -77
t-105 -50.5t-146 -18q-21 0 -45.5 1t-49.5 2t-48 2t-39 1h-119zM290 58q37 0 68 13t53 36.5t34.5 55t12.5 68.5q0 55 -35.5 73t-99.5 18h-53l-54 -257q13 -3 28 -5t46 -2zM316 387q17 0 34.5 1.5t32.5 3.5q60 23 90 66t30 100q0 39 -23 60.5t-75 21.5q-21 0 -37.5 -1
t-30.5 -3l-53 -249h32z" />
    <glyph glyph-name="afii10020" unicode="&#x413;" horiz-adv-x="537" 
d="M222 67q23 -4 46 -12t43 -17l-7 -38h-328l7 38q46 22 89 29l120 566q-20 4 -39.5 11t-36.5 18l8 38h512q-4 -24 -11.5 -55t-16.5 -64t-19.5 -64.5t-21.5 -56.5h-41l-25 175h-159z" />
    <glyph glyph-name="afii10021" unicode="&#x414;" horiz-adv-x="723" 
d="M690 65q-5 -23 -13 -52.5t-18 -60.5t-21.5 -61t-22.5 -54h-39l-15 163h-478l-93 -163h-38q-1 25 1 56t5 62.5t7 60.5t8 49h87q38 42 74.5 104t68.5 135.5t58 155t43 163.5q-25 5 -52.5 15t-45.5 24l8 38h574l-8 -38q-16 -10 -39 -17t-49 -12l-120 -568h118zM422 65
l120 570h-159q-30 -116 -61 -207.5t-61.5 -161.5t-60 -119.5t-56.5 -81.5h278z" />
    <glyph glyph-name="afii10022" unicode="&#x415;" horiz-adv-x="602" 
d="M650 700q-10 -45 -25 -93t-33 -90h-42l-21 118h-187l-52 -245h123l60 77h31q-5 -49 -17.5 -109t-28.5 -112h-32l-27 79h-123l-54 -260h194l80 127h42q0 -18 -1.5 -42t-4 -50t-6.5 -52t-9 -48h-541l7 38q20 9 42.5 17t46.5 12l120 566q-20 4 -40 11.5t-36 17.5l8 38h526z
" />
    <glyph glyph-name="afii10024" unicode="&#x416;" horiz-adv-x="1021" 
d="M531 633q-19 6 -33.5 13.5t-24.5 15.5l8 38h259l-8 -38q-23 -16 -64 -29l-55 -256l66 16l194 240q-18 5 -34 12.5t-30 16.5l8 38h269l-8 -38q-16 -9 -36.5 -16.5t-41.5 -12.5l-238 -252q18 -33 38.5 -72.5t43.5 -82t48.5 -85.5t53.5 -83l37 -24l-7 -34h-162l-36 34
q-44 69 -69 143t-50 152h-57l-54 -262q31 -10 57 -29l-8 -38h-269l7 38q17 9 35.5 16.5t40.5 12.5l57 271l-66 -16q-48 -73 -98 -147.5t-113 -140.5l-50 -34h-178l7 34l46 24q45 40 86.5 83.5t79 86.5t71.5 82.5t63 71.5l-119 251q-19 5 -34.5 13t-26.5 16l8 38h257l-8 -38
q-14 -9 -35 -16.5t-42 -12.5l92 -247h70z" />
    <glyph glyph-name="afii10025" unicode="&#x417;" horiz-adv-x="585" 
d="M211 -12q-67 0 -121.5 14.5t-83.5 34.5q4 16 11.5 37.5t16.5 44.5t19.5 46t21.5 42h41l11 -138q11 -7 34.5 -11.5t44.5 -4.5q85 0 133 49t48 131q0 91 -108 91l-79 -13q-2 18 2.5 41.5t14.5 42.5l31 -1q17 -1 40 0t40 3q49 21 80 64.5t31 94.5q0 45 -22 68t-75 23
q-46 -2 -74 -19l-76 -127h-42q-1 35 0.5 78t11.5 90q24 13 51 21t54.5 13t53.5 7t47 2q48 0 89.5 -8t72 -25t47.5 -45t17 -68q0 -26 -8.5 -54t-28.5 -54.5t-53.5 -48.5t-83.5 -35v-4q22 -2 44.5 -11t41 -25.5t30 -41t11.5 -58.5q0 -57 -23.5 -102.5t-67.5 -77.5t-106 -49
t-139 -17z" />
    <glyph glyph-name="afii10026" unicode="&#x418;" horiz-adv-x="776" 
d="M277 0h-301l7 38q22 10 44.5 18t44.5 11l120 566q-20 4 -40 11t-36 18l8 38h301l-8 -38q-17 -9 -37 -16.5t-43 -12.5l-81 -380l-27 -78l63 83l330 351l5 24q-22 5 -40.5 12t-32.5 17l8 38h301l-8 -38q-19 -11 -42 -18t-46 -11l-120 -566q22 -4 41 -11.5t35 -17.5l-8 -38
h-301l7 38q15 7 36.5 15.5t44.5 13.5l81 379l28 79l-59 -80l-336 -356l-4 -22q22 -5 40.5 -13t32.5 -16z" />
    <glyph glyph-name="afii10027" unicode="&#x419;" horiz-adv-x="776" 
d="M277 0h-301l7 38q22 10 44.5 18t44.5 11l120 566q-20 4 -40 11t-36 18l8 38h301l-8 -38q-17 -9 -37 -16.5t-43 -12.5l-81 -380l-27 -78l63 83l330 351l5 24q-22 5 -40.5 12t-32.5 17l8 38h301l-8 -38q-19 -11 -42 -18t-46 -11l-120 -566q22 -4 41 -11.5t35 -17.5l-8 -38
h-301l7 38q15 7 36.5 15.5t44.5 13.5l81 379l28 79l-59 -80l-336 -356l-4 -22q22 -5 40.5 -13t32.5 -16zM490 741q-42 0 -73.5 10.5t-51.5 27t-29.5 36t-9.5 38.5q8 8 22 14.5t30.5 11.5t33.5 8t31 3l34 -13v-60q10 -5 19.5 -8.5t25.5 -3.5q21 0 43 4.5t41.5 14.5t35 24
t23.5 34q12 -1 25.5 -7t19.5 -14q-8 -20 -24.5 -41t-43.5 -38.5t-64.5 -29t-87.5 -11.5z" />
    <glyph glyph-name="afii10028" unicode="&#x41a;" horiz-adv-x="705" 
d="M499 700h272l-8 -38q-18 -11 -41.5 -18.5t-43.5 -10.5l-242 -243q16 -33 39 -73t48.5 -83t53 -87t54.5 -84l42 -29l-7 -34h-168l-35 28q-18 30 -37 66.5t-37 76t-34.5 79.5t-29.5 78h-48l-55 -261q20 -5 36.5 -13t27.5 -16l-7 -38h-303l7 38q22 11 44.5 18t44.5 11
l120 566q-23 3 -43 11t-33 18l8 38h303l-8 -38q-14 -8 -34.5 -16t-42.5 -13l-54 -254l59 14l211 240q-20 5 -37.5 12.5t-29.5 16.5z" />
    <glyph glyph-name="afii10029" unicode="&#x41b;" horiz-adv-x="696" 
d="M296 623q-30 5 -55.5 16t-42.5 23l8 38h577l-8 -38q-17 -9 -40 -17t-48 -12l-120 -566q21 -4 40.5 -12t34.5 -17l-7 -38h-308l7 38q20 9 41 16.5t42 12.5l120 568h-163q-36 -152 -68 -253.5t-61.5 -167.5t-57.5 -105t-55 -67q-25 -26 -57 -40t-59 -14q-12 5 -20.5 20.5
t-14 35.5t-7.5 42t0 41l35 38l114 -29q19 28 40 67.5t43 97.5t44.5 137t45.5 185z" />
    <glyph glyph-name="afii10030" unicode="&#x41c;" horiz-adv-x="926" 
d="M864 0h-299l8 38q22 10 43 17t44 12l88 418l30 117h-8l-55 -107l-299 -495h-45l-89 491l-12 117h-9l-26 -127l-86 -410q18 -4 39.5 -13t38.5 -20l-8 -38h-243l7 38q17 9 43 19.5t49 14.5l118 561q-20 4 -40.5 11t-35.5 18l8 38h271l63 -407l8 -96h1l47 98l246 405h252
l-8 -38q-18 -11 -39.5 -18t-42.5 -11l-120 -567q20 -4 38 -12t31 -16z" />
    <glyph glyph-name="afii10031" unicode="&#x41d;" horiz-adv-x="766" 
d="M279 0h-303l7 38q20 10 43.5 17.5t45.5 11.5l120 566q-23 4 -43 12t-33 17l8 38h303l-8 -38q-15 -11 -36 -18t-41 -11l-52 -242h265l52 242q-43 11 -65 29l8 38h303l-8 -38q-19 -11 -42.5 -18.5t-45.5 -10.5l-120 -566q22 -4 41.5 -12t33.5 -17l-7 -38h-303l7 38
q17 9 37 17t41 12l54 259h-265l-54 -259q34 -7 64 -29z" />
    <glyph glyph-name="afii10032" unicode="&#x41e;" horiz-adv-x="751" 
d="M59 271q0 92 28.5 172.5t82 140t131 94t175.5 34.5q67 0 119 -19.5t88 -56t54.5 -88.5t18.5 -117q0 -82 -25 -161.5t-76 -142t-127.5 -101t-179.5 -38.5q-69 0 -123 21.5t-91 59.5t-56 90t-19 112zM229 252q0 -100 37.5 -149.5t101.5 -49.5q57 0 98 37t68 94.5t39.5 129
t12.5 140.5q0 89 -30.5 141t-100.5 52q-39 0 -70.5 -17.5t-57 -47.5t-44 -69.5t-30.5 -83.5t-18 -89.5t-6 -87.5z" />
    <glyph glyph-name="afii10033" unicode="&#x41f;" horiz-adv-x="755" 
d="M276 0h-300l7 38q17 8 39 16.5t50 12.5l120 566q-20 4 -39.5 11t-36.5 18l8 38h718l-8 -38q-20 -12 -43 -18.5t-45 -10.5l-120 -566q37 -4 75 -29l-7 -38h-300l7 38q12 8 30 16t45 13l120 568h-254l-120 -568q35 -10 61 -29z" />
    <glyph glyph-name="afii10034" unicode="&#x420;" horiz-adv-x="634" 
d="M222 67q26 -4 50.5 -11.5t43.5 -17.5l-7 -38h-333l7 38q44 21 89 29l120 566q-22 4 -41 11.5t-35 17.5l8 38h126q40 0 92.5 4t95.5 4q52 0 96.5 -9t76 -28.5t49.5 -51.5t18 -78q0 -59 -22 -109.5t-64 -87.5t-103 -58.5t-138 -21.5h-16.5t-25 0.5t-26 1t-19.5 1.5z
M401 643q-20 0 -33.5 -2t-24.5 -4l-65 -304q9 -2 27 -3t29 -1q43 0 76 15.5t55.5 44t34.5 67t12 85.5q0 23 -5.5 42t-18 32.5t-34 20.5t-53.5 7z" />
    <glyph glyph-name="afii10035" unicode="&#x421;" horiz-adv-x="652" 
d="M561 210h42q0 -16 -1 -38.5t-4 -48t-7 -50.5t-9 -45q-21 -11 -46.5 -18.5t-51.5 -12.5t-50 -7t-42 -2q-92 0 -155 25t-103 65t-57.5 90t-17.5 101q0 99 29 180.5t84.5 140t136 90.5t182.5 32q66 0 118.5 -9.5t85.5 -25.5q-3 -16 -10 -41t-16 -52.5t-19 -54t-19 -44.5h-42
l-23 151q-9 5 -30 8t-42 3q-58 0 -106.5 -28t-84 -79t-55 -123.5t-19.5 -161.5q0 -56 16 -94.5t41.5 -62.5t56 -34.5t59.5 -10.5t50 5.5t31 11.5z" />
    <glyph glyph-name="afii10036" unicode="&#x422;" horiz-adv-x="662" 
d="M461 0h-344l8 38q22 9 49 17t54 12l121 568h-116l-101 -171h-41q0 20 2.5 51t6 64t8.5 65.5t11 55.5h637q-5 -24 -13.5 -56t-18.5 -65t-20.5 -63.5t-19.5 -51.5h-42l-27 171h-116l-121 -568q25 -5 49 -12t42 -17z" />
    <glyph glyph-name="afii10037" unicode="&#x423;" horiz-adv-x="679" 
d="M608 633q-23 5 -40 12.5t-31 16.5l8 38h242l-8 -38q-13 -8 -32.5 -16t-44.5 -13l-282 -447q-69 -103 -132.5 -153.5t-124.5 -37.5q-11 9 -18.5 26.5t-11.5 37.5t-4.5 39.5t1.5 31.5l35 30l130 -37q11 9 21 22t20 29l-178 459q-18 5 -34.5 12t-28.5 17l8 38h311l-8 -38
q-16 -9 -37.5 -16.5t-44.5 -12.5l93 -271l7 -64h2l34 66z" />
    <glyph glyph-name="afii10038" unicode="&#x424;" horiz-adv-x="841" 
d="M389 699h273l-7 -37q-11 -8 -29.5 -16t-43.5 -13l-9 -42q23 4 50.5 5t43.5 1q52 0 88.5 -15.5t59.5 -41t33.5 -57.5t10.5 -65q0 -64 -20 -119.5t-59 -97t-96 -65t-131 -23.5h-15t-21.5 1l-23 2t-20.5 3l-11 -54q18 -5 33.5 -13t25.5 -16l-7 -37h-273l7 37q15 9 35.5 16.5
t41.5 11.5l11 53q-23 -3 -46 -3.5t-40 -0.5q-42 0 -78.5 12t-63 35.5t-42 57t-15.5 75.5q0 61 19.5 116t58 97t96.5 66.5t135 24.5q13 0 37 -1t41 -2l8 39q-22 6 -39 13.5t-26 15.5zM607 535q-12 0 -23 -1t-25 -4l-75 -354q9 -2 22.5 -2.5t21.5 -0.5q41 0 73 20.5t54.5 55
t34 79t11.5 93.5q0 34 -8 56t-21.5 35t-30 18t-34.5 5zM309 174q23 0 41 5l76 355q-12 2 -22 2h-22q-39 0 -71 -18.5t-55 -51.5t-35.5 -78t-12.5 -97q0 -32 8.5 -54t23 -36t32.5 -20.5t37 -6.5z" />
    <glyph glyph-name="afii10039" unicode="&#x425;" horiz-adv-x="723" 
d="M539 700h248l-8 -38q-16 -10 -34.5 -17t-39.5 -12l-235 -262l140 -304q22 -5 39 -12t31 -17l-7 -38h-323l7 38q18 9 37 16.5t41 12.5l-93 219l-182 -220q20 -5 36.5 -11t31.5 -17l-8 -38h-256l8 38q17 11 35.5 17.5t38.5 11.5l263 286l-126 280q-18 5 -33 12t-29 17l8 38
h316l-8 -38q-14 -8 -33 -15.5t-45 -13.5l77 -200l165 200q-19 5 -37.5 12.5t-32.5 16.5z" />
    <glyph glyph-name="afii10040" unicode="&#x426;" horiz-adv-x="773" 
d="M-24 0l7 38q16 8 38.5 16t50.5 13l120 566q-20 3 -39.5 10.5t-36.5 18.5l8 38h298l-8 -38q-14 -8 -31.5 -15.5t-40.5 -13.5l-120 -568h249l121 568q-17 4 -32.5 12t-28.5 17l8 38h299l-8 -38q-22 -12 -44 -18.5t-44 -10.5l-121 -568h118q-6 -26 -14.5 -56.5t-18.5 -61
t-21 -59.5t-21 -51h-39l-15 163h-634z" />
    <glyph glyph-name="afii10041" unicode="&#x427;" horiz-adv-x="683" 
d="M622 0h-308l7 38q26 11 51 19t48 10l50 236q-32 -17 -82 -31t-110 -14q-40 0 -72.5 12t-52.5 37.5t-26.5 65.5t5.5 96l35 164q-18 3 -36 11t-30 18l8 38h283l-8 -38q-12 -8 -29.5 -16t-37.5 -13l-31 -146q-8 -37 -10 -66.5t5.5 -50t26 -31.5t50.5 -11q33 0 64.5 9.5
t60.5 25.5l57 270q-34 10 -56 29l8 38h278l-8 -38q-14 -9 -33 -17t-39 -12l-120 -566q18 -4 33.5 -12.5t25.5 -16.5z" />
    <glyph glyph-name="afii10042" unicode="&#x428;" horiz-adv-x="1003" 
d="M478 700h259l-8 -38q-11 -8 -27 -16t-33 -13l-121 -568h187l121 568q-30 8 -51 29l8 38h277l-8 -38q-34 -21 -76 -29l-120 -566q18 -5 34 -12.5t29 -16.5l-7 -38h-966l7 38q18 9 39 17t40 12l120 566q-18 4 -36.5 11.5t-29.5 17.5l8 38h276l-8 -38q-10 -7 -25.5 -15.5
t-34.5 -13.5l-121 -568h187l121 568q-15 5 -28 12t-21 17z" />
    <glyph glyph-name="afii10043" unicode="&#x429;" horiz-adv-x="1031" 
d="M-24 0l7 38q17 8 37 16.5t42 12.5l120 566q-18 3 -36.5 11t-29.5 18l8 38h276l-8 -38q-11 -8 -27 -16t-33 -13l-121 -568h187l121 568q-31 11 -49 29l8 38h259l-8 -38q-11 -8 -26.5 -16t-33.5 -13l-121 -568h187l121 568q-15 5 -28 12t-23 17l8 38h283l-8 -38
q-16 -10 -38 -17.5t-44 -11.5l-121 -568h118q-5 -24 -13.5 -54t-18.5 -60.5t-21 -60t-22 -53.5h-39l-15 163h-898z" />
    <glyph glyph-name="afii10044" unicode="&#x42a;" horiz-adv-x="766" 
d="M582 700l-8 -38q-19 -10 -45.5 -17.5t-52.5 -11.5l-46 -214q19 4 47 5.5t48 1.5q49 0 90.5 -9t71.5 -28.5t47 -50t17 -72.5q0 -70 -26 -120.5t-72.5 -83.5t-111 -49t-140.5 -16q-5 0 -21 0.5t-37 1t-42.5 1t-36.5 0.5h-154l7 38q20 10 42.5 17.5t46.5 11.5l120 568h-104
l-90 -171h-41q0 25 2.5 57t6 64.5t8.5 62.5t10 52h464zM475 361q-36 0 -58 -6l-61 -289q4 -1 11.5 -2t15.5 -1.5t16 -0.5h13q80 0 127 54t47 150q0 43 -24 69t-87 26z" />
    <glyph glyph-name="afii10045" unicode="&#x42b;" horiz-adv-x="927" 
d="M866 0h-303l8 38q17 9 37.5 16.5t41.5 12.5l120 566q-18 4 -37 11t-35 18l8 38h308l-8 -38q-36 -21 -86 -29l-120 -566q24 -4 42 -12.5t32 -16.5zM-24 0l7 38q20 10 43.5 18t45.5 11l120 566q-20 4 -40 11t-36 18l8 38h320l-8 -38q-18 -10 -43 -18t-51 -11l-46 -214
q19 4 47 5.5t48 1.5q60 0 100 -13.5t64.5 -36t35 -51.5t10.5 -59q0 -67 -23.5 -117.5t-66.5 -84t-104.5 -50.5t-136.5 -17q-5 0 -21.5 0.5t-38 1t-43.5 1t-37 0.5h-154zM341 361q-36 0 -58 -6l-61 -289q8 -2 25 -3t28 -1q39 0 69 16.5t50.5 45t31 66t10.5 80.5q0 19 -4 35.5
t-14.5 29t-29 19.5t-47.5 7z" />
    <glyph glyph-name="afii10046" unicode="&#x42c;" horiz-adv-x="632" 
d="M-24 0l7 38q20 10 43.5 18t45.5 11l120 566q-20 4 -40 11t-36 18l8 38h324l-8 -38q-18 -10 -45 -18t-53 -11l-46 -214q19 4 47 5.5t48 1.5q60 0 102.5 -12t70 -33t40.5 -50.5t13 -64.5q0 -70 -26 -120.5t-72 -83.5t-110 -49t-139 -16q-5 0 -21.5 0.5t-38 1t-43.5 1
t-37 0.5h-154zM341 361q-36 0 -58 -6l-61 -289q4 -1 11.5 -2t15.5 -1.5t16 -0.5h13q80 0 127 54t47 150q0 43 -24 69t-87 26z" />
    <glyph glyph-name="afii10047" unicode="&#x42d;" horiz-adv-x="648" 
d="M214 304q-1 20 3 49t18 53l254 -4q13 116 -30 180.5t-131 64.5q-23 0 -48 -5.5t-39 -13.5l-80 -130h-41q0 11 1.5 32t4 45t6.5 49t10 45q21 12 48 20t55 13.5t55.5 7.5t48.5 2q80 0 137.5 -20t94.5 -57.5t54.5 -90t17.5 -116.5q0 -95 -29 -175.5t-85.5 -139.5t-139 -92
t-189.5 -33q-69 0 -117.5 14t-76.5 36q3 19 9.5 42.5t15 47.5t18 47.5t18.5 43.5h42l21 -150q11 -8 31.5 -12t43.5 -4q45 0 87.5 17.5t78 53t61 88t36.5 122.5z" />
    <glyph glyph-name="afii10048" unicode="&#x42e;" horiz-adv-x="1026" 
d="M284 0h-308l7 38q21 10 43 17.5t46 11.5l120 566q-20 3 -39.5 10.5t-36.5 18.5l8 38h308l-8 -38q-14 -8 -33.5 -16t-48.5 -13l-52 -242h108q18 69 50 128t78.5 101.5t107 67t134.5 24.5q76 0 126.5 -22t81 -58.5t43 -83.5t12.5 -96q0 -81 -25 -164t-74.5 -149.5
t-124 -108.5t-173.5 -42q-78 0 -129.5 28t-81 74.5t-38.5 108t0 127.5h-109l-54 -259q23 -5 40 -13t29 -16zM537 253q-2 -100 24 -150t89 -50q53 0 93.5 38.5t68 100t41.5 139t14 156.5q0 30 -4.5 59t-17.5 51.5t-36.5 36t-59.5 13.5q-35 0 -64 -19t-52.5 -50.5t-41.5 -72.5
t-30 -85t-18 -87.5t-6 -79.5z" />
    <glyph glyph-name="afii10049" unicode="&#x42f;" horiz-adv-x="687" 
d="M768 700l-8 -38q-14 -8 -38 -16t-50 -13l-120 -566q24 -5 43 -13t33 -16l-8 -38h-310l8 38q18 9 39.5 16.5t44.5 12.5l47 220h-80q-46 -68 -89.5 -132.5t-99.5 -122.5l-47 -32h-178l7 34l49 24q79 69 131.5 128t97.5 110q-18 6 -37.5 19t-35 32.5t-26 46t-10.5 59.5
q0 121 87 184.5t260 65.5q10 0 26 -0.5t34.5 -1t37.5 -1t34 -0.5h158zM387 346q7 0 18 0.5t22.5 1t21 1.5t14.5 2l59 282q-8 2 -25 3.5t-29 1.5q-47 0 -80.5 -16t-54.5 -42t-31 -60t-10 -71q0 -26 8.5 -45.5t22.5 -32.5t30.5 -19t33.5 -6z" />
    <glyph glyph-name="afii10065" unicode="&#x430;" horiz-adv-x="563" 
d="M215 68q19 0 39.5 17t39 42.5t34 56t26.5 56.5l37 198q-12 8 -22.5 11.5t-27.5 3.5q-40 0 -72 -26.5t-54 -69t-33.5 -95.5t-11.5 -106q0 -46 11 -67t34 -21zM339 159q-13 -32 -32.5 -62.5t-44.5 -54.5t-55 -39t-65 -15q-52 0 -83 38t-31 113q0 78 21.5 145.5t61 118
t95.5 79t125 28.5q26 0 44.5 -6t39.5 -15q26 10 56 15t72 5l-84 -440h70v-34q-10 -8 -26.5 -16t-36 -14t-40 -10t-38.5 -4q-35 0 -50 15t-15 31q0 18 5 47.5t15 74.5h-4z" />
    <glyph glyph-name="afii10066" unicode="&#x431;" horiz-adv-x="545" 
d="M31 211q0 69 12 134.5t36 122.5t59 103t80 76q28 19 61 30.5t68.5 18t72 9.5t72.5 5l60 52h34q0 -17 -4.5 -36t-11.5 -38t-16.5 -37t-20.5 -31q-14 -17 -36.5 -21t-55.5 -6q-73 -6 -127.5 -18.5t-94 -40t-65 -75.5t-40.5 -124h5q46 78 113 122.5t137 44.5q71 0 111 -46
t40 -127q0 -64 -21.5 -125.5t-60.5 -109.5t-93 -77t-120 -29q-42 0 -77.5 13t-61.5 40t-40.5 69t-14.5 101zM200 332q-12 -25 -19.5 -67.5t-7.5 -97.5q0 -63 18 -92.5t48 -29.5q26 0 50.5 22t43.5 59.5t30.5 88t11.5 107.5q0 54 -16 77t-47 23q-20 0 -38 -9.5t-32.5 -23
t-25 -29.5t-16.5 -28z" />
    <glyph glyph-name="afii10067" unicode="&#x432;" horiz-adv-x="519" 
d="M492 411q0 -44 -38 -79t-100 -55q34 -2 56.5 -11.5t36.5 -24t20 -31t6 -32.5q0 -33 -17.5 -66.5t-51 -61t-81.5 -45t-109 -17.5q-45 0 -79.5 13t-58.5 36.5t-36.5 56t-12.5 71.5q0 49 10 92.5t27 80t39.5 65.5t48.5 49q37 30 84.5 45t119.5 15q57 0 96.5 -25t39.5 -76z
M328 161q0 41 -17 57t-53 23q-16 -3 -38.5 -5t-41.5 -3q-2 -11 -4.5 -31.5t-2.5 -53.5q0 -44 17 -73.5t52 -29.5q15 0 30.5 8.5t28 24t21 36.5t8.5 47zM319 455q-38 0 -74 -40t-61 -135q37 -2 68.5 8.5t53.5 28.5t34.5 41.5t12.5 49.5q0 18 -7.5 32.5t-26.5 14.5z" />
    <glyph glyph-name="afii10068" unicode="&#x433;" horiz-adv-x="422" 
d="M17 103q0 39 17.5 68t43.5 52.5t56.5 42t56.5 37t43.5 38t17.5 43.5q0 20 -9.5 34t-33.5 14q-17 0 -34 -6t-33 -15.5t-29.5 -20.5t-23.5 -20l-25 27q13 18 34 38t48 37.5t58.5 28.5t66.5 11q64 0 95.5 -31.5t31.5 -74.5q0 -39 -17.5 -69t-43.5 -54t-56.5 -44t-56.5 -39
t-43.5 -39t-17.5 -45q0 -22 14.5 -35t43.5 -13q19 0 38 6t36 15t32 20t27 21l23 -24q-13 -18 -35 -39t-51 -38.5t-65 -29t-76 -11.5q-27 0 -51.5 8t-42.5 23t-28.5 36.5t-10.5 47.5z" />
    <glyph glyph-name="afii10069" unicode="&#x434;" horiz-adv-x="530" 
d="M21 171q0 72 23.5 133.5t63.5 106t93 70t111 25.5q20 0 40 -4t31 -12q0 31 -5.5 65.5t-19.5 64t-37 48.5t-59 19q-35 0 -62 -8t-50 -22l-16 26q29 30 83 50.5t114 20.5q38 0 72.5 -16t60.5 -51t41 -90.5t15 -134.5q0 -100 -23.5 -186.5t-66.5 -150.5t-104 -100.5
t-135 -36.5q-37 0 -68.5 12.5t-54 35.5t-35 57t-12.5 78zM315 449q-41 0 -70 -28t-47 -71.5t-26.5 -95.5t-8.5 -100q0 -22 3 -42t9.5 -35t18.5 -23.5t30 -8.5q30 0 57 30.5t48 83t34 122.5t15 150q-15 10 -31 14t-32 4z" />
    <glyph glyph-name="afii10070" unicode="&#x435;" horiz-adv-x="472" 
d="M429 109q-11 -20 -32 -41.5t-49 -39t-62 -29t-71 -11.5q-89 0 -138.5 48.5t-49.5 137.5q0 69 22 130t61.5 107.5t94 73.5t119.5 27q60 0 99 -27.5t39 -75.5q0 -68 -67.5 -112t-218.5 -55q-3 -14 -4.5 -28.5t-1.5 -27.5q0 -57 29 -87.5t74 -30.5q19 0 38 6t36.5 16
t32 21.5t25.5 22.5zM301 455q-34 0 -65.5 -37t-52.5 -125q74 2 119.5 33t45.5 81q0 20 -10.5 34t-36.5 14z" />
    <glyph glyph-name="afii10072" unicode="&#x436;" horiz-adv-x="886" 
d="M57 407q27 39 70 69t103 30q23 0 41 -10.5t30 -28.5t18.5 -41.5t6.5 -48.5q0 -26 -2 -50.5t-6 -47.5h74l45 221h127l-46 -221h73q14 49 36.5 91t52.5 72t66 47t78 17q31 0 48.5 -5t36.5 -17q1 -11 -1.5 -25.5t-9.5 -29.5t-17.5 -28.5t-25.5 -21.5l-54 63
q-15 -6 -32.5 -25.5t-32 -53.5t-24.5 -83.5t-10 -115.5q0 -41 14.5 -65.5t45.5 -24.5q17 0 35.5 11t32.5 25l17 -23q-11 -16 -28.5 -32.5t-39 -30t-46 -22t-48.5 -8.5q-31 0 -52.5 10.5t-35 29t-19.5 43t-6 52.5q0 26 1.5 50t5.5 48h-72l-46 -227h-126l46 227h-75
q-14 -51 -36.5 -94t-52.5 -74t-66.5 -48t-78.5 -17q-31 0 -52 8t-37 19q-2 13 1 29t10 31.5t18 28.5t25 19l52 -69q21 7 40.5 30t34.5 59t23.5 83t8.5 104q0 49 -11.5 69.5t-34.5 20.5q-22 0 -41 -12.5t-33 -26.5z" />
    <glyph glyph-name="afii10073" unicode="&#x437;" horiz-adv-x="463" 
d="M-15 41q0 15 6.5 32t16.5 32.5t22.5 27.5t25.5 17l63 -100q8 -2 19 -3.5t19 -1.5q22 0 43 7.5t38 22.5t27.5 36.5t10.5 49.5q0 33 -18 52t-61 24l-65 -18q-8 13 -8 33.5t8 33.5h66q54 17 74.5 48.5t20.5 60.5q0 60 -68 60q-8 0 -19.5 -1.5t-21.5 -3.5
q-15 -16 -33.5 -43.5t-33.5 -47.5q-10 4 -19.5 15.5t-16 27.5t-8.5 33t4 32q19 14 68.5 29.5t121.5 15.5q75 0 122 -24.5t47 -75.5q0 -45 -31.5 -81t-102.5 -61q31 0 53.5 -8.5t37 -22.5t21.5 -32t7 -36q0 -38 -18 -71.5t-51 -58t-80.5 -39t-106.5 -14.5q-28 0 -55 4t-51 11
t-43 16.5t-31 21.5z" />
    <glyph glyph-name="afii10074" unicode="&#x438;" horiz-adv-x="585" 
d="M546 69v-34q-10 -8 -26.5 -16t-36 -14t-41 -10t-42.5 -4q-36 0 -49.5 14.5t-13.5 30.5q0 18 4 50t16 74h-4q-13 -24 -33 -54t-47 -56.5t-62 -44t-77 -17.5q-41 0 -66.5 24.5t-25.5 69.5q0 22 6.5 63t16 89.5t21 100t20.5 94.5l-59 13v34q16 6 40 12t50 11t53 8.5t49 4.5
l22 -12q-16 -75 -32.5 -142.5t-30.5 -142.5q-5 -24 -10.5 -53t-5.5 -58q0 -18 9.5 -27t23.5 -9q25 0 49.5 19.5t45 47t36 56.5t22.5 48l52 261h135l-79 -431h70z" />
    <glyph glyph-name="afii10075" unicode="&#x439;" horiz-adv-x="585" 
d="M546 69v-34q-10 -8 -26.5 -16t-36 -14t-41 -10t-42.5 -4q-36 0 -49.5 14.5t-13.5 30.5q0 18 4 50t16 74h-4q-13 -24 -33 -54t-47 -56.5t-62 -44t-77 -17.5q-41 0 -66.5 24.5t-25.5 69.5q0 22 6.5 63t16 89.5t21 100t20.5 94.5l-59 13v34q16 6 40 12t50 11t53 8.5t49 4.5
l22 -12q-16 -75 -32.5 -142.5t-30.5 -142.5q-5 -24 -10.5 -53t-5.5 -58q0 -18 9.5 -27t23.5 -9q25 0 49.5 19.5t45 47t36 56.5t22.5 48l52 261h135l-79 -431h70zM358 556q-43 0 -72.5 11t-47.5 29t-25.5 40.5t-7.5 46.5q14 12 41.5 23.5t55.5 13.5l34 -13v-78
q10 -5 19.5 -8.5t25.5 -3.5q37 0 72 23t52 66q11 -1 25 -6.5t19 -13.5q-6 -21 -20.5 -44t-38 -42t-56.5 -31.5t-76 -12.5z" />
    <glyph glyph-name="afii10076" unicode="&#x43a;" horiz-adv-x="557" 
d="M324 46q-28 48 -45.5 94.5t-32.5 88.5l-32 10l-46 -239h-140l84 429l-67 13v34q14 6 37 12.5t50 11.5t56.5 8.5t57.5 3.5l21 -11l-44 -218h32q18 13 36.5 31t35.5 36t30.5 35.5t19.5 29.5q1 7 1.5 19t0 24.5t-1 24t-1.5 17.5q17 6 43.5 9.5t53.5 3.5q26 0 49.5 -3.5
t34.5 -9.5q-13 -32 -39.5 -64t-57 -60t-59.5 -51t-47 -36q7 -19 22 -48t33.5 -60.5t38 -61.5t35.5 -50h54v-34q-10 -8 -25.5 -16t-33.5 -14t-37 -10t-37 -4q-24 0 -43.5 11.5t-36.5 43.5z" />
    <glyph glyph-name="afii10077" unicode="&#x43b;" horiz-adv-x="568" 
d="M386 443h-99q-13 -57 -28 -115t-33.5 -110.5t-41 -97.5t-49.5 -77q-28 -33 -61.5 -46.5t-80.5 -8.5q-10 10 -14 30t-1 43q2 18 8.5 35.5t17.5 29.5l88 -28q19 24 37.5 63.5t35 85.5t29 93.5t19.5 86.5q-20 5 -41.5 14.5t-32.5 19.5v39h395l-82 -431h73v-34
q-20 -16 -63 -30t-95 -14q-29 0 -43 14t-14 31q0 22 4.5 47t9.5 48z" />
    <glyph glyph-name="afii10078" unicode="&#x43c;" horiz-adv-x="784" 
d="M255 402q-11 -45 -23 -95.5t-28 -100t-36.5 -94t-47.5 -76.5q-24 -29 -60.5 -40.5t-68.5 -7.5q-9 11 -12.5 33t-0.5 45q2 16 7.5 30.5t15.5 25.5l81 -24q18 23 34.5 60t31 82t27 94.5t22.5 97.5q-17 6 -35.5 15t-26.5 19v34h225l36 -261l4 -71h3l40 74l162 258h145
l-85 -431h74v-34q-10 -8 -27 -16t-37 -14t-43 -10t-45 -4q-31 0 -46 12.5t-15 28.5q0 24 6.5 54.5t11.5 53.5l40 171q2 9 5 20.5t7 24t7.5 24.5t6.5 20h-3l-246 -400h-63l-34 330l-5 72h-4z" />
    <glyph glyph-name="afii10079" unicode="&#x43d;" horiz-adv-x="592" 
d="M562 500l-86 -431h71v-34q-10 -8 -27.5 -16t-38.5 -14t-43.5 -10t-43.5 -4q-33 0 -46.5 14t-13.5 29q0 19 6.5 45.5t11.5 49.5l19 95h-158l-47 -224h-138l85 429l-58 13v34q14 7 38 13.5t52 11.5t55.5 8t48.5 3l20 -12l-45 -219h158l42 219h138z" />
    <glyph glyph-name="afii10080" unicode="&#x43e;" horiz-adv-x="549" 
d="M29 192q0 54 18 110.5t55 103t93.5 76.5t132.5 30q90 0 141 -49t51 -146q0 -66 -20 -125.5t-58 -105t-92.5 -72t-124.5 -26.5q-42 0 -78 12.5t-62.5 38t-41 63.5t-14.5 90zM311 455q-40 0 -66.5 -30t-43 -75.5t-23.5 -98.5t-7 -98q0 -51 19.5 -79.5t53.5 -28.5
q29 0 53.5 24.5t42.5 66t28 95t10 111.5q0 55 -17.5 84t-49.5 29z" />
    <glyph glyph-name="afii10081" unicode="&#x43f;" horiz-adv-x="588" 
d="M384 285q7 31 12.5 55t5.5 50q0 17 -7.5 29.5t-26.5 12.5t-39.5 -14.5t-40 -36t-36 -47.5t-26.5 -48l-60 -286h-138l86 429l-59 13l2 34q14 7 36 13.5t48 11.5t53.5 8t52.5 3l20 -12l-31 -146h5q18 33 42 62t51 50t57 33.5t61 12.5q42 0 66 -27t24 -72q0 -23 -5 -52.5
t-12 -58.5l-55 -233h72v-34q-10 -8 -26.5 -16t-36 -14t-40.5 -10t-40 -4q-34 0 -49.5 13t-15.5 30q0 21 5 45t10 46z" />
    <glyph glyph-name="afii10082" unicode="&#x440;" horiz-adv-x="572" 
d="M135 -133q17 -3 35.5 -11.5t31.5 -17.5v-38h-206l-13 13l132 615l-58 14v34q16 7 41 13.5t52 11.5t53 8t46 3l20 -12l-33 -138h4q16 31 36.5 58.5t44 48t51 32t58.5 11.5q51 0 84.5 -40t33.5 -112q0 -81 -23 -149.5t-62.5 -118t-94 -77t-117.5 -27.5q-29 0 -47.5 4.5
t-38.5 15.5zM353 432q-21 0 -40.5 -15.5t-36.5 -38.5t-31 -50t-23 -49l-44 -217q13 -9 25.5 -13t36.5 -4q34 0 64 27t52.5 70t35 97t12.5 107q0 42 -13 64t-38 22z" />
    <glyph glyph-name="afii10083" unicode="&#x441;" horiz-adv-x="445" 
d="M412 109q-13 -21 -34 -43t-48.5 -39t-60.5 -28t-70 -11q-79 0 -125.5 47t-46.5 131q0 70 21.5 133t60.5 110.5t94.5 75t123.5 27.5q45 0 78.5 -9.5t44.5 -22.5q1 -11 -3.5 -27.5t-13.5 -33t-21.5 -31t-25.5 -20.5l-61 87q-27 0 -54.5 -18.5t-49.5 -53t-36 -83t-14 -109.5
t25 -89.5t67 -28.5q20 0 38.5 6.5t34.5 15.5t29.5 19.5t23.5 19.5z" />
    <glyph glyph-name="afii10084" unicode="&#x442;" horiz-adv-x="849" 
d="M645 300q5 23 11 49.5t6 41.5q0 19 -6.5 30t-23.5 11t-35 -12.5t-35 -33t-32.5 -46.5t-27.5 -53l-65 -287h-134l61 281q7 31 12 60t5 54q0 37 -28 37q-14 0 -32 -13t-36 -33.5t-34 -46.5t-25 -53l-58 -286h-140l89 429l-57 13v34q16 8 39.5 15t49.5 11.5t53 7t50 2.5
l21 -12l-39 -146h4q15 27 36.5 55.5t48.5 51t58 37t63 14.5q12 0 25 -4t24.5 -14.5t18.5 -28.5t7 -46q0 -14 -2.5 -32t-6.5 -33q17 31 40 60t49.5 50.5t56 34.5t61.5 13q38 0 62 -24t24 -66q0 -32 -6 -61t-13 -61l-57 -231h70v-34q-10 -8 -27.5 -16t-37.5 -14t-41 -10
t-39 -4q-36 0 -50 14.5t-14 32.5q0 29 14 80z" />
    <glyph glyph-name="afii10085" unicode="&#x443;" horiz-adv-x="487" 
d="M72 429l-64 8v34q5 4 20 10.5t35.5 13.5t43.5 12t45 5q27 0 42 -13t20 -36l77 -303l5 -60h2l21 59q20 48 39 103.5t30 103.5q0 11 -3.5 30.5t-7.5 40t-8 38t-6 23.5q14 6 35 9t42 3t39 -3t29 -9q-26 -119 -79.5 -247t-123.5 -251q-58 -103 -115.5 -156t-132.5 -53
q-21 0 -38.5 5.5t-31.5 14.5q-3 14 2 33t14.5 37t22.5 33t27 20l75 -53q7 5 18 14.5t22 24t22 34.5t20 46z" />
    <glyph glyph-name="afii10086" unicode="&#x444;" horiz-adv-x="756" 
d="M365 -132q17 -3 35 -12t32 -18v-38h-196l-8 10l52 244q-23 -29 -53 -48.5t-77 -19.5q-22 0 -44 7.5t-39.5 25.5t-28.5 47t-11 73q0 82 19.5 150.5t54 117.5t81 76t101.5 27q24 0 44.5 -6t33.5 -17l31 181l-67 14v34q15 6 37 12t47.5 11t52 8t50.5 5l20 -11l-56 -291
q18 22 54.5 42t84.5 20q23 0 44 -7.5t36.5 -25.5t24.5 -46.5t9 -70.5q0 -84 -19.5 -152.5t-54.5 -118t-83.5 -76.5t-105.5 -27q-23 0 -42 8.5t-29 20.5zM545 444q-26 0 -44.5 -12t-34.5 -29l-61 -343q16 -15 51 -15q27 0 51.5 26.5t42.5 71.5t28.5 104.5t10.5 125.5
q0 35 -12 53t-32 18zM210 54q19 0 40.5 14.5t37.5 35.5l62 333q-19 16 -52 16q-27 0 -51 -25t-41.5 -68.5t-28 -101.5t-10.5 -125q0 -79 43 -79z" />
    <glyph glyph-name="afii10087" unicode="&#x445;" horiz-adv-x="506" 
d="M201 202q-20 -23 -43 -50t-36 -52q-1 -8 -1 -21t1 -27t2.5 -26.5t3.5 -18.5q-17 -7 -39.5 -10t-44.5 -3t-41 3t-30 10q9 30 34.5 66t57 70.5t64 65t55.5 48.5l-61 166l-69 8v34q14 8 33.5 16t40.5 14t42.5 10t38.5 4q26 0 39.5 -13.5t20.5 -35.5l45 -158q19 20 40 48
t32 51q1 7 0.5 20t-2 27.5t-4 27t-3.5 18.5q37 13 81 13q20 0 39 -3.5t30 -9.5q-9 -30 -33.5 -66t-54.5 -70t-60.5 -62.5t-49.5 -43.5l66 -175l69 -8v-34q-10 -7 -28 -14.5t-39 -14t-43 -11t-40 -4.5q-26 0 -41 13t-22 35z" />
    <glyph glyph-name="afii10088" unicode="&#x446;" horiz-adv-x="595" 
d="M395 -9q-32 0 -45 14.5t-13 30.5q0 18 4 50t16 74h-4q-13 -24 -33 -54t-47 -56.5t-62 -44t-77 -17.5q-41 0 -66.5 24.5t-25.5 69.5q0 22 6.5 63t16 89.5t21 100t20.5 94.5l-59 13v34q16 6 40 12t50 11t53 8.5t49 4.5l22 -12q-16 -75 -32.5 -142.5t-30.5 -142.5
q-5 -24 -10.5 -53t-5.5 -58q0 -18 9.5 -27t23.5 -9q25 0 49.5 19.5t45 47t36 56.5t22.5 48l52 261h135l-79 -431h77v-40q-13 -13 -17.5 -28t-5 -31.5t1 -34.5t0.5 -36q0 -27 -13.5 -45.5t-34.5 -31t-47.5 -19t-53.5 -8.5l-6 29q29 8 37.5 29t7.5 47q0 20 4.5 35t13.5 28.5
t22.5 27t31.5 28.5l-3 4q-15 -10 -42.5 -21t-53.5 -11z" />
    <glyph glyph-name="afii10089" unicode="&#x447;" horiz-adv-x="542" 
d="M493 69v-34q-10 -8 -26.5 -16t-36 -14t-41 -10t-42.5 -4q-36 0 -49.5 15t-13.5 32q0 20 6 49l39 155h-4q-30 -40 -78.5 -68.5t-104.5 -28.5q-42 0 -68 22.5t-26 66.5q0 20 2.5 39.5t7 42t11 50t14.5 63.5l-59 13v34q16 6 40 12t50 11t53 8.5t49 4.5l22 -12
q-20 -81 -35 -140.5t-15 -92.5q0 -42 41 -42q28 0 58 18.5t47 43.5l44 213h136l-91 -431h70z" />
    <glyph glyph-name="afii10090" unicode="&#x448;" horiz-adv-x="839" 
d="M321 64q0 21 3.5 43.5t12.5 52.5h-4q-13 -24 -30 -54t-40.5 -56.5t-55 -44t-73.5 -17.5q-41 0 -66.5 24.5t-25.5 69.5q0 22 6.5 63t16 89.5t21 100t20.5 94.5l-59 13v34q16 6 40 12t50 11t53 8.5t49 4.5l22 -12q-16 -75 -32.5 -142.5t-30.5 -142.5q-5 -24 -10.5 -53
t-5.5 -58q0 -18 9.5 -27t23.5 -9q24 0 44.5 19.5t38 47t30 56.5t19.5 48l53 261h135q-16 -75 -32.5 -142.5t-30.5 -142.5q-5 -24 -10.5 -53t-5.5 -58q0 -18 9.5 -27t23.5 -9q24 0 45 19.5t38 47t30 56.5t20 48l52 261h135l-79 -431h70v-34q-10 -8 -26.5 -16t-36 -14t-41 -10
t-42.5 -4q-36 0 -49.5 14.5t-13.5 30.5q0 18 4 50t16 74h-4q-13 -24 -30.5 -54t-42 -56.5t-58 -44t-78.5 -17.5q-38 0 -57.5 21t-19.5 55z" />
    <glyph glyph-name="afii10091" unicode="&#x449;" horiz-adv-x="849" 
d="M807 69v-40q-12 -13 -16.5 -28t-5.5 -31.5t0.5 -34.5t1.5 -36q0 -27 -13.5 -45.5t-34.5 -31t-47.5 -19t-53.5 -8.5l-7 29q29 8 37.5 29t8.5 47q0 20 4.5 35t13.5 28.5t22.5 27t31.5 28.5l-3 4q-15 -10 -43 -21t-54 -11q-33 0 -45.5 14.5t-12.5 30.5q0 18 4 50t16 74h-4
q-13 -24 -30.5 -54t-42 -56.5t-58 -44t-78.5 -17.5q-38 0 -57.5 21t-19.5 55q0 21 3.5 43.5t12.5 52.5h-4q-13 -24 -30 -54t-40.5 -56.5t-55 -44t-73.5 -17.5q-41 0 -66.5 24.5t-25.5 69.5q0 22 6.5 63t16 89.5t21 100t20.5 94.5l-59 13v34q16 6 40 12t50 11t53 8.5t49 4.5
l22 -12q-16 -75 -32.5 -142.5t-30.5 -142.5q-5 -24 -10.5 -53t-5.5 -58q0 -18 9.5 -27t23.5 -9q24 0 44.5 19.5t38 47t30 56.5t19.5 48l53 261h135q-16 -75 -32.5 -142.5t-30.5 -142.5q-5 -24 -10.5 -53t-5.5 -58q0 -18 9.5 -27t23.5 -9q24 0 45 19.5t38 47t30 56.5t20 48
l52 261h135l-79 -431h77z" />
    <glyph glyph-name="afii10092" unicode="&#x44a;" horiz-adv-x="514" 
d="M236 261q36 30 75 47.5t87 17.5q20 0 38 -6.5t32 -19.5t22.5 -34t8.5 -49q0 -48 -23 -89.5t-61 -72.5t-87 -49t-101 -18q-28 0 -57 7t-53 24t-39.5 44.5t-15.5 68.5q0 33 14 70t38.5 73.5t57.5 69.5t71 59q-31 -5 -72 -2.5t-76 7.5l-46 -72l-34 6l24 131q6 39 57 39
q19 0 42.5 -3.5t52.5 -8t65 -9t80 -7.5q13 7 26 13.5t26 13.5q13 -5 22 -20.5t7 -32.5q-26 -12 -53 -31t-51.5 -44t-45 -56t-35.5 -67h4zM220 210q-18 -54 -18 -97q0 -29 13 -48.5t39 -19.5q21 0 40 11t33 30.5t22.5 45.5t8.5 56t-16 44t-35 14q-25 0 -49 -9.5t-38 -26.5z
" />
    <glyph glyph-name="afii10093" unicode="&#x44b;" horiz-adv-x="740" 
d="M202 210q-9 -27 -14 -53t-5 -55q0 -28 9 -42.5t32 -14.5q19 0 36 13.5t30 36t21 50.5t8 58q0 26 -13.5 39.5t-30.5 13.5q-23 0 -41 -14.5t-32 -31.5zM215 261q26 29 61.5 52t86.5 23q18 0 35 -6t30.5 -18t22 -30.5t8.5 -44.5q0 -45 -21 -89.5t-58 -80t-88.5 -57.5
t-111.5 -22q-29 0 -53.5 7t-43.5 21.5t-29.5 38t-10.5 56.5q0 31 7.5 69.5t20 80t28 84.5t30.5 84l-55 13v34q15 7 39.5 13.5t52.5 11t57 7.5t53 4l22 -12q-12 -32 -23 -59.5t-21.5 -55.5t-21 -58t-21.5 -66h4zM710 500l-91 -431h70v-34q-13 -9 -30.5 -17t-37 -14
t-39.5 -9.5t-38 -3.5q-38 0 -52.5 14.5t-14.5 31.5q0 20 3 39t8 42l83 382h139z" />
    <glyph glyph-name="afii10094" unicode="&#x44c;" horiz-adv-x="489" 
d="M202 210q-9 -27 -14 -53t-5 -52q0 -28 11.5 -44t34.5 -16q21 0 40.5 13.5t33.5 36t22.5 50.5t8.5 58q0 26 -14 39.5t-32 13.5q-26 0 -49 -14.5t-37 -31.5zM215 261q13 14 30.5 27.5t38.5 24t44.5 17t49.5 6.5q18 0 35 -6t30.5 -18t22 -30.5t8.5 -44.5q0 -48 -22.5 -92.5
t-61.5 -79.5t-92 -56t-113 -21q-31 0 -57 7t-45 21.5t-29.5 38t-10.5 56.5q0 31 7.5 69.5t20 80t28 84.5t30.5 84l-55 13v34q15 7 39.5 13.5t52.5 11t57 7.5t53 4l22 -12q-12 -32 -23 -59.5t-21.5 -55.5t-21 -58t-21.5 -66h4z" />
    <glyph glyph-name="afii10095" unicode="&#x44d;" horiz-adv-x="484" 
d="M154 45q25 0 49.5 13t45.5 37.5t37 59.5t24 80l-163 -23q-4 6 -6 16.5t-2 22t2 22t6 16.5h168q0 5 0.5 10t0.5 10q0 69 -25 107.5t-64 38.5q-16 0 -38 -5q-8 -8 -17 -20t-18.5 -25t-19 -25.5t-17.5 -22.5q-10 4 -19 16.5t-15.5 29.5t-8.5 35t3 33q24 16 72.5 28.5
t116.5 12.5q42 0 77.5 -12.5t61.5 -36t40.5 -57.5t14.5 -78q0 -73 -22 -135.5t-61.5 -108t-93.5 -71t-118 -25.5q-28 0 -55 4t-51 11t-43 16.5t-31 21.5q0 15 6.5 32t16.5 32.5t22.5 27.5t25.5 17l63 -100q8 -2 17.5 -3.5t17.5 -1.5z" />
    <glyph glyph-name="afii10096" unicode="&#x44e;" horiz-adv-x="790" 
d="M287 192q0 8 0.5 16t1.5 16h-76l-47 -224h-138l85 429l-58 13v34q14 7 38 13.5t52 11.5t55.5 8t48.5 3l20 -12l-45 -219h74q11 44 32.5 85.5t55 74t79 52t104.5 19.5q90 0 141 -49t51 -146q0 -66 -20 -125.5t-57.5 -105t-90 -72t-118.5 -26.5q-40 0 -74.5 12.5t-59.5 38
t-39.5 63.5t-14.5 90zM556 455q-34 0 -59 -30t-41.5 -75.5t-24.5 -98.5t-8 -98q0 -51 16 -79.5t44 -28.5q29 0 54 24.5t43 66t28.5 95t10.5 111.5q0 55 -15.5 84t-47.5 29z" />
    <glyph glyph-name="afii10097" unicode="&#x44f;" horiz-adv-x="554" 
d="M378 446q-10 2 -23.5 4t-23.5 2q-23 0 -42.5 -10.5t-33.5 -29t-22.5 -42.5t-8.5 -51q0 -32 21 -54t69 -22h21zM165 213q-38 11 -61.5 41.5t-23.5 78.5q0 39 19.5 71.5t54.5 55.5t85 36t110 13q22 0 45.5 -1.5t46 -4t43.5 -6.5t37 -9l-82 -419h71v-34q-10 -8 -27.5 -16
t-39 -14t-44.5 -10t-45 -4q-32 0 -44.5 13.5t-12.5 27.5q0 18 4 40.5t9 45.5l16 81l-55 -8q-20 -35 -43.5 -76t-55.5 -79q-22 -26 -43.5 -35.5t-46.5 -9.5q-38 0 -66 14.5t-40 28.5v35h46q17 11 37 28.5t39.5 38t37 40.5t29.5 37z" />
    <glyph glyph-name="afii10071" unicode="&#x451;" horiz-adv-x="472" 
d="M429 109q-11 -20 -32 -41.5t-49 -39t-62 -29t-71 -11.5q-89 0 -138.5 48.5t-49.5 137.5q0 69 22 130t61.5 107.5t94 73.5t119.5 27q60 0 99 -27.5t39 -75.5q0 -68 -67.5 -112t-218.5 -55q-3 -14 -4.5 -28.5t-1.5 -27.5q0 -57 29 -87.5t74 -30.5q19 0 38 6t36.5 16
t32 21.5t25.5 22.5zM301 455q-34 0 -65.5 -37t-52.5 -125q74 2 119.5 33t45.5 81q0 20 -10.5 34t-36.5 14zM151 659q0 32 20 51t53 19q32 0 52.5 -19t20.5 -51q0 -30 -20.5 -49t-52.5 -19q-33 0 -53 19t-20 49zM370 659q0 32 20 51t52 19q33 0 53.5 -19t20.5 -51
q0 -30 -20.5 -49t-53.5 -19q-32 0 -52 19t-20 49z" />
    <glyph glyph-name="afii10099" unicode="&#x452;" horiz-adv-x="561" 
d="M66 600h76l14 69l-66 13v32q15 6 38.5 12.5t51 12t56.5 9.5t55 4l21 -9l-31 -143h152l-14 -61h-151l-40 -185h5q76 128 191 128q46 0 75 -26.5t29 -69.5q0 -22 -2 -38.5t-8 -45.5l-63 -302q-14 -55 -42 -93.5t-62 -63t-69 -38t-63 -17.5l-16 31q12 6 28.5 20t32.5 36
t30 53t22 72l61 285q5 24 8 40t3 32q0 21 -11.5 33t-26.5 12q-21 0 -41.5 -12t-38 -29.5t-31.5 -37.5t-21 -37l-59 -286h-138l109 539h-78z" />
    <glyph glyph-name="afii10100" unicode="&#x453;" horiz-adv-x="422" 
d="M17 103q0 39 17.5 68t43.5 52.5t56.5 42t56.5 37t43.5 38t17.5 43.5q0 20 -9.5 34t-33.5 14q-17 0 -34 -6t-33 -15.5t-29.5 -20.5t-23.5 -20l-25 27q13 18 34 38t48 37.5t58.5 28.5t66.5 11q64 0 95.5 -31.5t31.5 -74.5q0 -39 -17.5 -69t-43.5 -54t-56.5 -44t-56.5 -39
t-43.5 -39t-17.5 -45q0 -22 14.5 -35t43.5 -13q19 0 38 6t36 15t32 20t27 21l23 -24q-13 -18 -35 -39t-51 -38.5t-65 -29t-76 -11.5q-27 0 -51.5 8t-42.5 23t-28.5 36.5t-10.5 47.5zM368 763q8 2 26.5 1.5t38.5 -3.5t36.5 -8.5t21.5 -11.5v-24l-201 -155l-40 22z" />
    <glyph glyph-name="afii10101" unicode="&#x454;" horiz-adv-x="460" 
d="M427 109q-13 -21 -34 -43t-48.5 -39t-60.5 -28t-70 -11q-39 0 -73.5 12.5t-59.5 36t-39.5 57.5t-14.5 78q0 72 21.5 132t60 104.5t92 70.5t117.5 31q15 1 29 1t28 -2q69 -6 90 -29q1 -11 -3.5 -27.5t-13.5 -33t-21.5 -31t-25.5 -20.5l-61 87q-22 0 -46 -10.5t-46 -31.5
t-40 -53.5t-28 -75.5l160 13q4 -13 -1 -37t-15 -37l-152 2q0 -7 -0.5 -14t-0.5 -14q0 -33 9 -56.5t23.5 -38.5t34 -22t40.5 -7q20 0 38.5 6.5t34.5 15.5t29.5 19.5t23.5 19.5z" />
    <glyph glyph-name="afii10102" unicode="&#x455;" horiz-adv-x="432" 
d="M229 110q0 22 -12 39.5t-30 34.5t-39.5 33.5t-39.5 37.5t-30 46.5t-12 59.5q0 76 54.5 113.5t148.5 37.5q16 0 35.5 -1.5t39.5 -5.5t38.5 -9.5t33.5 -14.5q1 -11 -1.5 -28.5t-9 -35t-17 -32t-25.5 -19.5l-80 89q-32 0 -53.5 -13t-21.5 -46q0 -22 12.5 -40t30.5 -34.5
t40 -33.5t40 -37.5t30.5 -46.5t12.5 -60q0 -38 -17 -67t-46.5 -49t-70.5 -30t-89 -10q-51 0 -91.5 11.5t-60.5 25.5q-1 32 11.5 63t36.5 48l97 -91q33 0 59 16t26 49z" />
    <glyph glyph-name="afii10103" unicode="&#x456;" horiz-adv-x="304" 
d="M59 442v34q15 6 40 12.5t53 11.5t55.5 8.5t48.5 3.5l18 -12l-90 -431h70v-34q-13 -9 -30.5 -17t-37 -14t-39.5 -9.5t-38 -3.5q-38 0 -52.5 14.5t-14.5 31.5q0 20 3 39t8 42l68 310zM142 667q0 34 23 53t58 19q38 0 60.5 -19t22.5 -53q0 -32 -22.5 -51t-60.5 -19
q-35 0 -58 19t-23 51z" />
    <glyph glyph-name="afii10104" unicode="&#x457;" horiz-adv-x="352" 
d="M67 668q0 33 19.5 51.5t49.5 18.5q32 0 49.5 -18.5t17.5 -51.5q0 -30 -18.5 -48.5t-48.5 -18.5q-33 0 -51 18.5t-18 48.5zM246 668q0 33 19.5 51.5t48.5 18.5q33 0 50.5 -18.5t17.5 -51.5q0 -30 -18.5 -48.5t-49.5 -18.5q-32 0 -50 18.5t-18 48.5zM74 442v34
q15 6 40 12.5t53 11.5t55.5 8.5t48.5 3.5l18 -12l-90 -431h70v-34q-13 -9 -30.5 -17t-37 -14t-39.5 -9.5t-38 -3.5q-38 0 -52.5 14.5t-14.5 31.5q0 20 3 39t8 42l68 310z" />
    <glyph glyph-name="afii10105" unicode="&#x458;" horiz-adv-x="299" 
d="M119 429l-59 13v34q15 7 38 13.5t49.5 11.5t53.5 8t51 3l20 -12l-92 -457q-15 -71 -45 -118t-65 -76t-71 -43t-64 -18l-16 31q12 6 28 19t32 37t31.5 60.5t26.5 88.5zM142 667q0 34 23 53t58 19q38 0 60.5 -19t22.5 -53q0 -32 -22.5 -51t-60.5 -19q-35 0 -58 19t-23 51z
" />
    <glyph glyph-name="afii10106" unicode="&#x459;" horiz-adv-x="771" 
d="M554 500q-9 -30 -16.5 -57.5t-15 -56t-15 -59t-14.5 -66.5h4q13 14 30.5 27.5t38.5 24t44.5 17t49.5 6.5q18 0 35 -6t30.5 -18t22 -30.5t8.5 -44.5q0 -48 -22.5 -92.5t-61.5 -79.5t-92 -56t-113 -21q-62 0 -102 30t-40 93q0 31 6.5 72t17 85t23 89.5t23.5 85.5h-108
q-13 -57 -28 -115t-33.5 -110.5t-41 -97.5t-49.5 -77q-28 -33 -61.5 -46.5t-80.5 -8.5q-10 10 -14 30t-1 43q2 18 8.5 35.5t17.5 29.5l88 -28q19 24 37.5 63.5t35 85.5t29 93.5t19.5 86.5q-20 5 -41.5 14.5t-32.5 19.5v39h415zM484 210q-9 -27 -14 -53t-5 -52
q0 -28 11.5 -44t34.5 -16q21 0 40.5 13.5t33.5 36t22.5 50.5t8.5 58q0 26 -14 39.5t-32 13.5q-26 0 -49 -14.5t-37 -31.5z" />
    <glyph glyph-name="afii10107" unicode="&#x45a;" horiz-adv-x="797" 
d="M574 500q-7 -28 -13 -55t-13 -56t-14 -60.5t-16 -67.5h4q26 29 69 52t95 23q17 0 34.5 -6t31 -18t22 -30.5t8.5 -44.5q0 -48 -22.5 -92.5t-62 -79.5t-92 -56t-112.5 -21q-63 0 -103 27.5t-40 87.5q0 9 2.5 26t6 35t7.5 34.5t6 25.5h-159l-47 -224h-138l85 429l-58 13v34
q14 7 38 13.5t52 11.5t55.5 8t48.5 3l20 -12l-45 -219h158l46 219h146zM510 210q-9 -27 -14.5 -53t-5.5 -52q0 -28 12 -44t34 -16q21 0 40.5 13.5t33.5 36t22.5 50.5t8.5 58q0 26 -13.5 39.5t-32.5 13.5q-25 0 -48.5 -14.5t-36.5 -31.5z" />
    <glyph glyph-name="afii10108" unicode="&#x45b;" horiz-adv-x="581" 
d="M66 600h76l14 69l-66 13v32q15 6 38.5 12.5t51 12t56.5 9.5t55 4l21 -9l-31 -143h152l-14 -61h-151l-40 -185h5q38 65 85.5 96.5t107.5 31.5q46 0 73.5 -27t27.5 -69q0 -20 -1.5 -40.5t-7.5 -43.5l-57 -233h74v-34q-20 -16 -58.5 -30t-87.5 -14q-33 0 -48 13.5t-15 32.5
q0 18 4.5 37t9.5 44l37 167q10 46 10 75q0 18 -10 30t-25 12q-23 0 -44 -12t-38.5 -29.5t-31 -37.5t-20.5 -37l-59 -286h-138l109 539h-78z" />
    <glyph glyph-name="afii10109" unicode="&#x45c;" horiz-adv-x="557" 
d="M324 46q-28 48 -45.5 94.5t-32.5 88.5l-32 10l-46 -239h-140l84 429l-67 13v34q14 6 37 12.5t50 11.5t56.5 8.5t57.5 3.5l21 -11l-44 -218h32q18 13 36.5 31t35.5 36t30.5 35.5t19.5 29.5q1 7 1.5 19t0 24.5t-1 24t-1.5 17.5q17 6 43.5 9.5t53.5 3.5q26 0 49.5 -3.5
t34.5 -9.5q-13 -32 -39.5 -64t-57 -60t-59.5 -51t-47 -36q7 -19 22 -48t33.5 -60.5t38 -61.5t35.5 -50h54v-34q-10 -8 -25.5 -16t-33.5 -14t-37 -10t-37 -4q-24 0 -43.5 11.5t-36.5 43.5zM387 763q8 2 26.5 1.5t38.5 -3.5t36.5 -8.5t21.5 -11.5v-24l-201 -155l-40 22z" />
    <glyph glyph-name="afii10110" unicode="&#x45e;" horiz-adv-x="487" 
d="M72 429l-64 8v34q5 4 20 10.5t35.5 13.5t43.5 12t45 5q27 0 42 -13t20 -36l77 -303l5 -60h2l21 59q20 48 39 103.5t30 103.5q0 11 -3.5 30.5t-7.5 40t-8 38t-6 23.5q14 6 35 9t42 3t39 -3t29 -9q-26 -119 -79.5 -247t-123.5 -251q-58 -103 -115.5 -156t-132.5 -53
q-21 0 -38.5 5.5t-31.5 14.5q-3 14 2 33t14.5 37t22.5 33t27 20l75 -53q7 5 18 14.5t22 24t22 34.5t20 46zM291 556q-43 0 -72.5 11t-47.5 29t-25.5 40.5t-7.5 46.5q14 12 41.5 23.5t55.5 13.5l34 -13v-78q10 -5 19.5 -8.5t25.5 -3.5q37 0 72 23t52 66q11 -1 25 -6.5
t19 -13.5q-6 -21 -20.5 -44t-38 -42t-56.5 -31.5t-76 -12.5z" />
    <glyph glyph-name="afii10193" unicode="&#x45f;" horiz-adv-x="585" 
d="M546 69v-34q-10 -8 -26.5 -16t-36 -14t-41 -10t-42.5 -4q-36 0 -49.5 14.5t-13.5 30.5q0 18 4 50t16 74h-4q-13 -24 -33 -54t-47 -56.5t-62 -44t-77 -17.5q-41 0 -66.5 24.5t-25.5 69.5q0 22 6.5 63t16 89.5t21 100t20.5 94.5l-59 13v34q16 6 40 12t50 11t53 8.5t49 4.5
l22 -12q-16 -75 -32.5 -142.5t-30.5 -142.5q-5 -24 -10.5 -53t-5.5 -58q0 -18 9.5 -27t23.5 -9q25 0 49.5 19.5t45 47t36 56.5t22.5 48l52 261h135l-79 -431h70zM305 -6q-13 -15 -12 -30t7.5 -31.5t14 -34.5t7.5 -39q0 -20 -10.5 -36.5t-27 -29t-38 -21t-42.5 -11.5l-12 25
q18 9 21.5 23t0.5 30t-9 33.5t-6 34.5q0 35 20 57t63 44z" />
    <glyph glyph-name="afii10146" unicode="&#x462;" horiz-adv-x="775" 
d="M470 558l-33 -156q19 3 46.5 4.5t47.5 1.5q115 0 172 -39t57 -122q0 -118 -88.5 -184t-257.5 -66q-5 0 -21.5 0.5t-38 1t-43.5 1t-37 0.5h-154l7 38q20 10 43.5 18t45.5 11l104 491h-93l-100 -166h-41q0 20 2.5 49.5t6 61t8 62.5t9.5 54h221l9 42q-20 4 -40 11t-36 18
l7 34h324l-7 -34q-18 -10 -45 -17.5t-53 -11.5l-9 -42h248q-5 -22 -12.5 -46.5t-15.5 -48t-16.5 -45.5t-15.5 -39h-42l-32 118h-127zM480 343q-19 0 -32 -1.5t-25 -3.5l-57 -272q4 -1 11.5 -2t15.5 -1.5t16 -0.5h13q33 0 64.5 10t55.5 32t38.5 57.5t14.5 85.5q0 47 -26 71.5
t-89 24.5z" />
    <glyph glyph-name="afii10194" unicode="&#x463;" horiz-adv-x="752" 
d="M472 261q13 14 31.5 27.5t40.5 24t46.5 17t50.5 6.5q18 0 35 -6t30.5 -18t22 -30.5t8.5 -44.5q0 -48 -22.5 -92.5t-61.5 -79.5t-92 -56t-113 -21q-62 0 -102 27.5t-40 86.5q0 29 10 71.5t22.5 86t22.5 81t10 56.5q0 35 -28 35q-12 0 -28.5 -13t-33 -33.5t-31.5 -46.5
t-24 -53l-58 -286h-140l89 429l-57 13v34q16 8 39.5 15t49.5 11.5t53 7t50 2.5l21 -12l-39 -146h4q15 27 35 55.5t45 51t54.5 37t61.5 14.5q12 0 25 -4t24.5 -14t18.5 -27t7 -42q0 -14 -4.5 -33.5t-11 -41.5t-13.5 -45t-12 -44h4zM465 210q-9 -27 -16.5 -53.5t-7.5 -58.5
q0 -23 14 -38t37 -15q21 0 40 13.5t33.5 36t23 50.5t8.5 58q0 26 -14 39.5t-32 13.5q-26 0 -49 -14.5t-37 -31.5z" />
    <glyph glyph-name="afii10147" unicode="&#x472;" horiz-adv-x="751" 
d="M59 271q0 92 28.5 172.5t82 140t131 94t175.5 34.5q67 0 119 -19.5t88 -56t54.5 -88.5t18.5 -117q0 -82 -25 -161.5t-76 -142t-127.5 -101t-179.5 -38.5q-69 0 -123 21.5t-91 59.5t-56 90t-19 112zM224 252q0 -100 40 -149.5t104 -49.5q44 0 78.5 21.5t60 57.5t43 83.5
t26.5 99.5q-25 -25 -53.5 -36t-50.5 -11q-24 0 -44 10.5t-39 22.5t-37.5 22.5t-38.5 10.5q-17 0 -40.5 -5t-45.5 -22q-3 -29 -3 -55zM517 369q13 0 33 2t37 11q2 19 3 37t1 35q0 89 -33 141t-103 52q-46 0 -82.5 -23t-63.5 -61.5t-44.5 -87.5t-26.5 -100q25 23 51 37t48 19
q23 3 40 -1q20 -3 37.5 -13t34 -20.5t33 -19t35.5 -8.5z" />
    <glyph glyph-name="afii10195" unicode="&#x473;" horiz-adv-x="549" 
d="M29 192q0 54 18 110.5t55 103t93.5 76.5t132.5 30q90 0 141 -49t51 -146q0 -66 -20 -125.5t-58 -105t-92.5 -72t-124.5 -26.5q-42 0 -78 12.5t-62.5 38t-41 63.5t-14.5 90zM311 455q-27 0 -48 -14.5t-37 -38.5t-26.5 -55.5t-16.5 -64.5q22 17 41.5 24.5t33.5 7.5
q15 0 26 -6.5t20.5 -14t18.5 -13.5t21 -6t30 9q2 14 3 29t1 30q0 55 -17.5 84t-49.5 29zM210 234q-15 0 -36 -15q-3 -35 -3 -66q0 -51 19.5 -79.5t53.5 -28.5q21 0 40 13.5t34.5 37t27 55.5t18.5 70q-36 -29 -67 -29q-16 0 -27 6.5t-20.5 14.5t-18.5 14.5t-21 6.5z" />
    <glyph glyph-name="afii10148" unicode="&#x474;" horiz-adv-x="756" 
d="M794 712q12 -3 21.5 -14.5t17 -27.5t12 -34.5t5.5 -36.5v-15.5t-1 -14.5l-39 -35l-101 28q-36 -40 -81 -105t-91.5 -142.5t-89.5 -162.5t-76 -164h-84l-122 645q-18 4 -37 11.5t-32 17.5l8 38h333l-8 -38q-39 -20 -88 -29l48 -374l2 -94h2l38 95q37 79 76.5 146.5t78 121
t72 92t58.5 59.5q21 18 41 25t37 8z" />
    <glyph glyph-name="afii10196" unicode="&#x475;" horiz-adv-x="531" 
d="M468 378q-29 -36 -58.5 -86t-56.5 -103t-51.5 -103t-42.5 -86l-113 -12l-74 441l-64 8v34q12 7 29 14t37.5 13t42 10t42.5 4q27 0 38 -14.5t14 -36.5l38 -288l6 -67h2l27 71q15 35 32.5 74.5t37.5 78t42.5 73.5t48.5 62q23 24 49 35t45 11h6.5t5.5 -1q10 -6 18 -16.5
t13.5 -23.5t8.5 -28t3 -29v-10.5t-1 -10.5l-37 -39l-88 25v0z" />
    <glyph glyph-name="uni048A" unicode="&#x48a;" horiz-adv-x="798" 
d="M277 0h-301l7 38q22 10 44.5 18t44.5 11l120 566q-20 4 -40 11t-36 18l8 38h301l-8 -38q-17 -9 -37 -16.5t-43 -12.5l-81 -380l-27 -78l63 83l330 351l5 24q-22 5 -40.5 12t-32.5 17l8 38h301l-8 -38q-19 -11 -42 -18t-46 -11l-120 -568h109l9 -13q-4 -19 -20.5 -48.5
t-40.5 -61t-54 -60.5t-60 -45h-54l84 163h-206l7 38q15 7 36.5 15.5t44.5 13.5l81 379l28 79l-59 -80l-336 -356l-4 -22q22 -5 40.5 -13t32.5 -16zM488 741q-42 0 -73.5 10.5t-51.5 27t-29.5 36t-9.5 38.5q8 8 22 14.5t30.5 11.5t33.5 8t31 3l34 -13v-60q10 -5 19.5 -8.5
t25.5 -3.5q21 0 43.5 4.5t42 14.5t35 24t23.5 34q11 -1 25 -7t19 -14q-7 -20 -23.5 -41t-43.5 -38.5t-65 -29t-88 -11.5z" />
    <glyph glyph-name="uni048B" unicode="&#x48b;" horiz-adv-x="595" 
d="M553 69v-40q-13 -13 -17.5 -28t-5 -31.5t1 -34.5t0.5 -36q0 -27 -13.5 -45.5t-34.5 -31t-47.5 -19t-53.5 -8.5l-6 29q29 8 37.5 29t7.5 47q0 20 4.5 35t13.5 28.5t22.5 27t31.5 28.5l-3 4q-15 -10 -42.5 -21t-53.5 -11q-32 0 -45 14.5t-13 30.5q0 18 4 50t16 74h-4
q-13 -24 -33 -54t-47 -56.5t-62 -44t-77 -17.5q-41 0 -66.5 24.5t-25.5 69.5q0 22 6.5 63t16 89.5t21 100t20.5 94.5l-59 13v34q16 6 40 12t50 11t53 8.5t49 4.5l22 -12q-16 -75 -32.5 -142.5t-30.5 -142.5q-5 -24 -10.5 -53t-5.5 -58q0 -18 9.5 -27t23.5 -9q25 0 49.5 19.5
t45 47t36 56.5t22.5 48l52 261h135l-79 -431h77zM359 556q-43 0 -72.5 11t-47.5 29t-25.5 40.5t-7.5 46.5q14 12 41 23.5t56 13.5l34 -13v-78q10 -5 19.5 -8.5t25.5 -3.5q37 0 71.5 23t51.5 66q12 -1 25.5 -6.5t19.5 -13.5q-6 -21 -20.5 -44t-38 -42t-56.5 -31.5t-76 -12.5z
" />
    <glyph glyph-name="uni048C" unicode="&#x48c;" horiz-adv-x="679" 
d="M92 565h132l14 68q-20 4 -39.5 11t-36.5 18l8 38h324l-8 -38q-18 -10 -45 -18t-53 -11l-14 -68h197l-13 -64h-198l-17 -82q19 4 46.5 5.5t47.5 1.5q60 0 102.5 -12t70.5 -33t41 -50.5t13 -64.5q0 -70 -26 -120.5t-72.5 -83.5t-110 -49t-139.5 -16q-5 0 -21.5 0.5t-37.5 1
t-43 1t-37 0.5h-155l8 38q20 10 43 18t45 11l92 434h-131zM387 361q-19 0 -32.5 -1.5t-25.5 -4.5l-61 -289q4 -1 11.5 -2t16 -1.5t16.5 -0.5h13q79 0 126.5 54t47.5 150q0 43 -24.5 69t-87.5 26z" />
    <glyph glyph-name="uni048D" unicode="&#x48d;" horiz-adv-x="493" 
d="M44 501h81q13 51 24.5 97t19.5 81l-60 13v34q15 7 39 13.5t51.5 11t56.5 7.5t53 4l20 -12q-5 -16 -12 -42.5t-15 -59.5t-16.5 -71t-17.5 -76h155l-14 -61h-155q-13 -57 -23.5 -105t-16.5 -74h4q26 29 69 52t95 23q17 0 34.5 -6t31 -18t22 -30.5t8.5 -44.5
q0 -48 -22.5 -92.5t-62 -79.5t-92 -56t-112.5 -21q-31 0 -57.5 7t-45.5 21.5t-29.5 38t-10.5 56.5q0 19 5.5 54t14.5 79t20.5 95t23.5 101h-80zM206 210q-9 -27 -14.5 -53t-5.5 -52q0 -28 12 -44t34 -16q21 0 40.5 13.5t33.5 36t22.5 50.5t8.5 58q0 26 -13.5 39.5
t-32.5 13.5q-25 0 -48.5 -14.5t-36.5 -31.5z" />
    <glyph glyph-name="uni048E" unicode="&#x48e;" horiz-adv-x="634" 
d="M222 67q26 -4 50.5 -11.5t43.5 -17.5l-7 -38h-333l7 38q44 21 89 29l120 566q-22 4 -41 11.5t-35 17.5l8 38h126q40 0 92.5 4t95.5 4q52 0 96.5 -9t76 -28.5t49.5 -51.5t18 -78q0 -89 -50 -158t-144 -99l26 -64l-93 -35l-31 82q-13 -2 -27.5 -2.5t-30.5 -0.5
q-11 0 -31.5 0.5t-32.5 2.5zM401 643q-20 0 -33.5 -2t-24.5 -4l-65 -304q9 -2 27 -3t29 -1q26 0 46 4l-39 101l55 21l37 -96q38 26 58.5 73.5t20.5 108.5q0 23 -5.5 42t-18 32.5t-34 20.5t-53.5 7z" />
    <glyph glyph-name="uni048F" unicode="&#x48f;" horiz-adv-x="572" 
d="M135 -133q17 -3 35.5 -11.5t31.5 -17.5v-38h-206l-13 13l132 615l-58 14v34q16 7 41 13.5t52 11.5t53 8t46 3l20 -12l-33 -138h4q16 31 36.5 58.5t44 48t51 32t58.5 11.5q51 0 84.5 -40t33.5 -112q0 -103 -36 -184.5t-96 -129.5l56 -76l-70 -48l-63 85q-44 -19 -88 -19
q-29 0 -47.5 4.5t-38.5 15.5zM353 432q-21 0 -40.5 -15.5t-36.5 -38.5t-31 -50t-23 -49l-44 -217q13 -9 25.5 -13t36.5 -4q33 0 66 28l-58 79l47 36l48 -67q28 45 44.5 105t16.5 120q0 42 -13 64t-38 22z" />
    <glyph glyph-name="afii10050" unicode="&#x490;" horiz-adv-x="533" 
d="M222 67q23 -3 46 -11t43 -18l-7 -38h-328l7 38q48 23 89 29l120 566q-20 4 -40 11t-36 18l8 38h390l93 150h41q-1 -24 -4 -53.5t-7.5 -59t-9.5 -56.5t-9 -46h-276z" />
    <glyph glyph-name="afii10098" unicode="&#x491;" horiz-adv-x="444" 
d="M374 500l83 138h41q-1 -22 -3 -49.5t-5.5 -55t-8 -53t-8.5 -43.5h-201l-94 -437h-144l93 433q-17 3 -33.5 11t-27.5 17l1 39h307z" />
    <glyph glyph-name="uni0492" unicode="&#x492;" horiz-adv-x="542" 
d="M283 384h136l-15 -70h-135l-52 -247q23 -4 46 -12t43 -17l-7 -38h-328l7 38q46 22 89 29l52 247h-82l15 70h81l54 249q-20 4 -39.5 11t-36.5 18l8 38h512q-4 -24 -11.5 -55t-16.5 -64t-19.5 -64.5t-21.5 -56.5h-41l-25 175h-159z" />
    <glyph glyph-name="uni0493" unicode="&#x493;" horiz-adv-x="500" 
d="M32 257h73l37 172q-17 3 -35 13t-26 19v39h431q-8 -36 -24 -83t-35 -87h-41l-25 113h-104l-40 -186h141l-14 -61h-139l-42 -196h-138l41 196h-74z" />
    <glyph glyph-name="uni0494" unicode="&#x494;" horiz-adv-x="653" 
d="M283 358q32 17 75 31t100 14q169 0 169 -161q0 -71 -22.5 -134t-65 -110t-103.5 -74.5t-138 -28.5l4 45q46 14 79.5 44.5t55 70.5t31.5 87t10 95q-1 54 -21 75t-64 21q-32 0 -63 -10t-59 -25l-49 -231q19 -5 36 -13t31 -16l-7 -38h-306l7 38q23 11 45 18t44 11l120 566
q-20 4 -39.5 11t-36.5 18l8 38h512q-5 -24 -12 -52.5t-15.5 -58t-18 -58.5t-19.5 -54h-41l-29 158h-159z" />
    <glyph glyph-name="uni0495" unicode="&#x495;" horiz-adv-x="528" 
d="M495 500q-7 -36 -21 -83t-33 -87h-41l-30 113h-104l-56 -258q15 17 31.5 33.5t36.5 29.5t43.5 21t51.5 8q50 0 82.5 -27t32.5 -73q0 -40 -8.5 -84t-25.5 -86t-41.5 -80t-56.5 -68t-71.5 -49t-85.5 -22l-16 31q22 6 43 26.5t39.5 49.5t33.5 63.5t26 68.5t17 65t6 53
q0 24 -11.5 38t-33.5 14q-30 0 -57 -15.5t-44 -37.5l-30 -144h-144l91 428q-17 3 -35 13.5t-24 19.5v39h435z" />
    <glyph glyph-name="uni0496" unicode="&#x496;" horiz-adv-x="1037" 
d="M531 633q-19 6 -33.5 13.5t-24.5 15.5l8 38h259l-8 -38q-23 -16 -64 -29l-55 -256l66 16l194 240q-18 5 -34 12.5t-30 16.5l8 38h269l-8 -38q-16 -9 -36.5 -16.5t-41.5 -12.5l-238 -252q17 -32 37 -70.5t42.5 -80t47.5 -84t52 -81.5h82q-6 -26 -14.5 -56.5t-18.5 -61
t-21 -59.5t-21 -51h-39l-15 163h-80l-36 34q-44 69 -69 143t-50 152h-57l-54 -262q31 -10 57 -29l-8 -38h-269l7 38q17 9 35.5 16.5t40.5 12.5l57 271l-66 -16q-48 -73 -98 -147.5t-113 -140.5l-50 -34h-178l7 34l46 24q45 40 86.5 83.5t79 86.5t71.5 82.5t63 71.5l-119 251
q-19 5 -34.5 13t-26.5 16l8 38h257l-8 -38q-14 -9 -35 -16.5t-42 -12.5l92 -247h70z" />
    <glyph glyph-name="uni0497" unicode="&#x497;" horiz-adv-x="886" 
d="M57 407q27 39 70 69t103 30q23 0 41 -10.5t30 -28.5t18.5 -41.5t6.5 -48.5q0 -26 -2 -50.5t-6 -47.5h74l45 221h127l-46 -221h73q14 49 36.5 91t52.5 72t66 47t78 17q31 0 48.5 -5t36.5 -17q1 -11 -1.5 -25.5t-9.5 -29.5t-17.5 -28.5t-25.5 -21.5l-54 63
q-15 -6 -32.5 -25.5t-32 -53.5t-24.5 -83.5t-10 -115.5q0 -41 14.5 -65.5t45.5 -24.5q17 0 35.5 11t32.5 25l17 -23q-3 -5 -6 -9t-7 -9q-11 -20 -14.5 -42.5t-3 -45.5t2 -44t1.5 -38q0 -27 -13.5 -45.5t-34.5 -31t-47.5 -19t-53.5 -8.5l-7 29q29 8 37.5 29t8.5 47
q0 20 3.5 35t11.5 28.5t21 26.5t31 29l-2 3q-21 -13 -44 -20.5t-46 -7.5q-31 0 -52.5 10.5t-35 29t-19.5 43t-6 52.5q0 26 1.5 50t5.5 48h-72l-46 -227h-126l46 227h-75q-14 -51 -36.5 -94t-52.5 -74t-66.5 -48t-78.5 -17q-31 0 -52 8t-37 19q-2 13 1 29t10 31.5t18 28.5
t25 19l52 -69q21 7 40.5 30t34.5 59t23.5 83t8.5 104q0 49 -11.5 69.5t-34.5 20.5q-22 0 -41 -12.5t-33 -26.5z" />
    <glyph glyph-name="uni0498" unicode="&#x498;" horiz-adv-x="585" 
d="M157 -200q-6 48 -9.5 97.5t-0.5 94.5q-46 5 -82.5 17.5t-58.5 27.5q4 16 11.5 37.5t16.5 44.5t19.5 46t21.5 42h41l11 -138q11 -7 34.5 -11.5t44.5 -4.5q85 0 133 49t48 131q0 91 -108 91l-79 -13q-2 18 2.5 41.5t14.5 42.5l31 -1q17 -1 40 0t40 3q49 21 80 64.5t31 94.5
q0 45 -22 68t-75 23q-46 -2 -74 -19l-76 -127h-42q-1 35 0.5 78t11.5 90q24 13 51 21t54.5 13t53.5 7t47 2q48 0 89.5 -8t72 -25t47.5 -45t17 -68q0 -26 -8.5 -54t-28.5 -54.5t-53.5 -48.5t-83.5 -35v-4q22 -2 44.5 -11t41 -25.5t30 -41t11.5 -58.5q0 -99 -67.5 -161.5
t-185.5 -78.5q-7 -20 -17 -44.5t-22 -50t-25.5 -51.5t-28.5 -48h-44v0z" />
    </font>
</defs>
</svg>
