<?xml version="1.0" standalone="no"?>
<!DOCTYPE svg PUBLIC "-//W3C//DTD SVG 1.1//EN" "http://www.w3.org/Graphics/SVG/1.1/DTD/svg11.dtd" >
<svg xmlns="http://www.w3.org/2000/svg" xmlns:xlink="http://www.w3.org/1999/xlink" version="1.1">
<metadata>
Created by FontForge 20170731 at Wed Nov  9 16:46:56 2016
 By Aleksey,,,
Copyright 2014 The Nunito Project Authors (contact@sansoxygen.com)
</metadata>
<defs>
<font id="Nunito-LightItalic" horiz-adv-x="600" >
  <font-face 
    font-family="Nunito Light"
    font-weight="300"
    font-style="italic"
    font-stretch="normal"
    units-per-em="1000"
    panose-1="0 0 4 0 0 0 0 0 0 0"
    ascent="800"
    descent="-200"
    x-height="485"
    cap-height="710"
    bbox="-333 -275 1291 1084"
    underline-thickness="50"
    underline-position="-150"
    slope="-4.541"
    unicode-range="U+000D-FB02"
  />
<missing-glyph horiz-adv-x="443" 
d="M363 705v-885h-281v885h281zM295 646h-146v-29h57v-33h-58v-29h147v29h-59v33h59v29zM236 532h-88v-92h147v30h-59v62zM206 501v-31h-29v31h29zM295 416h-147v-30h58v-32h-58v-30h88v62h59v30zM295 363h-29v-59h-118v-30h147v89zM295 255h-89v-50h30v20h30v-41h-89v71
h-29v-100h147v100zM295 101h-147v-100h147v100zM266 72v-41h-89v41h89zM295 -19h-147v-29h62l-62 -42v-29h147v29h-91l62 42h29v29z" />
    <glyph glyph-name="fi" unicode="fi" horiz-adv-x="534" 
d="M466 478.5q7 -6.5 6 -17.5l-35 -435q-1 -16 -10 -23.5t-22 -7.5t-21.5 7.5t-7.5 23.5l33 410h-229l-32 -411q-1 -15 -10 -22.5t-21 -7.5q-13 0 -22 7.5t-8 22.5l31 411h-73q-12 0 -18.5 6.5t-6.5 17.5t6.5 18t18.5 7h77l2 25q8 96 56 143t143 52l18 1q14 1 21.5 -6
t7.5 -17q0 -11 -7 -18.5t-19 -8.5l-29 -2q-62 -4 -93 -37t-36 -100l-2 -32h263q12 0 19 -6.5zM489.5 683q12.5 -12 12.5 -32q0 -19 -12.5 -31t-32.5 -12t-32.5 12t-12.5 31q0 20 12.5 32t32.5 12t32.5 -12z" />
    <glyph glyph-name="fl" unicode="fl" horiz-adv-x="537" 
d="M363 700q8 -7 8 -18q0 -10 -7.5 -17.5t-19.5 -8.5l-29 -2q-62 -4 -93 -37t-36 -100l-2 -32h121q12 0 18.5 -6.5t6.5 -17.5t-6.5 -18t-19.5 -7h-124l-32 -411q-1 -15 -10 -22.5t-21 -7.5q-13 0 -22 7.5t-8 22.5l31 411h-73q-12 0 -18.5 7t-6.5 18t6.5 17.5t18.5 6.5h77
l2 25q8 96 56 143t143 52l17 1q15 1 23 -6zM384 2.5q-8 7.5 -6 23.5l52 657q1 14 10.5 21t22.5 7t21 -7t7 -21l-52 -657q-2 -16 -11 -23.5t-22 -7.5q-14 0 -22 7.5z" />
    <glyph glyph-name=".notdef" horiz-adv-x="443" 
d="M363 705v-885h-281v885h281zM295 646h-146v-29h57v-33h-58v-29h147v29h-59v33h59v29zM236 532h-88v-92h147v30h-59v62zM206 501v-31h-29v31h29zM295 416h-147v-30h58v-32h-58v-30h88v62h59v30zM295 363h-29v-59h-118v-30h147v89zM295 255h-89v-50h30v20h30v-41h-89v71
h-29v-100h147v100zM295 101h-147v-100h147v100zM266 72v-41h-89v41h89zM295 -19h-147v-29h62l-62 -42v-29h147v29h-91l62 42h29v29z" />
    <glyph glyph-name=".null" horiz-adv-x="0" 
 />
    <glyph glyph-name="nonmarkingreturn" unicode="&#xd;" horiz-adv-x="252" 
 />
    <glyph glyph-name="NULL" horiz-adv-x="0" 
 />
    <glyph glyph-name="NULL" horiz-adv-x="0" 
 />
    <glyph glyph-name="space" unicode=" " horiz-adv-x="252" 
 />
    <glyph glyph-name="exclam" unicode="!" horiz-adv-x="220" 
d="M90.5 174q-5.5 6 -4.5 16l20 483q1 17 12.5 27t28.5 10q16 0 25.5 -10.5t7.5 -27.5l-55 -482q-1 -10 -7 -16t-14 -6t-13.5 6zM61.5 8.5q-13.5 13.5 -13.5 34.5t13.5 34.5t33.5 13.5t33 -13.5t13 -34.5t-13 -34.5t-33 -13.5t-33.5 13.5z" />
    <glyph glyph-name="quotedbl" unicode="&#x22;" horiz-adv-x="408" 
d="M108 435q-5 6 -5 16l1 216q0 21 11 32t28 11q15 0 24 -9t9 -25l-1 -9l-31 -216q-3 -22 -22 -22q-9 0 -14 6zM304 435q-5 6 -5 16l1 216q0 21 11 32t28 11q15 0 24 -9t9 -25l-1 -9l-31 -216q-3 -22 -22 -22q-9 0 -14 6z" />
    <glyph glyph-name="numbersign" unicode="#" 
d="M460 477l-47 -241h124q11 0 19 -8t8 -19q0 -10 -8 -16.5t-19 -6.5h-134l-33 -171q-1 -9 -8 -14.5t-17 -5.5q-13 0 -20.5 10t-4.5 24l31 157h-147l-33 -171q-1 -9 -8 -14.5t-17 -5.5q-13 0 -20.5 10t-4.5 24l31 157h-92q-11 0 -19 8t-8 19q0 10 8 16.5t19 6.5h101l47 241
h-128q-11 0 -19 8t-8 19q0 10 8 16.5t19 6.5h138l32 166q1 9 8.5 14.5t17.5 5.5q13 0 20.5 -10t4.5 -24l-30 -152h146l32 166q2 9 9 14.5t17 5.5q13 0 20.5 -10t4.5 -24l-30 -152h87q11 0 19 -8t8 -19q0 -10 -8 -16.5t-19 -6.5h-97zM360 236l47 241h-146l-47 -241h146z" />
    <glyph glyph-name="dollar" unicode="$" 
d="M577 602q0 -12 -7.5 -20.5t-19.5 -8.5t-23 10q-43 39 -93 57t-111 18q-79 0 -125 -39t-46 -106q0 -41 24.5 -67.5t59.5 -41.5t97 -35q68 -21 109 -39.5t69.5 -52t28.5 -86.5q0 -85 -60.5 -139.5t-162.5 -59.5l-6 -82q-1 -13 -9 -21.5t-20 -8.5t-19.5 8.5t-6.5 21.5l6 82
q-126 10 -208 82q-16 13 -16 31q0 11 7 19.5t17 8.5q9 0 16 -7q49 -41 100.5 -60t113.5 -19q88 0 136.5 37t48.5 103q0 36 -22.5 59t-56 37t-91.5 32q-70 21 -114 41t-74.5 57t-30.5 96q0 58 29 104t81.5 72.5t120.5 27.5l7 82q1 13 9 21.5t20 8.5t19.5 -8.5t6.5 -21.5
l-6 -85q57 -6 106.5 -28t85.5 -57q10 -10 10 -23z" />
    <glyph glyph-name="percent" unicode="%" horiz-adv-x="923" 
d="M243 -17q-10 0 -17 7t-7 18q0 10 6 20l445 677q11 17 28 17q10 0 17.5 -7t7.5 -17q0 -11 -7 -21l-445 -677q-11 -17 -28 -17zM122 331q-42 49 -42 141q0 113 46 177t127 64q79 0 120.5 -48.5t41.5 -142.5q0 -113 -46 -176.5t-127 -63.5q-78 0 -120 49zM326.5 381
q29.5 51 29.5 148q0 70 -25.5 103.5t-77.5 33.5q-56 0 -85 -51.5t-29 -149.5q0 -69 25 -102t78 -33q55 0 84.5 51zM568.5 41.5q-41.5 48.5 -41.5 140.5q0 114 45.5 178t127.5 64q79 0 120 -48.5t41 -142.5q0 -113 -45.5 -176.5t-127.5 -63.5q-78 0 -119.5 48.5zM773 92
q29 51 29 148q0 70 -25 103t-77 33q-56 0 -85 -51t-29 -149q0 -70 25 -102.5t78 -32.5q55 0 84 51z" />
    <glyph glyph-name="ampersand" unicode="&#x26;" horiz-adv-x="656" 
d="M628 17q0 -11 -8.5 -18.5t-19.5 -7.5q-13 0 -23 11l-83 93q-41 -49 -96 -75.5t-121 -26.5q-64 0 -114 22.5t-77.5 63.5t-27.5 94q0 64 39.5 115.5t129.5 106.5h0.5t0.5 1q-49 56 -67 91.5t-18 75.5q0 67 45 108t119 41q69 0 109.5 -37t40.5 -100q0 -52 -31 -92.5
t-116 -96.5l179 -203q43 83 49 204q1 13 9.5 20.5t20.5 7.5t19.5 -7.5t6.5 -21.5q-8 -144 -67 -245l93 -105q8 -9 8 -19zM218.5 502.5q14.5 -28.5 56.5 -77.5q72 46 98.5 77.5t26.5 68.5q0 41 -25.5 65.5t-66.5 24.5q-47 0 -75.5 -27t-28.5 -71q0 -32 14.5 -60.5zM379.5 68
q45.5 23 79.5 67l-196 221h-1q-80 -50 -112 -90t-32 -92q0 -59 43.5 -94t117.5 -35q55 0 100.5 23z" />
    <glyph glyph-name="quotesingle" unicode="'" horiz-adv-x="211" 
d="M108 435q-5 6 -5 16l1 216q0 21 11 32t28 11q15 0 24 -9t9 -25l-1 -9l-31 -216q-3 -22 -22 -22q-9 0 -14 6z" />
    <glyph glyph-name="parenleft" unicode="(" horiz-adv-x="297" 
d="M104 184q0 143 37 276t105 240q9 15 25 15q9 0 15.5 -5t6.5 -14q0 -7 -4 -14q-123 -240 -123 -500q0 -180 57 -337q2 -6 2 -10q0 -11 -8 -17.5t-18 -6.5q-17 0 -24 16q-71 169 -71 357z" />
    <glyph glyph-name="parenright" unicode=")" horiz-adv-x="297" 
d="M197 342q0 -142 -37 -274.5t-105 -241.5q-9 -15 -25 -15q-9 0 -15.5 5t-6.5 14q0 7 4 14q123 232 123 500q0 180 -57 337q-2 6 -2 10q0 11 8 17.5t18 6.5q17 0 24 -16q71 -173 71 -357z" />
    <glyph glyph-name="asterisk" unicode="*" horiz-adv-x="449" 
d="M436 555.5q8 -7.5 8 -18.5q0 -10 -8 -17.5t-22 -7.5l-130 4l69 -110q5 -7 5 -17t-7.5 -17.5t-16.5 -7.5q-16 0 -25 17l-61 115l-61 -116q-9 -16 -24 -16q-10 0 -17.5 7t-7.5 17q0 8 6 17l69 111l-131 -4q-14 0 -21.5 7.5t-7.5 17.5q0 11 8 18.5t21 6.5l131 -5l-69 112
q-6 9 -6 17q0 10 7.5 17t16.5 7q17 0 25 -17l61 -115l61 115q9 17 25 17q9 0 16.5 -7t7.5 -18q0 -9 -5 -17l-69 -111l130 5q14 1 22 -6.5z" />
    <glyph glyph-name="plus" unicode="+" 
d="M540.5 302q7.5 -7 7.5 -18t-8 -18.5t-19 -7.5h-195l-15 -191q-1 -11 -8.5 -19t-18.5 -8q-10 0 -17 8t-6 19l15 191h-191q-11 0 -18 7.5t-7 18.5q0 10 8 17.5t19 7.5h194l15 192q1 11 9 19t18 8t17 -8t6 -19l-15 -192h191q11 0 18.5 -7z" />
    <glyph glyph-name="comma" unicode="," horiz-adv-x="220" 
d="M127 76q13 -15 13 -43q0 -38 -14.5 -71t-39.5 -58q-10 -10 -21 -10q-9 0 -15 5.5t-6 13.5q0 10 9 19q27 29 34 64q-17 2 -28 15t-11 32q0 22 12.5 35t32.5 13q21 0 34 -15z" />
    <glyph glyph-name="hyphen" unicode="-" horiz-adv-x="421" 
d="M78 247q-7 7 -7 18q0 12 8 19.5t21 7.5h226q14 0 21 -7.5t7 -19.5q0 -11 -8 -18t-22 -7h-225q-14 0 -21 7z" />
    <glyph glyph-name="period" unicode="." horiz-adv-x="220" 
d="M61.5 8.5q-13.5 13.5 -13.5 34.5t13.5 34.5t33.5 13.5t33 -13.5t13 -34.5t-13 -34.5t-33 -13.5t-33.5 13.5z" />
    <glyph glyph-name="slash" unicode="/" horiz-adv-x="269" 
d="M-8 -60q-11 0 -19.5 7t-8.5 18q0 7 2 11l301 753q4 9 11 14t15 5q11 0 19 -7t8 -18q0 -8 -2 -12l-299 -753q-7 -18 -27 -18z" />
    <glyph glyph-name="zero" unicode="0" 
d="M123 70q-59 78 -59 229q0 130 30.5 223t88.5 142t139 49q114 0 173 -78t59 -229q0 -197 -68 -305.5t-191 -108.5q-113 0 -172 78zM441 140.5q49 93.5 49 276.5q0 123 -41 182t-127 59q-95 0 -144.5 -93.5t-49.5 -276.5q0 -123 41.5 -182t127.5 -59q95 0 144 93.5z" />
    <glyph glyph-name="one" unicode="1" 
d="M491.5 46.5q7.5 -7.5 7.5 -19.5t-7.5 -19.5t-20.5 -7.5h-329q-12 0 -19.5 7.5t-7.5 18.5q0 12 7.5 20t20.5 8h135l46 572l-113 -69q-7 -4 -15 -4q-12 0 -20 8.5t-8 20.5q0 15 14 23l159 100q11 7 23 7t19 -7.5t6 -18.5l-50 -632h133q12 0 19.5 -7.5z" />
    <glyph glyph-name="two" unicode="2" 
d="M524 29q0 -12 -7 -20.5t-22 -8.5h-401q-12 0 -19.5 7t-7.5 18q0 14 13 27l268 272q65 66 91.5 114t26.5 100q0 55 -35 88t-94 33q-56 0 -103.5 -18.5t-91.5 -55.5q-12 -9 -22 -9t-16 6.5t-6 17.5q0 16 17 32q41 37 100 59t121 22q88 0 140 -47t52 -127q0 -64 -32 -123
t-108 -135l-228 -227h340q24 0 24 -25z" />
    <glyph glyph-name="three" unicode="3" 
d="M484.5 304q31.5 -41 31.5 -102q0 -63 -28.5 -110t-82 -73t-124.5 -26q-64 0 -121 21t-98 56q-11 10 -11 24q0 12 7.5 20.5t18.5 8.5q12 0 21 -8q81 -68 186 -68q79 0 124.5 40t45.5 113q0 131 -164 131h-56q-11 0 -17.5 8t-6.5 20t6.5 19t18.5 7h54q81 0 129 42.5
t48 115.5q0 53 -36 84.5t-96 31.5q-54 0 -101 -18.5t-91 -55.5q-12 -9 -22 -9t-16 6.5t-6 17.5q0 16 17 32q41 37 100 59t122 22q87 0 139 -46t52 -123q0 -62 -35.5 -112t-96.5 -72q57 -15 88.5 -56z" />
    <glyph glyph-name="four" unicode="4" 
d="M554 205.5q7 -7.5 7 -19.5t-7.5 -19t-20.5 -7h-89l-11 -136q-1 -13 -10 -21t-21 -8q-13 0 -22 9t-8 23l11 133h-305q-14 0 -23.5 7t-9.5 19q0 11 10 24l373 485q13 16 30 16q13 0 20.5 -8t6.5 -22l-37 -468h86q13 0 20 -7.5zM124 213h263l30 381z" />
    <glyph glyph-name="five" unicode="5" 
d="M199 652l-22 -277q29 30 71 46.5t88 16.5q62 0 109.5 -25.5t73.5 -71.5t26 -106q0 -71 -30.5 -126t-85.5 -85.5t-126 -30.5q-60 0 -116.5 21t-96.5 57q-12 11 -12 26q0 11 7.5 19.5t18.5 8.5q13 0 23 -9q82 -69 178 -69q81 0 129 50.5t48 134.5q0 69 -41.5 110.5
t-109.5 41.5q-105 0 -168 -81q-10 -12 -26 -12q-12 0 -19.5 8.5t-6.5 24.5l28 350q1 14 10 22.5t23 8.5h359q14 0 21.5 -7t7.5 -19q0 -13 -7.5 -20t-21.5 -7h-332z" />
    <glyph glyph-name="six" unicode="6" horiz-adv-x="599" 
d="M578 603q0 -12 -7 -20t-18 -8t-25 12q-35 34 -79.5 53t-92.5 19q-96 0 -154.5 -80.5t-70.5 -230.5l-3 -36q27 58 79 92t118 34q65 0 115 -26.5t77 -75t27 -111.5q0 -67 -29.5 -120t-82 -83t-117.5 -30q-119 0 -183.5 78t-64.5 223q0 127 35.5 222t101 146.5t152.5 51.5
q62 0 116.5 -21t93.5 -62q12 -13 12 -27zM229.5 361.5q-39.5 -22.5 -61.5 -63t-22 -90.5q0 -73 46.5 -117.5t122.5 -44.5q74 0 120 49.5t46 129.5q0 72 -44.5 115.5t-118.5 43.5q-49 0 -88.5 -22.5z" />
    <glyph glyph-name="seven" unicode="7" 
d="M556.5 697.5q7.5 -7.5 7.5 -19.5q0 -10 -6 -22l-376 -649q-10 -17 -27 -17q-11 0 -19.5 7.5t-8.5 19.5q0 6 5 16l358 618h-353q-14 0 -22 7.5t-8 19.5q0 13 8 20t22 7h399q13 0 20.5 -7.5z" />
    <glyph glyph-name="eight" unicode="8" 
d="M544 189q0 -59 -30.5 -103t-87.5 -68t-134 -24q-119 0 -182 48t-63 139q0 64 39.5 114t107.5 68q-51 19 -78 59t-27 96q0 58 29.5 102t84 68.5t126.5 24.5q107 0 166 -46.5t59 -126.5q0 -65 -35 -113t-95 -68q120 -37 120 -170zM194.5 418.5q42.5 -34.5 122.5 -34.5
q84 0 129 40t45 110q0 60 -41 92.5t-122 32.5q-85 0 -130.5 -38t-45.5 -107q0 -61 42.5 -95.5zM431 85q50 37 50 105q0 73 -42.5 106.5t-139.5 33.5q-189 0 -189 -149q0 -133 179 -133q92 0 142 37z" />
    <glyph glyph-name="nine" unicode="9" 
d="M486.5 635q64.5 -78 64.5 -223q0 -127 -35.5 -222t-101 -146.5t-152.5 -51.5q-62 0 -116.5 21t-93.5 62q-12 12 -12 27q0 12 7 20t18 8q12 0 25 -12q35 -34 79.5 -53t92.5 -19q96 0 154.5 80.5t70.5 230.5l3 36q-27 -58 -79 -92t-118 -34q-65 0 -115 26.5t-77 75
t-27 111.5q0 67 29.5 120t82 83t117.5 30q119 0 183.5 -78zM388.5 343.5q39.5 22.5 61.5 63t22 90.5q0 73 -46.5 117.5t-122.5 44.5q-74 0 -120 -49.5t-46 -129.5q0 -72 44.5 -115.5t118.5 -43.5q49 0 88.5 22.5z" />
    <glyph glyph-name="colon" unicode=":" horiz-adv-x="220" 
d="M93.5 413.5q-13.5 13.5 -13.5 34.5t13.5 34.5t33.5 13.5t33 -13.5t13 -34.5t-13 -34.5t-33 -13.5t-33.5 13.5zM61.5 8.5q-13.5 13.5 -13.5 34.5t13.5 34.5t33.5 13.5t33 -13.5t13 -34.5t-13 -34.5t-33 -13.5t-33.5 13.5z" />
    <glyph glyph-name="semicolon" unicode=";" horiz-adv-x="220" 
d="M160 482.5q13 -13.5 13 -34.5t-13 -34.5t-33 -13.5t-33.5 13.5t-13.5 34.5t13.5 34.5t33.5 13.5t33 -13.5zM127 76q13 -15 13 -43q0 -38 -14.5 -71t-39.5 -58q-10 -10 -21 -10q-9 0 -15 5.5t-6 13.5q0 10 9 19q27 29 34 64q-17 2 -28 15t-11 32q0 22 12.5 35t32.5 13
q21 0 34 -15z" />
    <glyph glyph-name="less" unicode="&#x3c;" 
d="M538 518q11 0 18.5 -6.5t7.5 -16.5q0 -15 -16 -22l-427 -189l397 -190q12 -6 12 -19q0 -12 -8.5 -19.5t-20.5 -7.5q-8 0 -18 5l-403 194q-20 11 -20 34q0 13 7 23.5t19 15.5l434 194q8 4 18 4z" />
    <glyph glyph-name="equal" unicode="=" 
d="M73 366q-7 8 -7 19q0 10 8 17t19 7h435q11 0 18 -8t7 -19q0 -10 -8 -17t-19 -7h-435q-11 0 -18 8zM58 166q-7 8 -7 19q0 10 8 17t19 7h435q11 0 18 -8t7 -19q0 -10 -8 -17t-19 -7h-435q-11 0 -18 8z" />
    <glyph glyph-name="greater" unicode="&#x3e;" 
d="M548 284q-3 -26 -27 -37l-434 -194q-12 -5 -19 -5q-12 0 -19.5 7t-6.5 17q2 15 17 22l427 189l-397 190q-13 6 -13 22q1 10 9.5 16.5t20.5 6.5q10 0 18 -4l403 -194q23 -11 21 -36z" />
    <glyph glyph-name="question" unicode="?" horiz-adv-x="436" 
d="M183 174q-5 6 -4 16q3 47 18.5 84.5t36 65.5t53.5 65q43 48 63 82t20 79q0 43 -31 68t-85 25q-50 0 -93.5 -18t-95.5 -57q-11 -8 -21 -8q-9 0 -14 6.5t-5 16.5q0 20 15 32q42 38 101.5 60t116.5 22q81 0 128.5 -38.5t47.5 -102.5q0 -40 -14 -73t-34 -59t-56 -64
q-49 -52 -76.5 -93t-36.5 -96q-5 -19 -20 -19q-9 0 -14 6zM152.5 8.5q-13.5 13.5 -13.5 34.5t13.5 34.5t33.5 13.5t33 -13.5t13 -34.5t-13 -34.5t-33 -13.5t-33.5 13.5z" />
    <glyph glyph-name="at" unicode="@" horiz-adv-x="922" 
d="M254.5 -97q-95.5 53 -147 149.5t-51.5 222.5q0 130 55 228.5t151 152.5t214 54q128 0 218.5 -53.5t136 -137t45.5 -174.5q0 -101 -30 -164t-75 -90t-94 -27q-54 0 -84 23.5t-31 66.5h-2q-24 -41 -63.5 -65.5t-89.5 -24.5q-63 0 -104 45.5t-41 127.5q0 67 26.5 127
t74.5 97t111 37q49 0 85 -24t46 -61h1l9 53q2 10 9.5 15.5t18.5 5.5q13 0 19.5 -8t4.5 -22l-44 -252q-3 -19 -3 -34q0 -34 16.5 -48t49.5 -14q31 0 62.5 23t53 76t21.5 137q0 77 -38.5 149t-117 118.5t-191.5 46.5q-104 0 -187.5 -47t-131.5 -134t-48 -203q0 -113 44 -197.5
t127 -130.5t197 -46q82 0 143.5 24t101.5 67q14 14 28 14q10 0 17 -8t7 -19q0 -13 -10 -23q-48 -50 -122 -78t-165 -28q-127 0 -222.5 53zM509.5 141q38.5 32 59 82.5t20.5 106.5q0 59 -29.5 90.5t-80.5 31.5q-50 0 -87.5 -30.5t-57.5 -79t-20 -101.5q0 -63 30 -97.5
t74 -34.5q53 0 91.5 32z" />
    <glyph glyph-name="A" unicode="A" horiz-adv-x="720" 
d="M668 24q0 -13 -9 -21.5t-21 -8.5q-9 0 -16.5 6t-11.5 17l-61 171h-383l-89 -175q-8 -18 -27 -18q-12 0 -20.5 8t-8.5 20q0 8 4 16l334 647q12 24 37 24q12 0 22 -7t15 -21l233 -646q2 -4 2 -12zM193 242h337l-139 388z" />
    <glyph glyph-name="B" unicode="B" horiz-adv-x="670" 
d="M572 304q30 -40 30 -100q0 -97 -62.5 -150.5t-175.5 -53.5h-255q-16 0 -25.5 10.5t-7.5 26.5l49 637q1 14 10.5 22.5t23.5 8.5h230q109 0 166 -44.5t57 -127.5q0 -63 -33 -108t-96 -66q59 -15 89 -55zM185 652l-21 -267h211q83 0 129 37.5t46 108.5q0 121 -163 121h-202z
M495 89.5q45 36.5 45 109.5q0 132 -164 132h-216l-22 -278h226q86 0 131 36.5z" />
    <glyph glyph-name="C" unicode="C" horiz-adv-x="677" 
d="M210.5 31.5q-66.5 39.5 -102.5 114t-36 176.5q0 118 40.5 206.5t115.5 136.5t177 48q77 0 140.5 -23t106.5 -67q10 -10 10 -23q0 -12 -7.5 -20.5t-18.5 -8.5q-10 0 -19 8q-43 41 -93.5 60t-120.5 19q-83 0 -143.5 -40.5t-92 -116.5t-31.5 -180q0 -131 63 -202.5
t179 -71.5q55 0 106.5 19t93.5 57q11 10 22 10q10 0 16 -7.5t6 -18.5q0 -14 -11 -24q-99 -91 -246 -91q-88 0 -154.5 39.5z" />
    <glyph glyph-name="D" unicode="D" horiz-adv-x="731" 
d="M83.5 10.5q-9.5 10.5 -7.5 26.5l49 637q1 14 10.5 22.5t23.5 8.5h190q158 0 243 -84t85 -238q0 -119 -41.5 -205t-120.5 -132t-191 -46h-215q-16 0 -25.5 10.5zM322 54q143 0 216.5 85.5t73.5 244.5q0 267 -265 267h-162l-47 -597h184z" />
    <glyph glyph-name="E" unicode="E" horiz-adv-x="579" 
d="M558.5 697.5q7.5 -7.5 7.5 -18.5q0 -12 -7.5 -19.5t-20.5 -7.5h-353l-21 -267h330q12 0 19.5 -7.5t7.5 -19.5t-7.5 -19.5t-20.5 -7.5h-333l-22 -278h350q12 0 19.5 -7.5t7.5 -18.5q0 -12 -7.5 -19.5t-20.5 -7.5h-382q-16 0 -23.5 8.5t-6.5 24.5l50 642q2 30 33 30h381
q12 0 19.5 -7.5z" />
    <glyph glyph-name="F" unicode="F" horiz-adv-x="553" 
d="M548.5 697.5q7.5 -7.5 7.5 -18.5q0 -12 -7.5 -19.5t-20.5 -7.5h-343l-21 -267h320q12 0 19.5 -7.5t7.5 -19.5t-7.5 -19.5t-20.5 -7.5h-324l-24 -307q-1 -14 -9.5 -21.5t-21.5 -7.5t-22 9t-8 23l51 648q1 15 10 22.5t24 7.5h370q12 0 19.5 -7.5z" />
    <glyph glyph-name="G" unicode="G" horiz-adv-x="719" 
d="M265.5 617q-63.5 -41 -97 -118t-33.5 -183q0 -130 64 -200t190 -70q44 0 91.5 8.5t86.5 23.5l18 231h-158q-14 0 -22 7t-8 19t8 19t22 7h182q16 0 25 -10t8 -26l-19 -259q-3 -26 -24 -34q-43 -18 -101 -29t-109 -11q-154 0 -236 84.5t-82 235.5q0 121 42.5 211.5
t120.5 139.5t183 49q147 0 235 -85q13 -10 13 -28q0 -12 -7.5 -20.5t-17.5 -8.5q-9 0 -19 8q-46 42 -94.5 61t-109.5 19q-88 0 -151.5 -41z" />
    <glyph glyph-name="H" unicode="H" horiz-adv-x="754" 
d="M689 701.5q9 -8.5 8 -23.5l-52 -654q-1 -13 -9.5 -21t-21.5 -8t-22 8.5t-8 23.5l24 304h-448l-24 -307q-1 -13 -10 -21t-21 -8q-13 0 -22 9t-8 23l51 654q1 13 10 21t21 8q13 0 22 -8.5t8 -23.5l-23 -293h448l24 296q1 13 9.5 21t21.5 8t22 -8.5z" />
    <glyph glyph-name="I" unicode="I" horiz-adv-x="244" 
d="M83 4q-9 9 -8 23l51 654q1 13 10 21t21 8q14 0 22.5 -8.5t7.5 -23.5l-51 -654q-1 -14 -9.5 -21.5t-21.5 -7.5t-22 9z" />
    <glyph glyph-name="J" unicode="J" horiz-adv-x="311" 
d="M-19.5 2q-7.5 8 -6.5 21q0 10 7 16.5t19 7.5l32 2q55 4 86 38.5t36 96.5l39 495q1 14 10 22.5t23 8.5t22 -8.5t7 -22.5l-40 -497q-7 -87 -52.5 -133.5t-127.5 -51.5l-33 -2q-14 -1 -21.5 7z" />
    <glyph glyph-name="K" unicode="K" horiz-adv-x="613" 
d="M578 709q11 0 19.5 -8t8.5 -19q0 -13 -11 -21l-374 -301l343 -318q9 -9 9 -19q0 -11 -8.5 -19t-19.5 -8t-19 8l-365 336l-25 -316q-1 -12 -10 -20.5t-21 -8.5q-13 0 -22 9.5t-8 22.5l51 654q1 12 10 20.5t21 8.5q13 0 22.5 -9.5t7.5 -22.5l-23 -298l397 323q8 6 17 6z
" />
    <glyph glyph-name="L" unicode="L" horiz-adv-x="533" 
d="M81 8.5q-8 8.5 -6 24.5l51 648q1 13 10 21t22 8q14 0 22 -8.5t7 -23.5l-49 -624h341q12 0 19.5 -7.5t7.5 -19.5t-7.5 -19.5t-20.5 -7.5h-373q-16 0 -24 8.5z" />
    <glyph glyph-name="M" unicode="M" horiz-adv-x="840" 
d="M778 704.5q7 -7.5 5 -18.5l-52 -664q-1 -13 -9.5 -20t-20.5 -7t-20.5 8.5t-7.5 22.5l45 554l-275 -454q-5 -8 -13 -13t-18 -5q-23 0 -32 21l-203 450l-44 -557q-1 -13 -9.5 -20t-20.5 -7t-20.5 8.5t-7.5 22.5l51 653q1 14 9.5 22.5t22.5 8.5q19 0 30 -23l228 -515
l310 520q11 20 32 20q13 0 20 -7.5z" />
    <glyph glyph-name="N" unicode="N" horiz-adv-x="735" 
d="M671.5 701q8.5 -9 7.5 -22l-52 -654q-2 -30 -28 -30q-17 0 -30 17l-391 591l-47 -580q-1 -13 -9 -20.5t-20 -7.5t-20.5 9t-7.5 23l51 652q1 15 9.5 23t21.5 8q18 0 28 -17l391 -587l46 576q1 13 9 20.5t21 7.5q12 0 20.5 -9z" />
    <glyph glyph-name="O" unicode="O" horiz-adv-x="757" 
d="M215 31.5q-69 39.5 -106 114t-37 176.5q0 118 40 206.5t113 136.5t170 48q95 0 164 -39.5t106 -114t37 -176.5q0 -118 -39.5 -206.5t-113 -136.5t-171.5 -48q-94 0 -163 39.5zM517.5 88q58.5 40 89.5 115.5t31 179.5q0 133 -63 203.5t-180 70.5q-80 0 -138.5 -40
t-89.5 -116t-31 -180q0 -132 63 -202.5t180 -70.5q80 0 138.5 40z" />
    <glyph glyph-name="P" unicode="P" horiz-adv-x="638" 
d="M553.5 654q57.5 -51 57.5 -140q0 -108 -66 -162.5t-182 -54.5h-207l-21 -273q-1 -13 -10 -21t-21 -8q-13 0 -22 9t-8 23l51 648q2 30 33 30h230q108 0 165.5 -51zM549 512q0 68 -40.5 104t-122.5 36h-202l-24 -302h202q187 0 187 162z" />
    <glyph glyph-name="Q" unicode="Q" horiz-adv-x="757" 
d="M643.5 138.5q-58.5 -99.5 -168.5 -131.5q18 -8 33 -24.5t29 -44.5l43 -80q4 -7 4 -15q0 -12 -9 -19.5t-21 -7.5q-19 0 -29 18l-52 97q-33 59 -114 62q-86 3 -150.5 42.5t-100.5 112.5t-36 174q0 118 40 206.5t113 136.5t170 48q95 0 164 -39.5t106 -114t37 -176.5
q0 -145 -58.5 -244.5zM517.5 88q58.5 40 89.5 115.5t31 179.5q0 133 -63 203.5t-180 70.5q-80 0 -138.5 -40t-89.5 -116t-31 -180q0 -132 63 -202.5t180 -70.5q80 0 138.5 40z" />
    <glyph glyph-name="R" unicode="R" horiz-adv-x="682" 
d="M603 36q4 -7 4 -15q0 -11 -9 -18.5t-21 -7.5q-19 0 -29 19l-115 212q-24 46 -53.5 63t-83.5 17h-138l-22 -282q-1 -14 -9.5 -21.5t-22.5 -7.5t-22.5 8.5t-6.5 24.5l50 646q1 14 10.5 22.5t23.5 8.5h245q107 0 164.5 -47t57.5 -137q0 -92 -52 -145.5t-153 -61.5
q22 -9 38.5 -27.5t34.5 -50.5zM380 359q93 0 139 38.5t46 119.5q0 69 -40.5 102t-121.5 33h-218l-23 -293h218z" />
    <glyph glyph-name="S" unicode="S" horiz-adv-x="607" 
d="M50 74q-16 13 -16 31q0 12 7 20t17 8t16 -6q50 -42 104.5 -61.5t123.5 -19.5q93 0 142 36t49 100q0 38 -23.5 63t-59.5 39t-96 31q-75 21 -121 40.5t-78 58.5t-32 103q0 59 31 103.5t88.5 68.5t134.5 24q72 0 135 -23t107 -65q10 -10 10 -24q0 -11 -7.5 -19.5t-18.5 -8.5
q-13 0 -24 10q-40 36 -91.5 56t-110.5 20q-93 0 -142 -37t-49 -103q0 -43 25.5 -71t63.5 -43t101 -33q73 -21 116.5 -39.5t73.5 -54t30 -93.5q0 -89 -68.5 -141t-185.5 -52q-159 0 -252 82z" />
    <glyph glyph-name="T" unicode="T" horiz-adv-x="590" 
d="M256 4q-9 9 -8 23l49 624h-229q-12 0 -19.5 7.5t-7.5 19.5t7.5 19.5t20.5 7.5h523q12 0 19.5 -7.5t7.5 -19.5t-7.5 -19.5t-20.5 -7.5h-232l-50 -627q-1 -13 -9.5 -21t-21.5 -8t-22 9z" />
    <glyph glyph-name="U" unicode="U" horiz-adv-x="720" 
d="M152.5 54.5q-65.5 62.5 -65.5 179.5q0 12 2 38l32 409q1 13 10 21t21 8q13 0 22 -9t8 -23l-32 -403q-1 -12 -1 -34q0 -194 196 -194q107 0 163.5 53.5t65.5 163.5l33 417q1 13 9.5 21t21.5 8t22 -8.5t8 -23.5l-33 -407q-11 -140 -84 -209.5t-206 -69.5
q-127 0 -192.5 62.5z" />
    <glyph glyph-name="V" unicode="V" horiz-adv-x="680" 
d="M666 710q11 0 19.5 -7t8.5 -18q0 -8 -4 -16l-332 -652q-12 -22 -36 -22q-12 0 -22 7t-14 19l-231 649q-2 8 -2 11q0 13 9 21t21 8q21 0 28 -20l216 -612l312 616q7 16 27 16z" />
    <glyph glyph-name="W" unicode="W" horiz-adv-x="1096" 
d="M1056 710q11 0 19 -7t8 -18q0 -7 -3 -15l-279 -653q-4 -11 -13.5 -16.5t-19.5 -5.5q-11 0 -20 6.5t-12 19.5l-159 587l-253 -591q-4 -11 -13.5 -16.5t-19.5 -5.5q-11 0 -20 6.5t-13 19.5l-176 651q-1 3 -1 10q0 13 9 20.5t21 7.5q10 0 17.5 -5.5t10.5 -16.5l159 -601
l254 598q5 12 13.5 18.5t18.5 6.5t18.5 -6.5t11.5 -18.5l158 -597l257 605q7 17 27 17z" />
    <glyph glyph-name="X" unicode="X" horiz-adv-x="638" 
d="M597 710q11 0 20 -8t9 -19t-8 -20l-254 -302l220 -319q6 -8 6 -19q0 -12 -9.5 -20t-21.5 -8q-17 0 -25 14l-208 306l-260 -309q-10 -12 -23 -12q-12 0 -20.5 8t-8.5 20q0 10 9 22l270 319l-207 300q-6 9 -6 18q0 12 10 20.5t22 8.5q14 0 23 -13l197 -289l242 291
q10 11 23 11z" />
    <glyph glyph-name="Y" unicode="Y" horiz-adv-x="591" 
d="M587 710q11 0 18 -7t7 -18q0 -12 -8 -21l-271 -327l-24 -313q-1 -13 -10 -21t-21 -8q-13 0 -22.5 9t-8.5 23l25 310l-220 327q-7 10 -7 19q0 12 9 19t21 7q16 0 25 -13l205 -306l251 303q14 17 31 17z" />
    <glyph glyph-name="Z" unicode="Z" horiz-adv-x="584" 
d="M568.5 697.5q6.5 -7.5 6.5 -17.5q0 -14 -8 -23l-463 -604h405q13 0 20 -7t7 -19t-7.5 -19.5t-20.5 -7.5h-459q-12 0 -19 7.5t-7 19.5q0 11 7 21l464 604h-394q-12 0 -19.5 7.5t-7.5 18.5q0 12 7.5 19.5t20.5 7.5h450q11 0 17.5 -7.5z" />
    <glyph glyph-name="bracketleft" unicode="[" horiz-adv-x="297" 
d="M102.5 -156q-21.5 24 -17.5 69l55 699q3 45 28.5 69t70.5 24h64q14 0 21.5 -6t7.5 -17q0 -12 -8.5 -19.5t-22.5 -7.5h-53q-44 0 -47 -46l-55 -693q-3 -46 39 -46h53q27 0 27 -24q0 -13 -8 -19.5t-22 -6.5h-66q-45 0 -66.5 24z" />
    <glyph glyph-name="backslash" unicode="\" horiz-adv-x="269" 
d="M24 712q-4 16 6 26.5t24 10.5q9 0 16 -5.5t10 -16.5l181 -752q4 -15 -6 -25t-24 -10q-22 0 -26 21z" />
    <glyph glyph-name="bracketright" unicode="]" horiz-adv-x="297" 
d="M198.5 681q21.5 -24 17.5 -69l-55 -699q-5 -45 -29.5 -69t-69.5 -24h-64q-14 0 -21.5 6t-7.5 17q0 12 8.5 19.5t21.5 7.5h54q44 0 47 46l55 693q2 23 -8 34.5t-32 11.5h-52q-27 0 -27 24q0 13 8 19.5t22 6.5h66q45 0 66.5 -24z" />
    <glyph glyph-name="asciicircum" unicode="^" 
d="M530 167q0 -11 -9 -19t-19 -8q-14 0 -18 12l-159 411l-222 -411q-6 -12 -19 -12q-10 0 -17.5 6.5t-7.5 17.5q0 7 4 15l232 427q5 10 14.5 16t21.5 6q11 0 19.5 -6t12.5 -16l165 -428q2 -8 2 -11z" />
    <glyph glyph-name="underscore" unicode="_" horiz-adv-x="500" 
d="M-14.5 -37q-6.5 6 -6.5 15q1 9 8.5 15.5t18.5 6.5h450q11 0 17.5 -6.5t5.5 -15.5q0 -9 -7.5 -15t-19.5 -6h-449q-11 0 -17.5 6z" />
    <glyph glyph-name="grave" unicode="`" horiz-adv-x="300" 
d="M62 709q-6 11 -6 20q0 13 9 21.5t21 8.5q21 0 31 -23l70 -164q2 -4 2 -10q0 -8 -5.5 -12.5t-13.5 -4.5q-13 0 -20 11z" />
    <glyph glyph-name="a" unicode="a" horiz-adv-x="526" 
d="M454 337q0 -16 -1 -25l-22 -289q-1 -13 -9 -20.5t-21 -7.5q-14 0 -22.5 9t-7.5 23l4 56q-22 -43 -62 -66.5t-92 -23.5q-73 0 -119 39t-46 100q0 55 29.5 87t94.5 46.5t175 14.5h35l3 34q1 8 1 22q0 56 -26.5 82t-81.5 26q-78 0 -164 -54q-7 -4 -13 -4q-10 0 -16.5 8
t-6.5 19q0 17 15 27q36 26 87 41.5t100 15.5q166 0 166 -160zM336 88.5q43 42.5 48 110.5l3 36h-29q-92 0 -143 -9t-73 -30.5t-22 -59.5q0 -41 30 -65.5t81 -24.5q62 0 105 42.5z" />
    <glyph glyph-name="b" unicode="b" horiz-adv-x="573" 
d="M426 468q47 -29 73 -82t26 -124q0 -80 -28.5 -141t-80 -94.5t-118.5 -33.5q-60 0 -104.5 26.5t-64.5 75.5l-6 -69q-1 -16 -10 -23.5t-22 -7.5q-14 0 -22 7.5t-6 23.5l52 657q1 13 11 20.5t22 7.5q13 0 21 -7t7 -21l-22 -275q24 42 68 65.5t96 23.5q61 0 108 -29z
M417.5 105q44.5 58 44.5 159q0 85 -41 132.5t-115 47.5q-77 0 -121.5 -58.5t-44.5 -160.5q0 -87 40.5 -132.5t115.5 -45.5q77 0 121.5 58z" />
    <glyph glyph-name="c" unicode="c" horiz-adv-x="475" 
d="M151.5 22q-49.5 29 -76 82t-26.5 123q0 81 29 142t83.5 94.5t127.5 33.5q50 0 93.5 -15t68.5 -38q12 -11 12 -26q0 -12 -7.5 -21t-17.5 -9q-7 0 -15 6q-63 50 -135 50q-83 0 -129 -58t-46 -161q0 -83 41.5 -130.5t117.5 -47.5q37 0 67.5 12.5t60.5 36.5q9 6 16 6
q10 0 17.5 -8t7.5 -18q0 -11 -9 -20q-30 -30 -74 -46.5t-92 -16.5q-65 0 -114.5 29z" />
    <glyph glyph-name="d" unicode="d" horiz-adv-x="573" 
d="M520 703.5q8 -7.5 7 -20.5l-51 -657q-1 -16 -10.5 -23.5t-22.5 -7.5t-21 7.5t-7 23.5l5 56q-25 -42 -69 -65.5t-95 -23.5q-61 0 -108 29t-73 82t-26 123q0 80 28.5 141.5t80 95t118.5 33.5q59 0 103 -25.5t65 -72.5l22 284q1 14 10.5 21t22.5 7t21 -7.5zM389.5 105.5
q44.5 58.5 44.5 159.5q0 87 -40.5 133t-115.5 46q-77 0 -121 -57.5t-44 -158.5q0 -87 40.5 -134t114.5 -47q77 0 121.5 58.5z" />
    <glyph glyph-name="e" unicode="e" horiz-adv-x="526" 
d="M112 235v-10q0 -84 42 -131t121 -47q41 0 79.5 12.5t67.5 34.5q10 7 19 7q10 0 16.5 -7t6.5 -18q0 -14 -12 -25q-27 -25 -77.5 -41.5t-101.5 -16.5q-104 0 -164 63.5t-60 170.5q0 80 29 141t83 95t126 34q96 0 146 -56.5t50 -167.5q0 -19 -9.5 -28.5t-24.5 -9.5h-337z
M171.5 403.5q-44.5 -43.5 -55.5 -123.5h311q3 82 -34 124.5t-103 42.5q-74 0 -118.5 -43.5z" />
    <glyph glyph-name="f" unicode="f" horiz-adv-x="315" 
d="M363 700q8 -7 8 -18q0 -10 -7.5 -17.5t-19.5 -8.5l-29 -2q-62 -4 -93 -37t-36 -100l-2 -32h121q12 0 18.5 -6.5t6.5 -17.5t-6.5 -18t-19.5 -7h-124l-32 -411q-1 -15 -10 -22.5t-21 -7.5q-13 0 -22 7.5t-8 22.5l31 411h-73q-12 0 -18.5 7t-6.5 18t6.5 17.5t18.5 6.5h77
l2 25q8 96 56 143t143 52l17 1q15 1 23 -6z" />
    <glyph glyph-name="g" unicode="g" horiz-adv-x="577" 
d="M508 487.5q8 -7.5 7 -23.5l-35 -436q-17 -215 -220 -215q-59 0 -108.5 15t-85.5 42q-15 11 -15 27q0 11 7.5 19t17.5 8q8 0 13 -4q42 -28 81 -40.5t90 -12.5q148 0 160 158l7 82q-23 -44 -67.5 -68t-98.5 -24q-96 0 -153.5 61t-57.5 163q0 77 28 135.5t80 90.5t120 32
q61 0 105 -26t65 -73l6 66q1 16 10 23.5t22 7.5q14 0 22 -7.5zM393.5 123.5q44.5 54.5 44.5 150.5q0 81 -41.5 125.5t-115.5 44.5q-79 0 -123 -55t-44 -152q0 -82 40.5 -125t116.5 -43q78 0 122.5 54.5z" />
    <glyph glyph-name="h" unicode="h" horiz-adv-x="561" 
d="M445 456q43 -41 43 -122q0 -18 -1 -27l-21 -281q-1 -16 -10.5 -23.5t-22.5 -7.5t-21 7.5t-7 23.5l21 277q1 8 1 23q0 117 -116 117q-74 0 -117.5 -43t-49.5 -119l-20 -255q-2 -16 -11 -23.5t-22 -7.5q-14 0 -22 7.5t-6 23.5l52 657q1 13 10.5 20.5t22.5 7.5t21 -7t7 -21
l-22 -275q25 43 68.5 66t98.5 23q81 0 124 -41z" />
    <glyph glyph-name="i" unicode="i" horiz-adv-x="222" 
d="M69 2.5q-8 7.5 -6 23.5l35 441q1 14 10.5 21t22.5 7t21 -7t7 -21l-35 -441q-2 -16 -11 -23.5t-22 -7.5q-14 0 -22 7.5zM111.5 620q-12.5 12 -12.5 31q0 20 12.5 32t32.5 12t32.5 -12t12.5 -32q0 -19 -12.5 -31t-32.5 -12t-32.5 12z" />
    <glyph glyph-name="j" unicode="j" horiz-adv-x="222" 
d="M-114.5 -177q-7.5 7 -6.5 19q0 10 7 17t19 8l29 2q62 4 92 36t35 99l37 461q1 15 10 22.5t21 7.5q13 0 22 -7.5t8 -22.5l-36 -454q-7 -95 -54.5 -141.5t-141.5 -51.5l-19 -1q-15 -1 -22.5 6zM111.5 620q-12.5 12 -12.5 31q0 20 12.5 32t32.5 12t32.5 -12t12.5 -32
q0 -19 -12.5 -31t-32.5 -12t-32.5 12z" />
    <glyph glyph-name="k" unicode="k" horiz-adv-x="484" 
d="M425 491q11 0 19 -8t8 -19t-10 -20l-229 -193l221 -209q9 -9 9 -19q0 -11 -8.5 -19.5t-19.5 -8.5t-19 8l-255 233l-17 -213q-1 -13 -9.5 -20.5t-20.5 -7.5q-13 0 -22.5 9t-8.5 23l52 655q1 13 11 20.5t22 7.5q14 0 21.5 -8.5t6.5 -23.5l-33 -417l264 223q8 7 18 7z" />
    <glyph glyph-name="l" unicode="l" horiz-adv-x="222" 
d="M69 2.5q-8 7.5 -6 23.5l52 657q1 14 10.5 21t22.5 7t21 -7t7 -21l-52 -657q-2 -16 -11 -23.5t-22 -7.5q-14 0 -22 7.5z" />
    <glyph glyph-name="m" unicode="m" horiz-adv-x="843" 
d="M732.5 456q38.5 -41 38.5 -120q0 -19 -1 -29l-22 -281q-1 -16 -10 -23.5t-22 -7.5t-21.5 7.5t-7.5 23.5l22 277q1 10 1 27q0 58 -25 85.5t-78 27.5q-67 0 -106 -42.5t-45 -120.5l-20 -254q-1 -16 -10 -23.5t-22 -7.5t-21.5 7.5t-7.5 23.5l22 277q1 10 1 27q0 58 -25 85.5
t-78 27.5q-66 0 -105 -42.5t-46 -120.5l-20 -254q-2 -16 -11 -23.5t-22 -7.5q-14 0 -22 7.5t-6 23.5l35 441q1 14 10.5 21t22.5 7t20.5 -7t6.5 -21l-5 -59q48 89 154 89q116 0 145 -93q24 44 68 68.5t99 24.5q75 0 113.5 -41z" />
    <glyph glyph-name="n" unicode="n" horiz-adv-x="561" 
d="M445 456q43 -41 43 -122q0 -18 -1 -27l-21 -281q-1 -16 -10.5 -23.5t-22.5 -7.5t-21 7.5t-7 23.5l21 277q1 8 1 23q0 117 -116 117q-74 0 -117.5 -43t-49.5 -119l-20 -255q-2 -16 -11 -23.5t-22 -7.5q-14 0 -22 7.5t-6 23.5l35 441q1 14 10.5 21t22.5 7t20.5 -7t6.5 -21
l-5 -61q25 43 68.5 67t99.5 24q81 0 124 -41z" />
    <glyph glyph-name="o" unicode="o" horiz-adv-x="545" 
d="M151.5 22q-49.5 29 -76 82t-26.5 123q0 81 28.5 142t81 94.5t120.5 33.5q66 0 115.5 -29t76 -82t26.5 -124q0 -80 -28.5 -141t-81 -94.5t-121.5 -33.5q-65 0 -114.5 29zM390 105.5q44 58.5 44 159.5q0 85 -41 132t-114 47q-78 0 -122 -58.5t-44 -161.5q0 -86 40 -131.5
t116 -45.5q77 0 121 58.5z" />
    <glyph glyph-name="p" unicode="p" horiz-adv-x="573" 
d="M426 468.5q47 -28.5 73 -81.5t26 -124q0 -80 -28.5 -141.5t-80 -95t-118.5 -33.5q-59 0 -103.5 26.5t-65.5 74.5l-20 -251q-1 -14 -10 -21t-22 -7t-21.5 7t-7.5 21l50 621q1 16 10.5 23.5t22.5 7.5t21 -7.5t7 -23.5l-5 -55q24 41 68.5 64.5t95.5 23.5q61 0 108 -28.5z
M417 104.5q44 57.5 44 158.5q0 86 -40.5 133.5t-114.5 47.5q-77 0 -121.5 -58.5t-44.5 -160.5q0 -87 40.5 -132.5t115.5 -45.5q77 0 121 57.5z" />
    <glyph glyph-name="q" unicode="q" horiz-adv-x="573" 
d="M504 487.5q8 -7.5 7 -23.5l-50 -621q-1 -14 -10.5 -21t-22.5 -7t-21 7t-7 21l19 239q-24 -42 -68 -65.5t-96 -23.5q-61 0 -108 29t-73 82t-26 124q0 80 28.5 141t80 94.5t118.5 33.5q60 0 104.5 -26.5t64.5 -74.5l6 68q1 16 10 23.5t22 7.5q14 0 22 -7.5zM388.5 105.5
q44.5 58.5 44.5 159.5q0 87 -40.5 133t-115.5 46q-77 0 -121 -58t-44 -160q0 -85 40.5 -132t114.5 -47q77 0 121.5 58.5z" />
    <glyph glyph-name="r" unicode="r" horiz-adv-x="339" 
d="M352 490q8 -7 8 -19q-1 -11 -7.5 -19t-19.5 -9l-27 -3q-76 -7 -116 -46t-46 -110l-20 -258q-2 -16 -11 -23.5t-22 -7.5q-14 0 -22 7.5t-6 23.5l35 441q1 14 10.5 21t22.5 7t20.5 -7t6.5 -21l-5 -62q25 42 65.5 63.5t100.5 26.5l11 1q14 1 22 -6z" />
    <glyph glyph-name="s" unicode="s" horiz-adv-x="478" 
d="M124 8.5q-47 15.5 -75 39.5q-13 12 -13 27q0 12 6.5 19.5t16.5 7.5q8 0 17 -6q35 -25 70.5 -37.5t78.5 -12.5q129 0 129 81q0 26 -16 42.5t-40 26t-65 21.5q-51 15 -82 28.5t-53 40t-22 69.5q0 66 51 104t136 38q49 0 92.5 -16t68.5 -42q10 -10 10 -22q0 -11 -7 -19
t-18 -8q-10 0 -22 9q-24 20 -56.5 32.5t-67.5 12.5q-60 0 -92 -22t-32 -64q0 -26 16 -42t38.5 -25.5t65.5 -22.5q50 -14 81.5 -27.5t53.5 -40.5t22 -70q0 -63 -52.5 -100t-140.5 -37q-52 0 -99 15.5z" />
    <glyph glyph-name="t" unicode="t" horiz-adv-x="327" 
d="M159 171q-1 -7 -1 -20q0 -51 24 -78.5t67 -27.5q14 0 25.5 1.5t16.5 1.5q9 0 14.5 -6.5t5.5 -18.5q0 -16 -15.5 -22.5t-55.5 -6.5q-66 0 -104.5 39.5t-38.5 110.5q0 14 1 22l21 270h-74q-11 0 -18 6.5t-7 18.5q0 11 7 17.5t18 6.5h77l10 125q2 12 10.5 20t21.5 8
q14 0 22 -8.5t7 -21.5l-10 -123h122q11 0 18 -6.5t7 -17.5q0 -12 -7 -18.5t-19 -6.5h-124z" />
    <glyph glyph-name="u" unicode="u" horiz-adv-x="553" 
d="M483 487.5q8 -7.5 7 -23.5l-35 -441q-1 -14 -10.5 -21t-22.5 -7t-20.5 7t-6.5 21l5 62q-25 -44 -67.5 -68t-95.5 -24q-80 0 -122.5 41.5t-42.5 122.5q0 17 1 26l22 281q1 16 10.5 23.5t22.5 7.5t21 -7.5t7 -23.5l-22 -276q-1 -8 -1 -24q0 -117 113 -117q71 0 114 43
t49 120l20 254q1 16 10.5 23.5t22.5 7.5t21 -7.5z" />
    <glyph glyph-name="v" unicode="v" horiz-adv-x="509" 
d="M477 490q12 0 20.5 -7.5t8.5 -19.5q0 -8 -4 -15l-225 -429q-6 -12 -17 -18.5t-23 -6.5q-13 0 -24.5 8t-16.5 22l-157 425q-2 4 -2 12q0 12 9 20t21 8q20 0 27 -20l145 -408l213 412q9 17 25 17z" />
    <glyph glyph-name="w" unicode="w" horiz-adv-x="836" 
d="M780 490q13 0 22.5 -8t9.5 -20q0 -6 -3 -12l-191 -428q-6 -12 -16.5 -18.5t-23.5 -6.5t-24.5 8t-15.5 22l-108 378l-168 -383q-5 -12 -15.5 -18.5t-23.5 -6.5q-14 0 -25.5 8t-15.5 22l-123 425q-1 3 -1 10q0 13 9.5 21t21.5 8q10 0 17.5 -5.5t10.5 -16.5l109 -397
l170 389q6 15 17 22.5t23 7.5t22.5 -8t14.5 -22l108 -387l173 399q9 17 26 17z" />
    <glyph glyph-name="x" unicode="x" horiz-adv-x="512" 
d="M452 490q11 0 20 -8t9 -19t-8 -19l-180 -195l159 -207q7 -8 7 -18q0 -11 -10 -20t-22 -9q-14 0 -22 11l-152 199l-186 -201q-9 -10 -21 -10q-11 0 -19.5 8.5t-8.5 19.5t9 20l192 209l-149 192q-7 8 -7 17q0 13 10 22t22 9q14 0 22 -11l141 -185l172 185q10 10 22 10z" />
    <glyph glyph-name="y" unicode="y" horiz-adv-x="509" 
d="M477 490q12 0 20.5 -7.5t8.5 -19.5q0 -8 -4 -15l-324 -615q-10 -18 -29 -18q-11 0 -19 6.5t-8 16.5q0 6 4 13l79 150l-166 448q-2 4 -2 12q0 12 9 20t21 8q20 0 27 -20l145 -408l213 412q9 17 25 17z" />
    <glyph glyph-name="z" unicode="z" horiz-adv-x="499" 
d="M461.5 478q6.5 -7 6.5 -17q0 -12 -10 -24l-343 -387h303q12 0 19 -7t7 -18t-7.5 -18t-19.5 -7h-367q-11 0 -17.5 6.5t-6.5 16.5q0 12 10 22l347 391h-285q-12 0 -18.5 7t-6.5 18t7 17.5t19 6.5h345q11 0 17.5 -7z" />
    <glyph glyph-name="braceleft" unicode="{" horiz-adv-x="334" 
d="M361.5 698.5q7.5 -6.5 7.5 -17.5q0 -12 -8 -19t-20 -7h-56q-45 0 -48 -46l-19 -245q-4 -43 -26 -68.5t-53 -32.5q30 -7 48.5 -32.5t14.5 -68.5l-19 -246q-3 -46 39 -46h52q13 0 20.5 -7t7.5 -18q0 -12 -7.5 -18.5t-21.5 -6.5h-57q-51 0 -74.5 24t-19.5 69l19 243
q3 42 -11.5 60.5t-55.5 20.5q-27 3 -27 26q0 11 8 17.5t24 7.5q41 3 58.5 22t20.5 60l18 242q3 45 28 69t70 24h67q13 0 20.5 -6.5z" />
    <glyph glyph-name="bar" unicode="|" horiz-adv-x="253" 
d="M72 -176q-8 9 -6 22l65 833q1 13 10.5 22t21.5 9q13 0 21 -9t7 -22l-65 -833q-2 -14 -11.5 -22.5t-22.5 -8.5q-12 0 -20 9z" />
    <glyph glyph-name="braceright" unicode="}" horiz-adv-x="334" 
d="M290 263q0 -10 -8 -17.5t-23 -8.5q-41 -2 -59 -21t-21 -60l-18 -243q-4 -45 -28.5 -69t-69.5 -24h-67q-13 0 -20.5 6.5t-7.5 17.5q0 12 8.5 19t22.5 7h53q45 0 48 46l20 246q3 43 25.5 68.5t52.5 32.5q-29 7 -47 32.5t-15 68.5l18 245q2 23 -8 34.5t-32 11.5h-52
q-13 0 -20 6.5t-7 17.5q0 13 7.5 19.5t21.5 6.5h57q100 0 94 -93l-18 -242q-3 -42 11.5 -60.5t55.5 -20.5q26 -3 26 -26z" />
    <glyph glyph-name="asciitilde" unicode="~" 
d="M354.5 229.5q-28.5 11.5 -71.5 35.5q-32 18 -52.5 27t-39.5 9q-49 0 -79 -44q-10 -15 -26 -15q-9 0 -15 5.5t-6 14.5q0 8 6 17q46 71 121 71q32 0 60.5 -11.5t71.5 -35.5q32 -18 52.5 -27t39.5 -9q49 0 79 44q10 15 25 15q9 0 15.5 -5.5t6.5 -14.5t-7 -17
q-46 -71 -120 -71q-32 0 -60.5 11.5z" />
    <glyph glyph-name="uni00A0" unicode="&#xa0;" horiz-adv-x="252" 
 />
    <glyph glyph-name="exclamdown" unicode="&#xa1;" horiz-adv-x="220" 
d="M93.5 413q-13.5 13 -13.5 34t13.5 34.5t32.5 13.5q21 0 34 -13t13 -35q0 -21 -13.5 -34t-33.5 -13q-19 0 -32.5 13zM50 -174.5q-10 10.5 -8 26.5l53 449q1 10 7.5 15.5t14.5 5.5t13 -6t4 -15l-18 -449q-1 -16 -12 -26.5t-27 -10.5q-17 0 -27 10.5z" />
    <glyph glyph-name="cent" unicode="&#xa2;" 
d="M204.5 386q-45.5 -58 -45.5 -161q0 -83 41.5 -130.5t117.5 -47.5q37 0 67.5 12.5t60.5 36.5q8 6 16 6q10 0 17 -7.5t7 -18.5t-9 -20q-28 -28 -68 -44.5t-86 -18.5l-6 -83q-1 -13 -9 -21.5t-20 -8.5t-19.5 8.5t-6.5 21.5l6 87q-80 14 -126.5 75t-46.5 155q0 115 57 187
t156 82l7 84q1 13 9 21.5t20 8.5q13 0 20 -8.5t6 -21.5l-6 -84q42 -4 77 -18.5t56 -33.5q12 -11 12 -26q0 -12 -7.5 -21t-17.5 -9q-7 0 -15 6q-32 24 -64.5 37t-70.5 13q-84 0 -129.5 -58z" />
    <glyph glyph-name="sterling" unicode="&#xa3;" 
d="M593 600q0 -11 -7 -19t-17 -8q-9 0 -22 11q-33 34 -77 54.5t-90 20.5q-63 0 -100 -36.5t-42 -104.5l-11 -140h167q11 0 17 -7t6 -18t-7.5 -18t-18.5 -7h-168l-22 -274h319q13 0 20 -7.5t7 -19.5q0 -13 -8 -20t-22 -7h-464q-26 0 -26 27q0 12 8.5 19.5t21.5 7.5h83l22 274
h-87q-10 0 -16 7t-6 18t7.5 18t18.5 7h87l11 139q8 92 61.5 144t140.5 52q59 0 113 -22.5t90 -63.5q11 -12 11 -27z" />
    <glyph glyph-name="currency" unicode="&#xa4;" 
d="M94 43q-7 7 -7 17q1 8 9 16l41 41q-22 27 -33 61.5t-11 71.5q0 75 43 130l-40 42q-9 8 -9 17t7.5 16t16.5 7q8 0 16 -8l41 -41q54 41 132 41q77 0 133 -41l41 41q7 7 16 7t16 -6.5t8 -16.5q0 -8 -8 -16l-42 -42q44 -54 44 -130q0 -36 -11.5 -71t-32.5 -62l42 -40
q6 -8 8 -18q-1 -10 -9 -17t-17 -7q-8 2 -14 8l-44 43q-52 -41 -130 -41q-73 0 -130 40l-43 -42q-8 -8 -17 -8q-9 1 -16 8zM382 115q34 22 51.5 58t17.5 77q0 40 -17.5 76t-51.5 58.5t-82 22.5t-82 -22.5t-51.5 -58.5t-17.5 -76t17.5 -76t52 -58.5t81.5 -22.5q48 0 82 22z
" />
    <glyph glyph-name="yen" unicode="&#xa5;" 
d="M594 710q11 0 18.5 -8t7.5 -19t-8 -20l-240 -283h146q10 0 16 -7t6 -18t-7.5 -18t-18.5 -7h-176l-8 -100h176q10 0 16 -7t6 -18t-7.5 -18t-18.5 -7h-176l-12 -153q-1 -15 -9 -23.5t-22 -8.5t-22.5 9t-7.5 23l12 153h-177q-10 0 -16 7t-6 18t7.5 18t18.5 7h177l8 100h-177
q-10 0 -16 7t-6 18t7.5 18t18.5 7h147l-195 283q-5 6 -5 16q0 13 9 21.5t20 8.5q13 0 22 -12l210 -306l258 306q10 13 24 13z" />
    <glyph glyph-name="brokenbar" unicode="&#xa6;" horiz-adv-x="253" 
d="M116 375q-8 9 -7 22l22 282q1 13 10.5 22t21.5 9q13 0 21 -9t7 -22l-22 -282q-1 -13 -10 -22t-23 -9q-12 0 -20 9zM72 -176q-8 9 -6 22l21 282q1 13 10.5 22t22.5 9t20.5 -9t6.5 -22l-21 -282q-1 -13 -11 -22t-23 -9q-12 0 -20 9z" />
    <glyph glyph-name="section" unicode="&#xa7;" horiz-adv-x="524" 
d="M458 115q-18 -36 -48 -61q10 -26 10 -58q0 -84 -51 -133t-138 -49q-111 0 -180 53q-12 9 -12 24q0 12 7 20.5t17 8.5q9 0 16 -6q35 -25 70 -36t82 -11q61 0 95 32.5t34 89.5q0 39 -20.5 67.5t-67.5 56.5l-83 49q-74 43 -105.5 82.5t-31.5 90.5q0 41 17.5 78.5t46.5 60.5
q-9 26 -9 56q0 83 52.5 132.5t138.5 49.5q45 0 90.5 -16t68.5 -38q9 -9 9 -21q0 -11 -7.5 -20t-17.5 -9t-18 7q-54 44 -130 44q-56 0 -90.5 -34t-34.5 -90q0 -38 20 -65.5t67 -55.5l83 -50q75 -45 106.5 -85t31.5 -91q0 -37 -18 -73zM415 186q0 33 -23 60t-79 62l-78 48
q-61 37 -90 72q-33 -38 -33 -87q0 -32 23.5 -60.5t78.5 -62.5l78 -48q63 -40 91 -72q32 37 32 88z" />
    <glyph glyph-name="dieresis" unicode="&#xa8;" horiz-adv-x="300" 
d="M70 621.5q-12 11.5 -12 29.5q0 19 12 30.5t30 11.5t30.5 -12t12.5 -30t-12.5 -29.5t-30.5 -11.5t-30 11.5zM235.5 621.5q-12.5 11.5 -12.5 29.5t12.5 30t30.5 12t30 -12t12 -30t-12 -29.5t-30 -11.5t-30.5 11.5z" />
    <glyph glyph-name="copyright" unicode="&#xa9;" horiz-adv-x="815" 
d="M235 42.5q-82 47.5 -129 129t-47 181.5t47 181.5t129 128.5t182 47t181.5 -47t128.5 -128.5t47 -181.5t-47 -181.5t-129 -129t-181 -47.5q-100 0 -182 47.5zM577 77q72 42 113.5 115t41.5 161t-41.5 160.5t-113.5 114.5t-160 42q-89 0 -161 -42t-113.5 -114.5
t-41.5 -160.5t41.5 -161t113.5 -115t161 -42q88 0 160 42zM278 195q-54 58 -54 158t54 157.5t144 57.5q74 0 137 -48q11 -9 11 -23q0 -10 -5 -17.5t-14 -7.5q-7 0 -19 7q-32 22 -54 31.5t-54 9.5q-67 0 -103 -43.5t-36 -123.5q0 -81 36 -124.5t103 -43.5q32 0 54 9.5
t54 31.5q12 7 19 7q9 0 14 -7.5t5 -17.5q0 -13 -11 -23q-24 -24 -60 -36t-77 -12q-90 0 -144 58z" />
    <glyph glyph-name="ordfeminine" unicode="&#xaa;" horiz-adv-x="328" 
d="M281 684q28 -26 28 -76l-1 -15l-13 -158q-1 -13 -8.5 -20t-18.5 -7q-12 0 -20.5 7.5t-7.5 19.5l2 22q-14 -23 -37 -36t-52 -13q-43 0 -71 24t-28 62q0 48 40.5 68t137.5 20h20l1 18q4 66 -58 66q-44 0 -91 -28q-6 -3 -11 -3q-7 0 -12.5 6t-5.5 14q0 14 14 24
q20 14 51 22.5t61 8.5q52 0 80 -26zM221.5 473.5q23.5 22.5 26.5 59.5l1 16h-17q-69 0 -95.5 -11t-26.5 -41q0 -20 15.5 -33t37.5 -13q35 0 58.5 22.5z" />
    <glyph glyph-name="guillemotleft" unicode="&#xab;" horiz-adv-x="416" 
d="M63 246q-5 10 -5 17q0 10 8 21l92 140q10 15 27 15q10 0 17 -5.5t7 -14.5q0 -7 -4 -14l-83 -140l59 -140q2 -4 2 -11q0 -9 -7.5 -15.5t-17.5 -6.5q-17 0 -25 15zM232 246q-5 10 -5 17q0 10 8 21l92 140q10 15 27 15q10 0 17 -5.5t7 -14.5q0 -7 -4 -14l-83 -140l59 -140
q2 -4 2 -11q0 -9 -7.5 -15.5t-17.5 -6.5q-17 0 -25 15z" />
    <glyph glyph-name="logicalnot" unicode="&#xac;" 
d="M495.5 161.5q-5.5 7.5 -4.5 18.5l14 184h-412q-11 0 -18 8t-7 19q0 10 8.5 16.5t19.5 6.5h435q11 0 18.5 -8t6.5 -19l-17 -207q-1 -11 -9.5 -18.5t-19.5 -7.5q-9 0 -14.5 7.5z" />
    <glyph glyph-name="uni00AD" unicode="&#xad;" horiz-adv-x="421" 
d="M78 247q-7 7 -7 18q0 12 8 19.5t21 7.5h226q14 0 21 -7.5t7 -19.5q0 -11 -8 -18t-22 -7h-225q-14 0 -21 7z" />
    <glyph glyph-name="registered" unicode="&#xae;" horiz-adv-x="815" 
d="M598.5 663q81.5 -47 128.5 -128.5t47 -181.5t-47 -181.5t-129 -129t-181 -47.5q-100 0 -181.5 47.5t-129 129t-47.5 181.5t47 181.5t129 128.5t182 47t181.5 -47zM577 77q72 42 113.5 114.5t41.5 161.5t-41.5 161.5t-113.5 114t-160 41.5t-160.5 -41.5t-114 -114
t-41.5 -161.5t41.5 -161.5t114 -114.5t160.5 -42t160 42zM562 362q-31 -33 -88 -40q27 -10 48 -45l56 -103q4 -7 4 -14q0 -10 -8.5 -17t-19.5 -7q-18 0 -28 17l-68 123q-13 23 -28 31.5t-42 8.5h-60l-11 -150q-1 -14 -9.5 -21.5t-21.5 -7.5t-20.5 7.5t-6.5 21.5l29 369
q2 13 10 20.5t21 7.5h131q143 0 143 -116q0 -52 -31 -85zM535 445q0 39 -22 55t-71 16h-98l-13 -152h111q93 0 93 81z" />
    <glyph glyph-name="macron" unicode="&#xaf;" horiz-adv-x="300" 
d="M30 651q0 13 9 19.5t24 6.5h243q30 0 30 -25q0 -13 -9 -19.5t-24 -6.5h-243q-30 0 -30 25z" />
    <glyph glyph-name="degree" unicode="&#xb0;" horiz-adv-x="364" 
d="M135.5 441.5q-32.5 18.5 -51.5 51.5t-19 73q0 41 19 74t51.5 51.5t72.5 18.5q61 0 102 -41t41 -103q0 -61 -41 -102t-102 -41q-40 0 -72.5 18.5zM275 496q26 27 26 70t-26 70.5t-67 27.5t-67 -27.5t-26 -70.5t26 -70t67 -27t67 27z" />
    <glyph glyph-name="plusminus" unicode="&#xb1;" 
d="M543.5 340q7.5 -8 6.5 -19q-1 -10 -9 -16.5t-19 -6.5h-193l-12 -152q-1 -11 -9.5 -19.5t-19.5 -8.5q-10 0 -16 8t-5 19l12 153h-191q-10 0 -17.5 7.5t-7.5 17.5q0 11 8 18t20 7h193l12 153q1 11 9.5 19t19.5 8q10 0 16 -8t5 -19l-12 -153h191q11 0 18.5 -8zM519 43
q7 -8 7 -19q0 -10 -8 -17t-19 -7h-435q-11 0 -18 8t-7 19q0 10 8 17t19 7h435q11 0 18 -8z" />
    <glyph glyph-name="uni00B2" unicode="&#xb2;" horiz-adv-x="380" 
d="M342 306q0 -11 -7.5 -17.5t-20.5 -6.5h-234q-11 0 -18 7t-7 16q0 12 11 25l155 156q34 35 49 60.5t15 52.5q0 30 -18.5 46t-50.5 16q-53 0 -106 -40q-9 -6 -16 -6q-9 0 -14.5 6.5t-5.5 16.5q0 14 12 24q26 21 62 34t72 13q58 0 90.5 -29t32.5 -78q0 -36 -19 -70t-61 -76
l-128 -126h181q26 0 26 -24z" />
    <glyph glyph-name="uni00B3" unicode="&#xb3;" horiz-adv-x="380" 
d="M318 464q18 -24 18 -60q0 -59 -39 -92t-106 -33q-37 0 -75 13t-62 34q-10 9 -10 22q0 10 6.5 17.5t16.5 7.5q8 0 16 -5q53 -41 104 -41q43 0 68 19t25 57q0 37 -22 53.5t-65 16.5h-31q-12 0 -18 6t-6 15q0 11 6.5 18.5t18.5 7.5h24q46 0 72.5 20.5t26.5 60.5
q0 29 -19 44.5t-52 15.5q-25 0 -50 -10.5t-56 -29.5q-9 -6 -16 -6q-9 0 -14.5 7t-5.5 16q0 14 12 23q27 21 64.5 34.5t71.5 13.5q57 0 89.5 -28t32.5 -72q0 -41 -20.5 -69.5t-55.5 -41.5q33 -10 51 -34z" />
    <glyph glyph-name="acute" unicode="&#xb4;" horiz-adv-x="300" 
d="M179 545q-7 0 -12 5t-5 13t5 14l138 165q12 15 28 15q13 0 23 -9t10 -22t-13 -25l-159 -149q-7 -7 -15 -7z" />
    <glyph glyph-name="uni00B5" unicode="&#xb5;" horiz-adv-x="553" 
d="M483 487.5q8 -7.5 7 -23.5l-35 -441q-1 -14 -10.5 -21t-22.5 -7t-20.5 7t-6.5 21l5 62q-25 -44 -67.5 -68t-94.5 -24q-76 0 -116 38l-15 -188q-1 -13 -11 -20.5t-22 -7.5q-14 0 -21.5 7t-6.5 21l49 621q1 16 10.5 23.5t22.5 7.5t21 -7.5t7 -23.5l-22 -276q-1 -8 -1 -24
q0 -117 113 -117q71 0 113.5 43.5t49.5 119.5l20 254q1 16 10.5 23.5t22.5 7.5t21 -7.5z" />
    <glyph glyph-name="paragraph" unicode="&#xb6;" horiz-adv-x="569" 
d="M216.5 -176.5q-7.5 8.5 -6.5 21.5l37 478q-80 2 -129 50t-49 127q0 91 55.5 148t154.5 57h206q13 0 20.5 -8.5t6.5 -21.5l-66 -830q-2 -13 -10.5 -21.5t-20.5 -8.5t-19.5 8.5t-6.5 21.5l64 807h-122l-64 -807q-2 -13 -10.5 -21.5t-20.5 -8.5t-19.5 8.5z" />
    <glyph glyph-name="periodcentered" unicode="&#xb7;" horiz-adv-x="220" 
d="M79.5 230.5q-13.5 13.5 -13.5 34.5q0 22 13.5 35t33.5 13q19 0 32.5 -13.5t13.5 -34.5t-13.5 -34.5t-32.5 -13.5q-20 0 -33.5 13.5z" />
    <glyph glyph-name="cedilla" unicode="&#xb8;" horiz-adv-x="300" 
d="M218.5 -59q19.5 -18 19.5 -49q0 -38 -30.5 -60.5t-82.5 -22.5q-40 0 -72 12q-15 5 -15 20q0 9 6.5 15t16.5 6q5 0 8 -1q30 -9 57 -9q30 0 45.5 10t15.5 28q0 14 -9 21.5t-26 7.5q-15 0 -29 -5t-18 -5q-8 0 -13.5 6t-4.5 13l18 92h50l-13 -64q12 3 25 3q32 0 51.5 -18z
" />
    <glyph glyph-name="uni00B9" unicode="&#xb9;" horiz-adv-x="380" 
d="M328 306q0 -24 -29 -24h-161q-25 0 -25 24t26 24h55l25 308l-58 -35q-5 -4 -13 -4q-10 0 -17 7.5t-7 17.5q0 14 16 24l87 53q11 7 25 7q12 0 19.5 -7.5t6.5 -21.5l-28 -349h51q27 0 27 -24z" />
    <glyph glyph-name="ordmasculine" unicode="&#xba;" horiz-adv-x="333" 
d="M84.5 446q-36.5 38 -36.5 100q0 73 41.5 118.5t111.5 45.5q61 0 97.5 -37.5t36.5 -99.5q0 -75 -42 -120t-112 -45q-60 0 -96.5 38zM252 485q25 31 25 87q0 44 -20 68t-58 24q-45 0 -69.5 -31.5t-24.5 -86.5q0 -45 20 -68.5t57 -23.5q45 0 70 31z" />
    <glyph glyph-name="guillemotright" unicode="&#xbb;" horiz-adv-x="416" 
d="M64 91q-10 0 -16.5 5.5t-6.5 14.5q0 7 4 14l85 140l-60 140q-2 4 -2 11q0 10 7.5 16.5t17.5 6.5q17 0 24 -15l71 -140q5 -10 5 -18q0 -10 -7 -20l-94 -139q-10 -16 -28 -16zM233 91q-10 0 -16.5 5.5t-6.5 14.5q0 7 4 14l85 140l-60 140q-2 4 -2 11q0 10 7.5 16.5
t17.5 6.5q17 0 24 -15l71 -140q5 -10 5 -18q0 -10 -7 -20l-94 -139q-10 -16 -28 -16z" />
    <glyph glyph-name="onequarter" unicode="&#xbc;" horiz-adv-x="926" 
d="M328 306q0 -24 -29 -24h-161q-25 0 -25 24t26 24h55l25 308l-58 -35q-5 -4 -13 -4q-10 0 -17 7.5t-7 17.5q0 14 16 24l87 53q11 7 25 7q12 0 19.5 -7.5t6.5 -21.5l-28 -349h51q27 0 27 -24zM245 -18q-11 0 -18.5 7t-7.5 17q0 9 7 19l446 682q10 16 27 16q11 0 18.5 -7
t7.5 -17q0 -9 -7 -19l-447 -682q-10 -16 -26 -16zM887.5 130q6.5 -6 6.5 -17t-8 -17.5t-21 -6.5h-41l-5 -64q-1 -13 -9.5 -20.5t-20.5 -7.5q-14 0 -21 7.5t-5 20.5l5 64h-173q-12 0 -18.5 6.5t-6.5 16.5q0 11 9 23l217 279q9 12 25 12q12 0 20.5 -7.5t7.5 -21.5l-21 -261h40
q13 0 19.5 -6zM635 136h137l15 196z" />
    <glyph glyph-name="onehalf" unicode="&#xbd;" horiz-adv-x="926" 
d="M328 306q0 -24 -29 -24h-161q-25 0 -25 24t26 24h55l25 308l-58 -35q-5 -4 -13 -4q-10 0 -17 7.5t-7 17.5q0 14 16 24l87 53q11 7 25 7q12 0 19.5 -7.5t6.5 -21.5l-28 -349h51q27 0 27 -24zM245 -18q-11 0 -18.5 7t-7.5 17q0 9 7 19l446 682q10 16 27 16q11 0 18.5 -7
t7.5 -17q0 -9 -7 -19l-447 -682q-10 -16 -26 -16zM866 24q0 -11 -7.5 -17.5t-20.5 -6.5h-234q-11 0 -18 7t-7 16q0 12 11 25l155 156q34 35 49 60.5t15 52.5q0 30 -18.5 46t-50.5 16q-53 0 -106 -40q-9 -6 -16 -6q-9 0 -14.5 6.5t-5.5 16.5q0 14 12 24q26 21 62 34t72 13
q58 0 90.5 -29t32.5 -78q0 -36 -19 -70t-61 -76l-128 -126h181q26 0 26 -24z" />
    <glyph glyph-name="threequarters" unicode="&#xbe;" horiz-adv-x="926" 
d="M318 464q18 -24 18 -60q0 -59 -39 -92t-106 -33q-37 0 -75 13t-62 34q-10 9 -10 22q0 10 6.5 17.5t16.5 7.5q8 0 16 -5q53 -41 104 -41q43 0 68 19t25 57q0 37 -22 53.5t-65 16.5h-31q-12 0 -18 6t-6 15q0 11 6.5 18.5t18.5 7.5h24q46 0 72.5 20.5t26.5 60.5
q0 29 -19 44.5t-52 15.5q-25 0 -50 -10.5t-56 -29.5q-9 -6 -16 -6q-9 0 -14.5 7t-5.5 16q0 14 12 23q27 21 64.5 34.5t71.5 13.5q57 0 89.5 -28t32.5 -72q0 -41 -20.5 -69.5t-55.5 -41.5q33 -10 51 -34zM245 -18q-11 0 -18.5 7t-7.5 17q0 9 7 19l446 682q10 16 27 16
q11 0 18.5 -7t7.5 -17q0 -9 -7 -19l-447 -682q-10 -16 -26 -16zM887.5 130q6.5 -6 6.5 -17t-8 -17.5t-21 -6.5h-41l-5 -64q-1 -13 -9.5 -20.5t-20.5 -7.5q-14 0 -21 7.5t-5 20.5l5 64h-173q-12 0 -18.5 6.5t-6.5 16.5q0 11 9 23l217 279q9 12 25 12q12 0 20.5 -7.5
t7.5 -21.5l-21 -261h40q13 0 19.5 -6zM635 136h137l15 196z" />
    <glyph glyph-name="questiondown" unicode="&#xbf;" horiz-adv-x="436" 
d="M217 413.5q-13 13.5 -13 33.5q0 21 13 34.5t33 13.5q21 0 34 -13.5t13 -34.5q0 -20 -13 -33.5t-34 -13.5q-20 0 -33 13.5zM54 -148q-48 39 -48 101q0 38 13.5 68t33 52.5t53.5 55.5q48 44 76 82t38 93q1 8 6.5 13t13.5 5q19 0 17 -22q-3 -45 -18.5 -80t-35.5 -59.5
t-53 -57.5q-42 -43 -61.5 -73t-19.5 -71q0 -42 31 -67t86 -25q48 0 93.5 18.5t94.5 56.5q10 7 19 7t15 -7t6 -17q0 -16 -15 -29q-44 -39 -100.5 -61t-114.5 -22q-82 0 -130 39z" />
    <glyph glyph-name="Agrave" unicode="&#xc0;" horiz-adv-x="720" 
d="M668 24q0 -13 -9 -21.5t-21 -8.5q-9 0 -16.5 6t-11.5 17l-61 171h-383l-89 -175q-8 -18 -27 -18q-12 0 -20.5 8t-8.5 20q0 8 4 16l334 647q12 24 37 24q12 0 22 -7t15 -21l233 -646q2 -4 2 -12zM193 242h337l-139 388zM293 876q-8 11 -8 22t8 18.5t19 7.5q18 0 29 -19
l68 -117q3 -6 3 -11q0 -7 -5 -12t-13 -5q-10 0 -18 9z" />
    <glyph glyph-name="Aacute" unicode="&#xc1;" horiz-adv-x="720" 
d="M668 24q0 -13 -9 -21.5t-21 -8.5q-9 0 -16.5 6t-11.5 17l-61 171h-383l-89 -175q-8 -18 -27 -18q-12 0 -20.5 8t-8.5 20q0 8 4 16l334 647q12 24 37 24q12 0 22 -7t15 -21l233 -646q2 -4 2 -12zM193 242h337l-139 388zM408 760q-7 0 -11.5 4.5t-4.5 11.5q0 6 5 14l82 114
q15 19 31 19q11 0 19 -7.5t8 -18.5q0 -14 -13 -27l-97 -101q-9 -9 -19 -9z" />
    <glyph glyph-name="Acircumflex" unicode="&#xc2;" horiz-adv-x="720" 
d="M668 24q0 -13 -9 -21.5t-21 -8.5q-9 0 -16.5 6t-11.5 17l-61 171h-383l-89 -175q-8 -18 -27 -18q-12 0 -20.5 8t-8.5 20q0 8 4 16l334 647q12 24 37 24q12 0 22 -7t15 -21l233 -646q2 -4 2 -12zM193 242h337l-139 388zM308 758q-11 0 -19 8t-8 18t7 17l92 104
q15 17 35 17q19 0 31 -17l72 -101q7 -10 7 -19q0 -10 -7.5 -17.5t-18.5 -7.5q-16 0 -26 17l-61 96l-82 -103q-9 -12 -22 -12z" />
    <glyph glyph-name="Atilde" unicode="&#xc3;" horiz-adv-x="720" 
d="M668 24q0 -13 -9 -21.5t-21 -8.5q-9 0 -16.5 6t-11.5 17l-61 171h-383l-89 -175q-8 -18 -27 -18q-12 0 -20.5 8t-8.5 20q0 8 4 16l334 647q12 24 37 24q12 0 22 -7t15 -21l233 -646q2 -4 2 -12zM193 242h337l-139 388zM396 818q-15 8 -30.5 14t-26.5 6q-19 0 -29.5 -7.5
t-21.5 -21.5t-19 -14t-12.5 6t-4.5 15q0 16 12 33.5t32.5 29.5t46.5 12q29 0 77 -26q15 -8 30.5 -14t26.5 -6q19 0 29.5 7.5t21.5 21.5q4 6 8.5 10.5t9.5 4.5q8 0 13 -6t5 -15q0 -16 -12 -34t-33 -30t-46 -12q-29 0 -77 26z" />
    <glyph glyph-name="Adieresis" unicode="&#xc4;" horiz-adv-x="720" 
d="M668 24q0 -13 -9 -21.5t-21 -8.5q-9 0 -16.5 6t-11.5 17l-61 171h-383l-89 -175q-8 -18 -27 -18q-12 0 -20.5 8t-8.5 20q0 8 4 16l334 647q12 24 37 24q12 0 22 -7t15 -21l233 -646q2 -4 2 -12zM193 242h337l-139 388zM295 811.5q-12 11.5 -12 29.5t12 29.5t30 11.5
t30.5 -11.5t12.5 -29.5t-12.5 -29.5t-30.5 -11.5t-30 11.5zM460.5 811.5q-12.5 11.5 -12.5 29.5t12.5 29.5t30.5 11.5t30 -11.5t12 -29.5t-12 -29.5t-30 -11.5t-30.5 11.5z" />
    <glyph glyph-name="Aring" unicode="&#xc5;" horiz-adv-x="720" 
d="M668 24q0 -13 -9 -21.5t-21 -8.5q-9 0 -16.5 6t-11.5 17l-61 171h-383l-89 -175q-8 -18 -27 -18q-12 0 -20.5 8t-8.5 20q0 8 4 16l332 645q-25 11 -40.5 34.5t-15.5 52.5q0 41 28.5 69t69.5 28t70 -28t29 -69q0 -31 -18 -55.5t-47 -34.5l233 -645q2 -4 2 -12zM364 808
q-14 -15 -14 -37q0 -21 14 -36t35 -15t35.5 15t14.5 36q0 22 -14 37t-36 15q-21 0 -35 -15zM193 242h337l-139 388z" />
    <glyph glyph-name="AE" unicode="&#xc6;" horiz-adv-x="989" 
d="M968.5 697.5q7.5 -7.5 7.5 -19.5t-7.5 -19.5t-20.5 -7.5h-421l36 -266h341q12 0 19.5 -7.5t7.5 -19.5t-7.5 -19.5t-20.5 -7.5h-333l37 -277h290q13 0 20.5 -7.5t7.5 -19.5t-8 -19.5t-21 -7.5h-310q-14 0 -23 7t-10 20l-21 161h-349l-119 -177q-11 -17 -28 -17
q-11 0 -19.5 7.5t-8.5 19.5q0 10 7 20l438 644q14 20 38 20h457q13 0 20.5 -7.5zM219 242h306l-50 381z" />
    <glyph glyph-name="Ccedilla" unicode="&#xc7;" horiz-adv-x="677" 
d="M662 600q0 -12 -7.5 -20.5t-18.5 -8.5q-10 0 -19 8q-43 41 -93.5 60t-120.5 19q-83 0 -143.5 -40.5t-92 -116.5t-31.5 -180q0 -131 63 -202.5t179 -71.5q55 0 106.5 19t93.5 57q11 10 22 10q10 0 16 -7.5t6 -18.5q0 -14 -11 -24q-94 -87 -232 -91l-8 -36q12 3 25 3
q32 0 51.5 -18t19.5 -49q0 -38 -30.5 -60.5t-82.5 -22.5q-40 0 -72 12q-15 5 -15 20q0 9 6.5 15t16.5 6q5 0 8 -1q30 -9 57 -9q30 0 45.5 10t15.5 28q0 14 -9 21.5t-26 7.5q-15 0 -29 -5t-18 -5q-8 0 -13.5 6t-4.5 13l13 66q-119 12 -188 98.5t-69 229.5q0 118 40.5 206.5
t115.5 136.5t177 48q77 0 140.5 -23t106.5 -67q10 -10 10 -23z" />
    <glyph glyph-name="Egrave" unicode="&#xc8;" horiz-adv-x="579" 
d="M558.5 697.5q7.5 -7.5 7.5 -18.5q0 -12 -7.5 -19.5t-20.5 -7.5h-353l-21 -267h330q12 0 19.5 -7.5t7.5 -19.5t-7.5 -19.5t-20.5 -7.5h-333l-22 -278h350q12 0 19.5 -7.5t7.5 -18.5q0 -12 -7.5 -19.5t-20.5 -7.5h-382q-16 0 -23.5 8.5t-6.5 24.5l50 642q2 30 33 30h381
q12 0 19.5 -7.5zM255 876q-8 11 -8 22t8 18.5t19 7.5q18 0 29 -19l68 -117q3 -6 3 -11q0 -7 -5 -12t-13 -5q-10 0 -18 9z" />
    <glyph glyph-name="Eacute" unicode="&#xc9;" horiz-adv-x="579" 
d="M558.5 697.5q7.5 -7.5 7.5 -18.5q0 -12 -7.5 -19.5t-20.5 -7.5h-353l-21 -267h330q12 0 19.5 -7.5t7.5 -19.5t-7.5 -19.5t-20.5 -7.5h-333l-22 -278h350q12 0 19.5 -7.5t7.5 -18.5q0 -12 -7.5 -19.5t-20.5 -7.5h-382q-16 0 -23.5 8.5t-6.5 24.5l50 642q2 30 33 30h381
q12 0 19.5 -7.5zM370 760q-7 0 -11.5 4.5t-4.5 11.5q0 6 5 14l82 114q15 19 31 19q11 0 19 -7.5t8 -18.5q0 -14 -13 -27l-97 -101q-9 -9 -19 -9z" />
    <glyph glyph-name="Ecircumflex" unicode="&#xca;" horiz-adv-x="579" 
d="M558.5 697.5q7.5 -7.5 7.5 -18.5q0 -12 -7.5 -19.5t-20.5 -7.5h-353l-21 -267h330q12 0 19.5 -7.5t7.5 -19.5t-7.5 -19.5t-20.5 -7.5h-333l-22 -278h350q12 0 19.5 -7.5t7.5 -18.5q0 -12 -7.5 -19.5t-20.5 -7.5h-382q-16 0 -23.5 8.5t-6.5 24.5l50 642q2 30 33 30h381
q12 0 19.5 -7.5zM270 758q-11 0 -19 8t-8 18t7 17l92 104q15 17 35 17q19 0 31 -17l72 -101q7 -10 7 -19q0 -10 -7.5 -17.5t-18.5 -7.5q-16 0 -26 17l-61 96l-82 -103q-9 -12 -22 -12z" />
    <glyph glyph-name="Edieresis" unicode="&#xcb;" horiz-adv-x="579" 
d="M558.5 697.5q7.5 -7.5 7.5 -18.5q0 -12 -7.5 -19.5t-20.5 -7.5h-353l-21 -267h330q12 0 19.5 -7.5t7.5 -19.5t-7.5 -19.5t-20.5 -7.5h-333l-22 -278h350q12 0 19.5 -7.5t7.5 -18.5q0 -12 -7.5 -19.5t-20.5 -7.5h-382q-16 0 -23.5 8.5t-6.5 24.5l50 642q2 30 33 30h381
q12 0 19.5 -7.5zM257 811.5q-12 11.5 -12 29.5t12 29.5t30 11.5t30.5 -11.5t12.5 -29.5t-12.5 -29.5t-30.5 -11.5t-30 11.5zM422.5 811.5q-12.5 11.5 -12.5 29.5t12.5 29.5t30.5 11.5t30 -11.5t12 -29.5t-12 -29.5t-30 -11.5t-30.5 11.5z" />
    <glyph glyph-name="Igrave" unicode="&#xcc;" horiz-adv-x="244" 
d="M83 4q-9 9 -8 23l51 654q1 13 10 21t21 8q14 0 22.5 -8.5t7.5 -23.5l-51 -654q-1 -14 -9.5 -21.5t-21.5 -7.5t-22 9zM55 876q-8 11 -8 22t8 18.5t19 7.5q18 0 29 -19l68 -117q3 -6 3 -11q0 -7 -5 -12t-13 -5q-10 0 -18 9z" />
    <glyph glyph-name="Iacute" unicode="&#xcd;" horiz-adv-x="244" 
d="M83 4q-9 9 -8 23l51 654q1 13 10 21t21 8q14 0 22.5 -8.5t7.5 -23.5l-51 -654q-1 -14 -9.5 -21.5t-21.5 -7.5t-22 9zM170 760q-7 0 -11.5 4.5t-4.5 11.5q0 6 5 14l82 114q15 19 31 19q11 0 19 -7.5t8 -18.5q0 -14 -13 -27l-97 -101q-9 -9 -19 -9z" />
    <glyph glyph-name="Icircumflex" unicode="&#xce;" horiz-adv-x="244" 
d="M83 4q-9 9 -8 23l51 654q1 13 10 21t21 8q14 0 22.5 -8.5t7.5 -23.5l-51 -654q-1 -14 -9.5 -21.5t-21.5 -7.5t-22 9zM70 758q-11 0 -19 8t-8 18t7 17l92 104q15 17 35 17q19 0 31 -17l72 -101q7 -10 7 -19q0 -10 -7.5 -17.5t-18.5 -7.5q-16 0 -26 17l-61 96l-82 -103
q-9 -12 -22 -12z" />
    <glyph glyph-name="Idieresis" unicode="&#xcf;" horiz-adv-x="244" 
d="M83 4q-9 9 -8 23l51 654q1 13 10 21t21 8q14 0 22.5 -8.5t7.5 -23.5l-51 -654q-1 -14 -9.5 -21.5t-21.5 -7.5t-22 9zM57 811.5q-12 11.5 -12 29.5t12 29.5t30 11.5t30.5 -11.5t12.5 -29.5t-12.5 -29.5t-30.5 -11.5t-30 11.5zM222.5 811.5q-12.5 11.5 -12.5 29.5
t12.5 29.5t30.5 11.5t30 -11.5t12 -29.5t-12 -29.5t-30 -11.5t-30.5 11.5z" />
    <glyph glyph-name="Eth" unicode="&#xd0;" horiz-adv-x="740" 
d="M600.5 621q84.5 -84 84.5 -238q0 -119 -41 -205t-120 -132t-191 -46h-215q-16 0 -25.5 10.5t-8.5 26.5l23 295h-67q-15 0 -23 7t-8 19q0 11 8 18t22 7h72l23 291q1 14 10 22.5t23 8.5h191q158 0 242.5 -84zM547.5 139.5q73.5 85.5 73.5 244.5q0 267 -266 267h-161
l-21 -268h167q30 0 30 -25q0 -12 -7.5 -19t-21.5 -7h-172l-22 -278h184q143 0 216.5 85.5z" />
    <glyph glyph-name="Ntilde" unicode="&#xd1;" horiz-adv-x="735" 
d="M671.5 701q8.5 -9 7.5 -22l-52 -654q-2 -30 -28 -30q-17 0 -30 17l-391 591l-47 -580q-1 -13 -9 -20.5t-20 -7.5t-20.5 9t-7.5 23l51 652q1 15 9.5 23t21.5 8q18 0 28 -17l391 -587l46 576q1 13 9 20.5t21 7.5q12 0 20.5 -9zM404 818q-15 8 -30.5 14t-26.5 6
q-19 0 -29.5 -7.5t-21.5 -21.5t-19 -14t-12.5 6t-4.5 15q0 16 12 33.5t32.5 29.5t46.5 12q29 0 77 -26q15 -8 30.5 -14t26.5 -6q19 0 29.5 7.5t21.5 21.5q4 6 8.5 10.5t9.5 4.5q8 0 13 -6t5 -15q0 -16 -12 -34t-33 -30t-46 -12q-29 0 -77 26z" />
    <glyph glyph-name="Ograve" unicode="&#xd2;" horiz-adv-x="757" 
d="M215 31.5q-69 39.5 -106 114t-37 176.5q0 118 40 206.5t113 136.5t170 48q95 0 164 -39.5t106 -114t37 -176.5q0 -118 -39.5 -206.5t-113 -136.5t-171.5 -48q-94 0 -163 39.5zM517.5 88q58.5 40 89.5 115.5t31 179.5q0 133 -63 203.5t-180 70.5q-80 0 -138.5 -40
t-89.5 -116t-31 -180q0 -132 63 -202.5t180 -70.5q80 0 138.5 40zM311 876q-8 11 -8 22t8 18.5t19 7.5q18 0 29 -19l68 -117q3 -6 3 -11q0 -7 -5 -12t-13 -5q-10 0 -18 9z" />
    <glyph glyph-name="Oacute" unicode="&#xd3;" horiz-adv-x="757" 
d="M215 31.5q-69 39.5 -106 114t-37 176.5q0 118 40 206.5t113 136.5t170 48q95 0 164 -39.5t106 -114t37 -176.5q0 -118 -39.5 -206.5t-113 -136.5t-171.5 -48q-94 0 -163 39.5zM517.5 88q58.5 40 89.5 115.5t31 179.5q0 133 -63 203.5t-180 70.5q-80 0 -138.5 -40
t-89.5 -116t-31 -180q0 -132 63 -202.5t180 -70.5q80 0 138.5 40zM426 760q-7 0 -11.5 4.5t-4.5 11.5q0 6 5 14l82 114q15 19 31 19q11 0 19 -7.5t8 -18.5q0 -14 -13 -27l-97 -101q-9 -9 -19 -9z" />
    <glyph glyph-name="Ocircumflex" unicode="&#xd4;" horiz-adv-x="757" 
d="M215 31.5q-69 39.5 -106 114t-37 176.5q0 118 40 206.5t113 136.5t170 48q95 0 164 -39.5t106 -114t37 -176.5q0 -118 -39.5 -206.5t-113 -136.5t-171.5 -48q-94 0 -163 39.5zM517.5 88q58.5 40 89.5 115.5t31 179.5q0 133 -63 203.5t-180 70.5q-80 0 -138.5 -40
t-89.5 -116t-31 -180q0 -132 63 -202.5t180 -70.5q80 0 138.5 40zM326 758q-11 0 -19 8t-8 18t7 17l92 104q15 17 35 17q19 0 31 -17l72 -101q7 -10 7 -19q0 -10 -7.5 -17.5t-18.5 -7.5q-16 0 -26 17l-61 96l-82 -103q-9 -12 -22 -12z" />
    <glyph glyph-name="Otilde" unicode="&#xd5;" horiz-adv-x="757" 
d="M215 31.5q-69 39.5 -106 114t-37 176.5q0 118 40 206.5t113 136.5t170 48q95 0 164 -39.5t106 -114t37 -176.5q0 -118 -39.5 -206.5t-113 -136.5t-171.5 -48q-94 0 -163 39.5zM517.5 88q58.5 40 89.5 115.5t31 179.5q0 133 -63 203.5t-180 70.5q-80 0 -138.5 -40
t-89.5 -116t-31 -180q0 -132 63 -202.5t180 -70.5q80 0 138.5 40zM414 818q-15 8 -30.5 14t-26.5 6q-19 0 -29.5 -7.5t-21.5 -21.5t-19 -14t-12.5 6t-4.5 15q0 16 12 33.5t32.5 29.5t46.5 12q29 0 77 -26q15 -8 30.5 -14t26.5 -6q19 0 29.5 7.5t21.5 21.5q4 6 8.5 10.5
t9.5 4.5q8 0 13 -6t5 -15q0 -16 -12 -34t-33 -30t-46 -12q-29 0 -77 26z" />
    <glyph glyph-name="Odieresis" unicode="&#xd6;" horiz-adv-x="757" 
d="M215 31.5q-69 39.5 -106 114t-37 176.5q0 118 40 206.5t113 136.5t170 48q95 0 164 -39.5t106 -114t37 -176.5q0 -118 -39.5 -206.5t-113 -136.5t-171.5 -48q-94 0 -163 39.5zM517.5 88q58.5 40 89.5 115.5t31 179.5q0 133 -63 203.5t-180 70.5q-80 0 -138.5 -40
t-89.5 -116t-31 -180q0 -132 63 -202.5t180 -70.5q80 0 138.5 40zM313 811.5q-12 11.5 -12 29.5t12 29.5t30 11.5t30.5 -11.5t12.5 -29.5t-12.5 -29.5t-30.5 -11.5t-30 11.5zM478.5 811.5q-12.5 11.5 -12.5 29.5t12.5 29.5t30.5 11.5t30 -11.5t12 -29.5t-12 -29.5t-30 -11.5
t-30.5 11.5z" />
    <glyph glyph-name="multiply" unicode="&#xd7;" 
d="M524 487q0 -11 -11 -24l-175 -178l166 -180q7 -9 7 -17q0 -13 -11 -22q-6 -6 -15 -6q-10 0 -20 10l-164 178l-175 -178q-7 -9 -21 -9q-12 0 -17 8q-5 5 -5 13q0 12 11 23l175 178l-166 180q-7 7 -7 18t9 20q7 7 17 7q13 0 20 -9l164 -178l175 178q7 9 19 9q13 0 20 -9
q4 -4 4 -12z" />
    <glyph glyph-name="Oslash" unicode="&#xd8;" horiz-adv-x="757" 
d="M678 529.5q24 -64.5 24 -146.5q0 -118 -39.5 -206.5t-113 -136.5t-171.5 -48t-170 43l-37 -56q-10 -14 -24 -14q-10 0 -17.5 7t-7.5 18q0 9 6 18l39 59q-46 42 -70.5 107t-24.5 148q0 118 40 206.5t113 136.5t170 48q101 0 172 -44l38 57q10 14 24 14q11 0 18.5 -7
t7.5 -18q0 -9 -6 -18l-40 -60q45 -43 69 -107.5zM200 117l335 504q-55 36 -140 36q-80 0 -138.5 -40t-89.5 -116t-31 -180q0 -134 64 -204zM517.5 88q58.5 40 89.5 115.5t31 179.5q0 132 -63 203l-334 -503q56 -35 138 -35q80 0 138.5 40z" />
    <glyph glyph-name="Ugrave" unicode="&#xd9;" horiz-adv-x="720" 
d="M152.5 54.5q-65.5 62.5 -65.5 179.5q0 12 2 38l32 409q1 13 10 21t21 8q13 0 22 -9t8 -23l-32 -403q-1 -12 -1 -34q0 -194 196 -194q107 0 163.5 53.5t65.5 163.5l33 417q1 13 9.5 21t21.5 8t22 -8.5t8 -23.5l-33 -407q-11 -140 -84 -209.5t-206 -69.5
q-127 0 -192.5 62.5zM293 876q-8 11 -8 22t8 18.5t19 7.5q18 0 29 -19l68 -117q3 -6 3 -11q0 -7 -5 -12t-13 -5q-10 0 -18 9z" />
    <glyph glyph-name="Uacute" unicode="&#xda;" horiz-adv-x="720" 
d="M152.5 54.5q-65.5 62.5 -65.5 179.5q0 12 2 38l32 409q1 13 10 21t21 8q13 0 22 -9t8 -23l-32 -403q-1 -12 -1 -34q0 -194 196 -194q107 0 163.5 53.5t65.5 163.5l33 417q1 13 9.5 21t21.5 8t22 -8.5t8 -23.5l-33 -407q-11 -140 -84 -209.5t-206 -69.5
q-127 0 -192.5 62.5zM408 760q-7 0 -11.5 4.5t-4.5 11.5q0 6 5 14l82 114q15 19 31 19q11 0 19 -7.5t8 -18.5q0 -14 -13 -27l-97 -101q-9 -9 -19 -9z" />
    <glyph glyph-name="Ucircumflex" unicode="&#xdb;" horiz-adv-x="720" 
d="M152.5 54.5q-65.5 62.5 -65.5 179.5q0 12 2 38l32 409q1 13 10 21t21 8q13 0 22 -9t8 -23l-32 -403q-1 -12 -1 -34q0 -194 196 -194q107 0 163.5 53.5t65.5 163.5l33 417q1 13 9.5 21t21.5 8t22 -8.5t8 -23.5l-33 -407q-11 -140 -84 -209.5t-206 -69.5
q-127 0 -192.5 62.5zM308 758q-11 0 -19 8t-8 18t7 17l92 104q15 17 35 17q19 0 31 -17l72 -101q7 -10 7 -19q0 -10 -7.5 -17.5t-18.5 -7.5q-16 0 -26 17l-61 96l-82 -103q-9 -12 -22 -12z" />
    <glyph glyph-name="Udieresis" unicode="&#xdc;" horiz-adv-x="720" 
d="M152.5 54.5q-65.5 62.5 -65.5 179.5q0 12 2 38l32 409q1 13 10 21t21 8q13 0 22 -9t8 -23l-32 -403q-1 -12 -1 -34q0 -194 196 -194q107 0 163.5 53.5t65.5 163.5l33 417q1 13 9.5 21t21.5 8t22 -8.5t8 -23.5l-33 -407q-11 -140 -84 -209.5t-206 -69.5
q-127 0 -192.5 62.5zM295 811.5q-12 11.5 -12 29.5t12 29.5t30 11.5t30.5 -11.5t12.5 -29.5t-12.5 -29.5t-30.5 -11.5t-30 11.5zM460.5 811.5q-12.5 11.5 -12.5 29.5t12.5 29.5t30.5 11.5t30 -11.5t12 -29.5t-12 -29.5t-30 -11.5t-30.5 11.5z" />
    <glyph glyph-name="Yacute" unicode="&#xdd;" horiz-adv-x="591" 
d="M587 710q11 0 18 -7t7 -18q0 -12 -8 -21l-271 -327l-24 -313q-1 -13 -10 -21t-21 -8q-13 0 -22.5 9t-8.5 23l25 310l-220 327q-7 10 -7 19q0 12 9 19t21 7q16 0 25 -13l205 -306l251 303q14 17 31 17zM343 760q-7 0 -11.5 4.5t-4.5 11.5q0 6 5 14l82 114q15 19 31 19
q11 0 19 -7.5t8 -18.5q0 -14 -13 -27l-97 -101q-9 -9 -19 -9z" />
    <glyph glyph-name="Thorn" unicode="&#xde;" horiz-adv-x="638" 
d="M544 501q55 -45 55 -132q0 -93 -60 -145.5t-174 -52.5h-218l-11 -147q-1 -13 -10 -21t-21 -8q-13 0 -22 9t-8 23l51 654q1 13 10 21t21 8q13 0 22 -8.5t8 -23.5l-10 -132h210q102 0 157 -45zM494.5 260q42.5 36 42.5 108q0 65 -38.5 95t-114.5 30h-211l-21 -269h210
q90 0 132.5 36z" />
    <glyph glyph-name="germandbls" unicode="&#xdf;" horiz-adv-x="598" 
d="M282 8q-46 15 -75 40q-13 10 -13 26q0 11 7 19.5t17 8.5q8 0 17 -6q36 -26 70 -38t73 -12q53 0 85 24.5t32 65.5q0 33 -26.5 51t-79.5 36q-43 16 -70 29t-45.5 37t-18.5 61q0 41 21.5 68.5t65.5 63.5q38 31 56.5 53.5t18.5 53.5q0 32 -25.5 50t-69.5 18q-74 0 -114 -41.5
t-47 -126.5l-37 -463q-2 -14 -11 -22.5t-22 -8.5q-15 0 -22.5 8.5t-5.5 22.5l37 466q8 103 66.5 160t156.5 57q71 0 112 -31t41 -85q0 -45 -24 -76t-68 -67q-34 -28 -50 -47.5t-16 -42.5q0 -32 25.5 -50t77.5 -37q43 -16 70 -30.5t46 -39.5t19 -64q0 -66 -50 -106t-131 -40
q-47 0 -93 15z" />
    <glyph glyph-name="agrave" unicode="&#xe0;" horiz-adv-x="526" 
d="M454 337q0 -16 -1 -25l-22 -289q-1 -13 -9 -20.5t-21 -7.5q-14 0 -22.5 9t-7.5 23l4 56q-22 -43 -62 -66.5t-92 -23.5q-73 0 -119 39t-46 100q0 55 29.5 87t94.5 46.5t175 14.5h35l3 34q1 8 1 22q0 56 -26.5 82t-81.5 26q-78 0 -164 -54q-7 -4 -13 -4q-10 0 -16.5 8
t-6.5 19q0 17 15 27q36 26 87 41.5t100 15.5q166 0 166 -160zM336 88.5q43 42.5 48 110.5l3 36h-29q-92 0 -143 -9t-73 -30.5t-22 -59.5q0 -41 30 -65.5t81 -24.5q62 0 105 42.5zM184 709q-6 11 -6 20q0 13 9 21.5t21 8.5q21 0 31 -23l70 -164q2 -4 2 -10q0 -8 -5.5 -12.5
t-13.5 -4.5q-13 0 -20 11z" />
    <glyph glyph-name="aacute" unicode="&#xe1;" horiz-adv-x="526" 
d="M454 337q0 -16 -1 -25l-22 -289q-1 -13 -9 -20.5t-21 -7.5q-14 0 -22.5 9t-7.5 23l4 56q-22 -43 -62 -66.5t-92 -23.5q-73 0 -119 39t-46 100q0 55 29.5 87t94.5 46.5t175 14.5h35l3 34q1 8 1 22q0 56 -26.5 82t-81.5 26q-78 0 -164 -54q-7 -4 -13 -4q-10 0 -16.5 8
t-6.5 19q0 17 15 27q36 26 87 41.5t100 15.5q166 0 166 -160zM336 88.5q43 42.5 48 110.5l3 36h-29q-92 0 -143 -9t-73 -30.5t-22 -59.5q0 -41 30 -65.5t81 -24.5q62 0 105 42.5zM301 545q-7 0 -12 5t-5 13t5 14l138 165q12 15 28 15q13 0 23 -9t10 -22t-13 -25l-159 -149
q-7 -7 -15 -7z" />
    <glyph glyph-name="acircumflex" unicode="&#xe2;" horiz-adv-x="526" 
d="M454 337q0 -16 -1 -25l-22 -289q-1 -13 -9 -20.5t-21 -7.5q-14 0 -22.5 9t-7.5 23l4 56q-22 -43 -62 -66.5t-92 -23.5q-73 0 -119 39t-46 100q0 55 29.5 87t94.5 46.5t175 14.5h35l3 34q1 8 1 22q0 56 -26.5 82t-81.5 26q-78 0 -164 -54q-7 -4 -13 -4q-10 0 -16.5 8
t-6.5 19q0 17 15 27q36 26 87 41.5t100 15.5q166 0 166 -160zM336 88.5q43 42.5 48 110.5l3 36h-29q-92 0 -143 -9t-73 -30.5t-22 -59.5q0 -41 30 -65.5t81 -24.5q62 0 105 42.5zM216 549q-7 -4 -13 -4q-11 0 -18.5 7.5t-7.5 18.5q0 9 6 18l95 145q15 22 35 22q21 0 31 -22
l72 -146q3 -7 3 -14q0 -12 -9 -20.5t-20 -8.5q-15 0 -22 16l-59 140l-82 -140q-4 -8 -11 -12z" />
    <glyph glyph-name="atilde" unicode="&#xe3;" horiz-adv-x="526" 
d="M454 337q0 -16 -1 -25l-22 -289q-1 -13 -9 -20.5t-21 -7.5q-14 0 -22.5 9t-7.5 23l4 56q-22 -43 -62 -66.5t-92 -23.5q-73 0 -119 39t-46 100q0 55 29.5 87t94.5 46.5t175 14.5h35l3 34q1 8 1 22q0 56 -26.5 82t-81.5 26q-78 0 -164 -54q-7 -4 -13 -4q-10 0 -16.5 8
t-6.5 19q0 17 15 27q36 26 87 41.5t100 15.5q166 0 166 -160zM336 88.5q43 42.5 48 110.5l3 36h-29q-92 0 -143 -9t-73 -30.5t-22 -59.5q0 -41 30 -65.5t81 -24.5q62 0 105 42.5zM332.5 602.5q-18.5 9.5 -39.5 26.5q-23 16 -34.5 22t-22.5 6q-17 0 -28 -9.5t-21 -26.5
q-7 -11 -11.5 -16t-10.5 -5q-7 0 -12 6t-5 15q0 17 12.5 38.5t33.5 36.5t46 15q18 0 36.5 -9.5t39.5 -26.5q23 -16 34.5 -22t22.5 -6q17 0 27.5 9.5t22.5 26.5q7 11 11.5 16t10.5 5q7 0 11.5 -6t4.5 -15q0 -17 -12.5 -38.5t-33.5 -36.5t-46 -15q-18 0 -36.5 9.5z" />
    <glyph glyph-name="adieresis" unicode="&#xe4;" horiz-adv-x="526" 
d="M454 337q0 -16 -1 -25l-22 -289q-1 -13 -9 -20.5t-21 -7.5q-14 0 -22.5 9t-7.5 23l4 56q-22 -43 -62 -66.5t-92 -23.5q-73 0 -119 39t-46 100q0 55 29.5 87t94.5 46.5t175 14.5h35l3 34q1 8 1 22q0 56 -26.5 82t-81.5 26q-78 0 -164 -54q-7 -4 -13 -4q-10 0 -16.5 8
t-6.5 19q0 17 15 27q36 26 87 41.5t100 15.5q166 0 166 -160zM336 88.5q43 42.5 48 110.5l3 36h-29q-92 0 -143 -9t-73 -30.5t-22 -59.5q0 -41 30 -65.5t81 -24.5q62 0 105 42.5zM192 621.5q-12 11.5 -12 29.5q0 19 12 30.5t30 11.5t30.5 -12t12.5 -30t-12.5 -29.5
t-30.5 -11.5t-30 11.5zM357.5 621.5q-12.5 11.5 -12.5 29.5t12.5 30t30.5 12t30 -12t12 -30t-12 -29.5t-30 -11.5t-30.5 11.5z" />
    <glyph glyph-name="aring" unicode="&#xe5;" horiz-adv-x="526" 
d="M454 337q0 -16 -1 -25l-22 -289q-1 -13 -9 -20.5t-21 -7.5q-14 0 -22.5 9t-7.5 23l4 56q-22 -43 -62 -66.5t-92 -23.5q-73 0 -119 39t-46 100q0 55 29.5 87t94.5 46.5t175 14.5h35l3 34q1 8 1 22q0 56 -26.5 82t-81.5 26q-78 0 -164 -54q-7 -4 -13 -4q-10 0 -16.5 8
t-6.5 19q0 17 15 27q36 26 87 41.5t100 15.5q166 0 166 -160zM336 88.5q43 42.5 48 110.5l3 36h-29q-92 0 -143 -9t-73 -30.5t-22 -59.5q0 -41 30 -65.5t81 -24.5q62 0 105 42.5zM234 582q-29 28 -29 69q0 40 29 68t70 28t70 -28t29 -68q0 -41 -29 -69t-70 -28t-70 28z
M340 614q14 15 14 37q0 21 -14.5 36t-35.5 15t-35 -15t-14 -36q0 -22 14 -37t35 -15q22 0 36 15z" />
    <glyph glyph-name="ae" unicode="&#xe6;" horiz-adv-x="857" 
d="M451 235v-10q0 -84 42 -131t122 -47q36 0 73 12.5t66 34.5q10 7 19 7q10 0 16.5 -7t6.5 -18q0 -14 -12 -25q-27 -25 -76 -41.5t-94 -16.5q-77 0 -128.5 35t-72.5 98q-23 -62 -74 -97.5t-118 -35.5q-73 0 -119 39t-46 100q0 54 29 86.5t94 47t176 14.5h38l3 34q1 9 1 24
q0 55 -26.5 80.5t-82.5 25.5q-82 0 -166 -54q-7 -4 -14 -4q-10 0 -16 7.5t-6 18.5q0 18 15 28q36 26 87.5 41.5t101.5 15.5q124 0 156 -89q30 43 75 66t102 23q93 0 142.5 -56.5t49.5 -167.5q0 -19 -9.5 -28.5t-24.5 -9.5h-330zM510 403.5q-44 -43.5 -55 -123.5h304
q3 82 -33 124.5t-100 42.5q-72 0 -116 -43.5zM337.5 91q44.5 45 50.5 117l2 27h-32q-98 0 -149 -10t-70 -31t-19 -58q0 -41 29.5 -65.5t78.5 -24.5q65 0 109.5 45z" />
    <glyph glyph-name="ccedilla" unicode="&#xe7;" horiz-adv-x="475" 
d="M159 386q-46 -58 -46 -161q0 -83 41.5 -130.5t117.5 -47.5q37 0 67.5 12.5t60.5 36.5q9 6 16 6q10 0 17.5 -8t7.5 -18q0 -11 -9 -20q-29 -29 -72 -45.5t-90 -17.5l-8 -37q12 3 25 3q32 0 51.5 -18t19.5 -49q0 -38 -30.5 -60.5t-82.5 -22.5q-40 0 -72 12q-15 5 -15 20
q0 9 6.5 15t16.5 6q5 0 8 -1q30 -9 57 -9q30 0 45.5 10t15.5 28q0 14 -9 21.5t-26 7.5q-15 0 -29 -5t-18 -5q-8 0 -13.5 6t-4.5 13l13 69q-79 14 -125 75.5t-46 154.5q0 81 29 142t83.5 94.5t127.5 33.5q50 0 93.5 -15t68.5 -38q12 -11 12 -26q0 -12 -7.5 -21t-17.5 -9
q-7 0 -15 6q-63 50 -135 50q-83 0 -129 -58z" />
    <glyph glyph-name="egrave" unicode="&#xe8;" horiz-adv-x="526" 
d="M112 235v-10q0 -84 42 -131t121 -47q41 0 79.5 12.5t67.5 34.5q10 7 19 7q10 0 16.5 -7t6.5 -18q0 -14 -12 -25q-27 -25 -77.5 -41.5t-101.5 -16.5q-104 0 -164 63.5t-60 170.5q0 80 29 141t83 95t126 34q96 0 146 -56.5t50 -167.5q0 -19 -9.5 -28.5t-24.5 -9.5h-337z
M171.5 403.5q-44.5 -43.5 -55.5 -123.5h311q3 82 -34 124.5t-103 42.5q-74 0 -118.5 -43.5zM188 709q-6 11 -6 20q0 13 9 21.5t21 8.5q21 0 31 -23l70 -164q2 -4 2 -10q0 -8 -5.5 -12.5t-13.5 -4.5q-13 0 -20 11z" />
    <glyph glyph-name="eacute" unicode="&#xe9;" horiz-adv-x="526" 
d="M112 235v-10q0 -84 42 -131t121 -47q41 0 79.5 12.5t67.5 34.5q10 7 19 7q10 0 16.5 -7t6.5 -18q0 -14 -12 -25q-27 -25 -77.5 -41.5t-101.5 -16.5q-104 0 -164 63.5t-60 170.5q0 80 29 141t83 95t126 34q96 0 146 -56.5t50 -167.5q0 -19 -9.5 -28.5t-24.5 -9.5h-337z
M171.5 403.5q-44.5 -43.5 -55.5 -123.5h311q3 82 -34 124.5t-103 42.5q-74 0 -118.5 -43.5zM305 545q-7 0 -12 5t-5 13t5 14l138 165q12 15 28 15q13 0 23 -9t10 -22t-13 -25l-159 -149q-7 -7 -15 -7z" />
    <glyph glyph-name="ecircumflex" unicode="&#xea;" horiz-adv-x="526" 
d="M112 235v-10q0 -84 42 -131t121 -47q41 0 79.5 12.5t67.5 34.5q10 7 19 7q10 0 16.5 -7t6.5 -18q0 -14 -12 -25q-27 -25 -77.5 -41.5t-101.5 -16.5q-104 0 -164 63.5t-60 170.5q0 80 29 141t83 95t126 34q96 0 146 -56.5t50 -167.5q0 -19 -9.5 -28.5t-24.5 -9.5h-337z
M171.5 403.5q-44.5 -43.5 -55.5 -123.5h311q3 82 -34 124.5t-103 42.5q-74 0 -118.5 -43.5zM220 549q-7 -4 -13 -4q-11 0 -18.5 7.5t-7.5 18.5q0 9 6 18l95 145q15 22 35 22q21 0 31 -22l72 -146q3 -7 3 -14q0 -12 -9 -20.5t-20 -8.5q-15 0 -22 16l-59 140l-82 -140
q-4 -8 -11 -12z" />
    <glyph glyph-name="edieresis" unicode="&#xeb;" horiz-adv-x="526" 
d="M112 235v-10q0 -84 42 -131t121 -47q41 0 79.5 12.5t67.5 34.5q10 7 19 7q10 0 16.5 -7t6.5 -18q0 -14 -12 -25q-27 -25 -77.5 -41.5t-101.5 -16.5q-104 0 -164 63.5t-60 170.5q0 80 29 141t83 95t126 34q96 0 146 -56.5t50 -167.5q0 -19 -9.5 -28.5t-24.5 -9.5h-337z
M171.5 403.5q-44.5 -43.5 -55.5 -123.5h311q3 82 -34 124.5t-103 42.5q-74 0 -118.5 -43.5zM196 621.5q-12 11.5 -12 29.5q0 19 12 30.5t30 11.5t30.5 -12t12.5 -30t-12.5 -29.5t-30.5 -11.5t-30 11.5zM361.5 621.5q-12.5 11.5 -12.5 29.5t12.5 30t30.5 12t30 -12t12 -30
t-12 -29.5t-30 -11.5t-30.5 11.5z" />
    <glyph glyph-name="igrave" unicode="&#xec;" horiz-adv-x="222" 
d="M69 2.5q-8 7.5 -6 23.5l35 441q1 14 10.5 21t22.5 7t21 -7t7 -21l-35 -441q-2 -16 -11 -23.5t-22 -7.5q-14 0 -22 7.5zM23 709q-6 11 -6 20q0 13 9 21.5t21 8.5q21 0 31 -23l70 -164q2 -4 2 -10q0 -8 -5.5 -12.5t-13.5 -4.5q-13 0 -20 11z" />
    <glyph glyph-name="iacute" unicode="&#xed;" horiz-adv-x="222" 
d="M69 2.5q-8 7.5 -6 23.5l35 441q1 14 10.5 21t22.5 7t21 -7t7 -21l-35 -441q-2 -16 -11 -23.5t-22 -7.5q-14 0 -22 7.5zM140 545q-7 0 -12 5t-5 13t5 14l138 165q12 15 28 15q13 0 23 -9t10 -22t-13 -25l-159 -149q-7 -7 -15 -7z" />
    <glyph glyph-name="icircumflex" unicode="&#xee;" horiz-adv-x="222" 
d="M69 2.5q-8 7.5 -6 23.5l35 441q1 14 10.5 21t22.5 7t21 -7t7 -21l-35 -441q-2 -16 -11 -23.5t-22 -7.5q-14 0 -22 7.5zM55 549q-7 -4 -13 -4q-11 0 -18.5 7.5t-7.5 18.5q0 9 6 18l95 145q15 22 35 22q21 0 31 -22l72 -146q3 -7 3 -14q0 -12 -9 -20.5t-20 -8.5
q-15 0 -22 16l-59 140l-82 -140q-4 -8 -11 -12z" />
    <glyph glyph-name="idieresis" unicode="&#xef;" horiz-adv-x="222" 
d="M69 2.5q-8 7.5 -6 23.5l35 441q1 14 10.5 21t22.5 7t21 -7t7 -21l-35 -441q-2 -16 -11 -23.5t-22 -7.5q-14 0 -22 7.5zM31 621.5q-12 11.5 -12 29.5q0 19 12 30.5t30 11.5t30.5 -12t12.5 -30t-12.5 -29.5t-30.5 -11.5t-30 11.5zM196.5 621.5q-12.5 11.5 -12.5 29.5
t12.5 30t30.5 12t30 -12t12 -30t-12 -29.5t-30 -11.5t-30.5 11.5z" />
    <glyph glyph-name="eth" unicode="&#xf0;" horiz-adv-x="549" 
d="M507 666q9 0 15 -7t6 -16q0 -16 -15 -21l-95 -36q87 -105 87 -264q0 -166 -65 -247.5t-176 -81.5q-99 0 -158 58.5t-59 156.5q0 73 28.5 129t80.5 87t120 31q60 0 105 -25t66 -67q-7 120 -83 202l-145 -55q-3 -1 -8 -1q-9 0 -15.5 7.5t-6.5 16.5q0 15 15 20l123 46
q-47 37 -111 61q-19 7 -19 25q0 10 6.5 17.5t16.5 7.5q4 0 10 -2q91 -31 154 -87l114 43q6 2 9 2zM388.5 99.5q44.5 52.5 44.5 145.5q0 73 -41.5 114.5t-114.5 41.5q-78 0 -122 -52t-44 -143q0 -77 40 -118t116 -41q77 0 121.5 52.5z" />
    <glyph glyph-name="ntilde" unicode="&#xf1;" horiz-adv-x="561" 
d="M445 456q43 -41 43 -122q0 -18 -1 -27l-21 -281q-1 -16 -10.5 -23.5t-22.5 -7.5t-21 7.5t-7 23.5l21 277q1 8 1 23q0 117 -116 117q-74 0 -117.5 -43t-49.5 -119l-20 -255q-2 -16 -11 -23.5t-22 -7.5q-14 0 -22 7.5t-6 23.5l35 441q1 14 10.5 21t22.5 7t20.5 -7t6.5 -21
l-5 -61q25 43 68.5 67t99.5 24q81 0 124 -41zM340.5 602.5q-18.5 9.5 -39.5 26.5q-23 16 -34.5 22t-22.5 6q-17 0 -28 -9.5t-21 -26.5q-7 -11 -11.5 -16t-10.5 -5q-7 0 -12 6t-5 15q0 17 12.5 38.5t33.5 36.5t46 15q18 0 36.5 -9.5t39.5 -26.5q23 -16 34.5 -22t22.5 -6
q17 0 27.5 9.5t22.5 26.5q7 11 11.5 16t10.5 5q7 0 11.5 -6t4.5 -15q0 -17 -12.5 -38.5t-33.5 -36.5t-46 -15q-18 0 -36.5 9.5z" />
    <glyph glyph-name="ograve" unicode="&#xf2;" horiz-adv-x="545" 
d="M151.5 22q-49.5 29 -76 82t-26.5 123q0 81 28.5 142t81 94.5t120.5 33.5q66 0 115.5 -29t76 -82t26.5 -124q0 -80 -28.5 -141t-81 -94.5t-121.5 -33.5q-65 0 -114.5 29zM390 105.5q44 58.5 44 159.5q0 85 -41 132t-114 47q-78 0 -122 -58.5t-44 -161.5q0 -86 40 -131.5
t116 -45.5q77 0 121 58.5zM185 709q-6 11 -6 20q0 13 9 21.5t21 8.5q21 0 31 -23l70 -164q2 -4 2 -10q0 -8 -5.5 -12.5t-13.5 -4.5q-13 0 -20 11z" />
    <glyph glyph-name="oacute" unicode="&#xf3;" horiz-adv-x="545" 
d="M151.5 22q-49.5 29 -76 82t-26.5 123q0 81 28.5 142t81 94.5t120.5 33.5q66 0 115.5 -29t76 -82t26.5 -124q0 -80 -28.5 -141t-81 -94.5t-121.5 -33.5q-65 0 -114.5 29zM390 105.5q44 58.5 44 159.5q0 85 -41 132t-114 47q-78 0 -122 -58.5t-44 -161.5q0 -86 40 -131.5
t116 -45.5q77 0 121 58.5zM302 545q-7 0 -12 5t-5 13t5 14l138 165q12 15 28 15q13 0 23 -9t10 -22t-13 -25l-159 -149q-7 -7 -15 -7z" />
    <glyph glyph-name="ocircumflex" unicode="&#xf4;" horiz-adv-x="545" 
d="M151.5 22q-49.5 29 -76 82t-26.5 123q0 81 28.5 142t81 94.5t120.5 33.5q66 0 115.5 -29t76 -82t26.5 -124q0 -80 -28.5 -141t-81 -94.5t-121.5 -33.5q-65 0 -114.5 29zM390 105.5q44 58.5 44 159.5q0 85 -41 132t-114 47q-78 0 -122 -58.5t-44 -161.5q0 -86 40 -131.5
t116 -45.5q77 0 121 58.5zM217 549q-7 -4 -13 -4q-11 0 -18.5 7.5t-7.5 18.5q0 9 6 18l95 145q15 22 35 22q21 0 31 -22l72 -146q3 -7 3 -14q0 -12 -9 -20.5t-20 -8.5q-15 0 -22 16l-59 140l-82 -140q-4 -8 -11 -12z" />
    <glyph glyph-name="otilde" unicode="&#xf5;" horiz-adv-x="545" 
d="M151.5 22q-49.5 29 -76 82t-26.5 123q0 81 28.5 142t81 94.5t120.5 33.5q66 0 115.5 -29t76 -82t26.5 -124q0 -80 -28.5 -141t-81 -94.5t-121.5 -33.5q-65 0 -114.5 29zM390 105.5q44 58.5 44 159.5q0 85 -41 132t-114 47q-78 0 -122 -58.5t-44 -161.5q0 -86 40 -131.5
t116 -45.5q77 0 121 58.5zM333.5 602.5q-18.5 9.5 -39.5 26.5q-23 16 -34.5 22t-22.5 6q-17 0 -28 -9.5t-21 -26.5q-7 -11 -11.5 -16t-10.5 -5q-7 0 -12 6t-5 15q0 17 12.5 38.5t33.5 36.5t46 15q18 0 36.5 -9.5t39.5 -26.5q23 -16 34.5 -22t22.5 -6q17 0 27.5 9.5
t22.5 26.5q7 11 11.5 16t10.5 5q7 0 11.5 -6t4.5 -15q0 -17 -12.5 -38.5t-33.5 -36.5t-46 -15q-18 0 -36.5 9.5z" />
    <glyph glyph-name="odieresis" unicode="&#xf6;" horiz-adv-x="545" 
d="M151.5 22q-49.5 29 -76 82t-26.5 123q0 81 28.5 142t81 94.5t120.5 33.5q66 0 115.5 -29t76 -82t26.5 -124q0 -80 -28.5 -141t-81 -94.5t-121.5 -33.5q-65 0 -114.5 29zM390 105.5q44 58.5 44 159.5q0 85 -41 132t-114 47q-78 0 -122 -58.5t-44 -161.5q0 -86 40 -131.5
t116 -45.5q77 0 121 58.5zM193 621.5q-12 11.5 -12 29.5q0 19 12 30.5t30 11.5t30.5 -12t12.5 -30t-12.5 -29.5t-30.5 -11.5t-30 11.5zM358.5 621.5q-12.5 11.5 -12.5 29.5t12.5 30t30.5 12t30 -12t12 -30t-12 -29.5t-30 -11.5t-30.5 11.5z" />
    <glyph glyph-name="divide" unicode="&#xf7;" 
d="M279.5 425q-12.5 13 -12.5 33q0 21 12.5 33.5t32.5 12.5q19 0 31.5 -12.5t12.5 -33.5q0 -20 -13 -33t-31 -13q-20 0 -32.5 13zM67 266q-7 8 -7 19q0 10 8 17t19 7h435q11 0 18 -8t7 -19q0 -10 -8 -17t-19 -7h-435q-11 0 -18 8zM251 77q-13 13 -13 33q0 21 13 33.5
t32 12.5t31.5 -12.5t12.5 -33.5q0 -20 -12.5 -33t-31.5 -13t-32 13z" />
    <glyph glyph-name="oslash" unicode="&#xf8;" horiz-adv-x="545" 
d="M479.5 364.5q17.5 -45.5 17.5 -102.5q0 -80 -28.5 -141t-81 -94.5t-121.5 -33.5q-63 0 -113 28l-27 -41q-8 -14 -22 -14q-9 0 -15.5 6t-6.5 16q0 9 6 18l28 43q-32 30 -49.5 75.5t-17.5 102.5q0 81 28.5 142t81 94.5t120.5 33.5q64 0 114 -28l27 41q10 14 23 14
q9 0 15 -6t6 -16q0 -9 -6 -18l-28 -43q32 -31 49.5 -76.5zM148 98l215 325q-34 21 -84 21q-78 0 -122.5 -59t-44.5 -161q0 -82 36 -126zM390 105.5q44 58.5 44 159.5q0 81 -37 127l-214 -325q37 -20 86 -20q77 0 121 58.5z" />
    <glyph glyph-name="ugrave" unicode="&#xf9;" horiz-adv-x="553" 
d="M483 487.5q8 -7.5 7 -23.5l-35 -441q-1 -14 -10.5 -21t-22.5 -7t-20.5 7t-6.5 21l5 62q-25 -44 -67.5 -68t-95.5 -24q-80 0 -122.5 41.5t-42.5 122.5q0 17 1 26l22 281q1 16 10.5 23.5t22.5 7.5t21 -7.5t7 -23.5l-22 -276q-1 -8 -1 -24q0 -117 113 -117q71 0 114 43
t49 120l20 254q1 16 10.5 23.5t22.5 7.5t21 -7.5zM188 709q-6 11 -6 20q0 13 9 21.5t21 8.5q21 0 31 -23l70 -164q2 -4 2 -10q0 -8 -5.5 -12.5t-13.5 -4.5q-13 0 -20 11z" />
    <glyph glyph-name="uacute" unicode="&#xfa;" horiz-adv-x="553" 
d="M483 487.5q8 -7.5 7 -23.5l-35 -441q-1 -14 -10.5 -21t-22.5 -7t-20.5 7t-6.5 21l5 62q-25 -44 -67.5 -68t-95.5 -24q-80 0 -122.5 41.5t-42.5 122.5q0 17 1 26l22 281q1 16 10.5 23.5t22.5 7.5t21 -7.5t7 -23.5l-22 -276q-1 -8 -1 -24q0 -117 113 -117q71 0 114 43
t49 120l20 254q1 16 10.5 23.5t22.5 7.5t21 -7.5zM305 545q-7 0 -12 5t-5 13t5 14l138 165q12 15 28 15q13 0 23 -9t10 -22t-13 -25l-159 -149q-7 -7 -15 -7z" />
    <glyph glyph-name="ucircumflex" unicode="&#xfb;" horiz-adv-x="553" 
d="M483 487.5q8 -7.5 7 -23.5l-35 -441q-1 -14 -10.5 -21t-22.5 -7t-20.5 7t-6.5 21l5 62q-25 -44 -67.5 -68t-95.5 -24q-80 0 -122.5 41.5t-42.5 122.5q0 17 1 26l22 281q1 16 10.5 23.5t22.5 7.5t21 -7.5t7 -23.5l-22 -276q-1 -8 -1 -24q0 -117 113 -117q71 0 114 43
t49 120l20 254q1 16 10.5 23.5t22.5 7.5t21 -7.5zM220 549q-7 -4 -13 -4q-11 0 -18.5 7.5t-7.5 18.5q0 9 6 18l95 145q15 22 35 22q21 0 31 -22l72 -146q3 -7 3 -14q0 -12 -9 -20.5t-20 -8.5q-15 0 -22 16l-59 140l-82 -140q-4 -8 -11 -12z" />
    <glyph glyph-name="udieresis" unicode="&#xfc;" horiz-adv-x="553" 
d="M483 487.5q8 -7.5 7 -23.5l-35 -441q-1 -14 -10.5 -21t-22.5 -7t-20.5 7t-6.5 21l5 62q-25 -44 -67.5 -68t-95.5 -24q-80 0 -122.5 41.5t-42.5 122.5q0 17 1 26l22 281q1 16 10.5 23.5t22.5 7.5t21 -7.5t7 -23.5l-22 -276q-1 -8 -1 -24q0 -117 113 -117q71 0 114 43
t49 120l20 254q1 16 10.5 23.5t22.5 7.5t21 -7.5zM196 621.5q-12 11.5 -12 29.5q0 19 12 30.5t30 11.5t30.5 -12t12.5 -30t-12.5 -29.5t-30.5 -11.5t-30 11.5zM361.5 621.5q-12.5 11.5 -12.5 29.5t12.5 30t30.5 12t30 -12t12 -30t-12 -29.5t-30 -11.5t-30.5 11.5z" />
    <glyph glyph-name="yacute" unicode="&#xfd;" horiz-adv-x="509" 
d="M477 490q12 0 20.5 -7.5t8.5 -19.5q0 -8 -4 -15l-324 -615q-10 -18 -29 -18q-11 0 -19 6.5t-8 16.5q0 6 4 13l79 150l-166 448q-2 4 -2 12q0 12 9 20t21 8q20 0 27 -20l145 -408l213 412q9 17 25 17zM284 545q-7 0 -12 5t-5 13t5 14l138 165q12 15 28 15q13 0 23 -9
t10 -22t-13 -25l-159 -149q-7 -7 -15 -7z" />
    <glyph glyph-name="thorn" unicode="&#xfe;" horiz-adv-x="573" 
d="M426 468.5q47 -28.5 73 -81.5t26 -124q0 -80 -28.5 -141.5t-80 -95t-118.5 -33.5q-59 0 -103.5 26.5t-65.5 74.5l-20 -251q-1 -14 -10 -21t-22 -7t-21.5 7t-7.5 21l67 836q1 16 10.5 23.5t22.5 7.5t21.5 -7.5t7.5 -23.5l-22 -268q25 40 68.5 63t94.5 23q61 0 108 -28.5z
M417 104.5q44 57.5 44 158.5q0 86 -40.5 133.5t-114.5 47.5q-77 0 -121.5 -58.5t-44.5 -160.5q0 -87 40.5 -132.5t115.5 -45.5q77 0 121 57.5z" />
    <glyph glyph-name="ydieresis" unicode="&#xff;" horiz-adv-x="509" 
d="M477 490q12 0 20.5 -7.5t8.5 -19.5q0 -8 -4 -15l-324 -615q-10 -18 -29 -18q-11 0 -19 6.5t-8 16.5q0 6 4 13l79 150l-166 448q-2 4 -2 12q0 12 9 20t21 8q20 0 27 -20l145 -408l213 412q9 17 25 17zM175 621.5q-12 11.5 -12 29.5q0 19 12 30.5t30 11.5t30.5 -12
t12.5 -30t-12.5 -29.5t-30.5 -11.5t-30 11.5zM340.5 621.5q-12.5 11.5 -12.5 29.5t12.5 30t30.5 12t30 -12t12 -30t-12 -29.5t-30 -11.5t-30.5 11.5z" />
    <glyph glyph-name="Amacron" unicode="&#x100;" horiz-adv-x="720" 
d="M668 24q0 -13 -9 -21.5t-21 -8.5q-9 0 -16.5 6t-11.5 17l-61 171h-383l-89 -175q-8 -18 -27 -18q-12 0 -20.5 8t-8.5 20q0 8 4 16l334 647q12 24 37 24q12 0 22 -7t15 -21l233 -646q2 -4 2 -12zM193 242h337l-139 388zM262.5 822q-7.5 7 -7.5 19q0 13 9 19.5t24 6.5h243
q30 0 30 -26q0 -12 -9 -19t-24 -7h-243q-15 0 -22.5 7z" />
    <glyph glyph-name="amacron" unicode="&#x101;" horiz-adv-x="526" 
d="M454 337q0 -16 -1 -25l-22 -289q-1 -13 -9 -20.5t-21 -7.5q-14 0 -22.5 9t-7.5 23l4 56q-22 -43 -62 -66.5t-92 -23.5q-73 0 -119 39t-46 100q0 55 29.5 87t94.5 46.5t175 14.5h35l3 34q1 8 1 22q0 56 -26.5 82t-81.5 26q-78 0 -164 -54q-7 -4 -13 -4q-10 0 -16.5 8
t-6.5 19q0 17 15 27q36 26 87 41.5t100 15.5q166 0 166 -160zM336 88.5q43 42.5 48 110.5l3 36h-29q-92 0 -143 -9t-73 -30.5t-22 -59.5q0 -41 30 -65.5t81 -24.5q62 0 105 42.5zM152 651q0 13 9 19.5t24 6.5h243q30 0 30 -25q0 -13 -9 -19.5t-24 -6.5h-243q-30 0 -30 25z
" />
    <glyph glyph-name="Abreve" unicode="&#x102;" horiz-adv-x="720" 
d="M668 24q0 -13 -9 -21.5t-21 -8.5q-9 0 -16.5 6t-11.5 17l-61 171h-383l-89 -175q-8 -18 -27 -18q-12 0 -20.5 8t-8.5 20q0 8 4 16l334 647q12 24 37 24q12 0 22 -7t15 -21l233 -646q2 -4 2 -12zM193 242h337l-139 388zM316 800q-37 22 -56 66q-3 8 -3 14q0 10 7.5 16.5
t16.5 6.5q17 0 26 -16q17 -32 40.5 -46t57.5 -14t60.5 14t47.5 46q6 8 14 12.5t15 4.5q10 0 16.5 -5.5t6.5 -15.5q0 -9 -5 -17q-25 -44 -66 -66t-91 -22t-87 22z" />
    <glyph glyph-name="abreve" unicode="&#x103;" horiz-adv-x="526" 
d="M454 337q0 -16 -1 -25l-22 -289q-1 -13 -9 -20.5t-21 -7.5q-14 0 -22.5 9t-7.5 23l4 56q-22 -43 -62 -66.5t-92 -23.5q-73 0 -119 39t-46 100q0 55 29.5 87t94.5 46.5t175 14.5h35l3 34q1 8 1 22q0 56 -26.5 82t-81.5 26q-78 0 -164 -54q-7 -4 -13 -4q-10 0 -16.5 8
t-6.5 19q0 17 15 27q36 26 87 41.5t100 15.5q166 0 166 -160zM336 88.5q43 42.5 48 110.5l3 36h-29q-92 0 -143 -9t-73 -30.5t-22 -59.5q0 -41 30 -65.5t81 -24.5q62 0 105 42.5zM212 608q-37 25 -55 73q-3 8 -3 13q0 12 8 19.5t18 7.5q17 0 26 -20q13 -34 38.5 -51.5
t58.5 -17.5q68 0 107 69q11 20 28 20q9 0 15.5 -6.5t6.5 -16.5q0 -9 -4 -17q-23 -48 -64.5 -73t-92.5 -25q-50 0 -87 25z" />
    <glyph glyph-name="Aogonek" unicode="&#x104;" horiz-adv-x="720" 
d="M691 -129q7 0 11.5 -5t4.5 -13q0 -7 -4.5 -15t-12.5 -12q-31 -17 -71 -17q-48 0 -77 26.5t-29 69.5q0 45 23 77t68 47l-56 159h-383l-89 -175q-8 -18 -27 -18q-12 0 -20.5 8t-8.5 20q0 8 4 16l334 647q12 24 37 24q12 0 22 -7t15 -21l232 -645q3 -7 3 -14q0 -11 -8 -19
t-18 -9q-33 -1 -53.5 -23.5t-20.5 -56.5q0 -30 16 -45.5t45 -15.5q23 0 49 13q10 4 14 4zM192 242h336l-138 388z" />
    <glyph glyph-name="aogonek" unicode="&#x105;" horiz-adv-x="526" 
d="M450 -130q8 0 12 -5t4 -13q0 -7 -4 -14.5t-12 -11.5q-33 -17 -69 -17q-50 0 -79.5 26.5t-29.5 69.5t25.5 75t73.5 47l4 56q-23 -45 -63 -67.5t-91 -22.5q-73 0 -119 39t-46 100q0 54 29 86.5t94 47t176 14.5h35l3 34q1 8 1 22q0 56 -26 82t-82 26q-78 0 -164 -54
q-7 -4 -14 -4q-9 0 -15.5 8t-6.5 19q0 17 15 27q37 26 88 41.5t99 15.5q166 0 166 -160q0 -16 -1 -25l-22 -288q-1 -20 -21 -24q-34 -4 -58.5 -26t-24.5 -59q0 -30 16 -45.5t45 -15.5q22 0 49 13q8 3 13 3zM336 88.5q43 42.5 48 110.5l3 36h-29q-98 0 -149 -10t-70 -31
t-19 -58q0 -41 30 -65.5t81 -24.5q62 0 105 42.5z" />
    <glyph glyph-name="Cacute" unicode="&#x106;" horiz-adv-x="677" 
d="M210.5 31.5q-66.5 39.5 -102.5 114t-36 176.5q0 118 40.5 206.5t115.5 136.5t177 48q77 0 140.5 -23t106.5 -67q10 -10 10 -23q0 -12 -7.5 -20.5t-18.5 -8.5q-10 0 -19 8q-43 41 -93.5 60t-120.5 19q-83 0 -143.5 -40.5t-92 -116.5t-31.5 -180q0 -131 63 -202.5
t179 -71.5q55 0 106.5 19t93.5 57q11 10 22 10q10 0 16 -7.5t6 -18.5q0 -14 -11 -24q-99 -91 -246 -91q-88 0 -154.5 39.5zM432 760q-7 0 -11.5 4.5t-4.5 11.5q0 6 5 14l82 114q15 19 31 19q11 0 19 -7.5t8 -18.5q0 -14 -13 -27l-97 -101q-9 -9 -19 -9z" />
    <glyph glyph-name="cacute" unicode="&#x107;" horiz-adv-x="475" 
d="M151.5 22q-49.5 29 -76 82t-26.5 123q0 81 29 142t83.5 94.5t127.5 33.5q50 0 93.5 -15t68.5 -38q12 -11 12 -26q0 -12 -7.5 -21t-17.5 -9q-7 0 -15 6q-63 50 -135 50q-83 0 -129 -58t-46 -161q0 -83 41.5 -130.5t117.5 -47.5q37 0 67.5 12.5t60.5 36.5q9 6 16 6
q10 0 17.5 -8t7.5 -18q0 -11 -9 -20q-30 -30 -74 -46.5t-92 -16.5q-65 0 -114.5 29zM305 545q-7 0 -12 5t-5 13t5 14l138 165q12 15 28 15q13 0 23 -9t10 -22t-13 -25l-159 -149q-7 -7 -15 -7z" />
    <glyph glyph-name="Ccircumflex" unicode="&#x108;" horiz-adv-x="677" 
d="M210.5 31.5q-66.5 39.5 -102.5 114t-36 176.5q0 118 40.5 206.5t115.5 136.5t177 48q77 0 140.5 -23t106.5 -67q10 -10 10 -23q0 -12 -7.5 -20.5t-18.5 -8.5q-10 0 -19 8q-43 41 -93.5 60t-120.5 19q-83 0 -143.5 -40.5t-92 -116.5t-31.5 -180q0 -131 63 -202.5
t179 -71.5q55 0 106.5 19t93.5 57q11 10 22 10q10 0 16 -7.5t6 -18.5q0 -14 -11 -24q-99 -91 -246 -91q-88 0 -154.5 39.5zM332 758q-11 0 -19 8t-8 18t7 17l92 104q15 17 35 17q19 0 31 -17l72 -101q7 -10 7 -19q0 -10 -7.5 -17.5t-18.5 -7.5q-16 0 -26 17l-61 96l-82 -103
q-9 -12 -22 -12z" />
    <glyph glyph-name="ccircumflex" unicode="&#x109;" horiz-adv-x="475" 
d="M151.5 22q-49.5 29 -76 82t-26.5 123q0 81 29 142t83.5 94.5t127.5 33.5q50 0 93.5 -15t68.5 -38q12 -11 12 -26q0 -12 -7.5 -21t-17.5 -9q-7 0 -15 6q-63 50 -135 50q-83 0 -129 -58t-46 -161q0 -83 41.5 -130.5t117.5 -47.5q37 0 67.5 12.5t60.5 36.5q9 6 16 6
q10 0 17.5 -8t7.5 -18q0 -11 -9 -20q-30 -30 -74 -46.5t-92 -16.5q-65 0 -114.5 29zM220 549q-7 -4 -13 -4q-11 0 -18.5 7.5t-7.5 18.5q0 9 6 18l95 145q15 22 35 22q21 0 31 -22l72 -146q3 -7 3 -14q0 -12 -9 -20.5t-20 -8.5q-15 0 -22 16l-59 140l-82 -140q-4 -8 -11 -12z
" />
    <glyph glyph-name="Cdotaccent" unicode="&#x10a;" horiz-adv-x="677" 
d="M210.5 31.5q-66.5 39.5 -102.5 114t-36 176.5q0 118 40.5 206.5t115.5 136.5t177 48q77 0 140.5 -23t106.5 -67q10 -10 10 -23q0 -12 -7.5 -20.5t-18.5 -8.5q-10 0 -19 8q-43 41 -93.5 60t-120.5 19q-83 0 -143.5 -40.5t-92 -116.5t-31.5 -180q0 -131 63 -202.5
t179 -71.5q55 0 106.5 19t93.5 57q11 10 22 10q10 0 16 -7.5t6 -18.5q0 -14 -11 -24q-99 -91 -246 -91q-88 0 -154.5 39.5zM399.5 810q-12.5 12 -12.5 31q0 20 12.5 32t32.5 12t32.5 -12t12.5 -32q0 -19 -12.5 -31t-32.5 -12t-32.5 12z" />
    <glyph glyph-name="cdotaccent" unicode="&#x10b;" horiz-adv-x="475" 
d="M151.5 22q-49.5 29 -76 82t-26.5 123q0 81 29 142t83.5 94.5t127.5 33.5q50 0 93.5 -15t68.5 -38q12 -11 12 -26q0 -12 -7.5 -21t-17.5 -9q-7 0 -15 6q-63 50 -135 50q-83 0 -129 -58t-46 -161q0 -83 41.5 -130.5t117.5 -47.5q37 0 67.5 12.5t60.5 36.5q9 6 16 6
q10 0 17.5 -8t7.5 -18q0 -11 -9 -20q-30 -30 -74 -46.5t-92 -16.5q-65 0 -114.5 29zM276.5 620q-12.5 12 -12.5 31q0 20 12.5 32t32.5 12t32.5 -12t12.5 -32q0 -19 -12.5 -31t-32.5 -12t-32.5 12z" />
    <glyph glyph-name="Ccaron" unicode="&#x10c;" horiz-adv-x="677" 
d="M210.5 31.5q-66.5 39.5 -102.5 114t-36 176.5q0 118 40.5 206.5t115.5 136.5t177 48q77 0 140.5 -23t106.5 -67q10 -10 10 -23q0 -12 -7.5 -20.5t-18.5 -8.5q-10 0 -19 8q-43 41 -93.5 60t-120.5 19q-83 0 -143.5 -40.5t-92 -116.5t-31.5 -180q0 -131 63 -202.5
t179 -71.5q55 0 106.5 19t93.5 57q11 10 22 10q10 0 16 -7.5t6 -18.5q0 -14 -11 -24q-99 -91 -246 -91q-88 0 -154.5 39.5zM531 922q11 0 19 -8t8 -18t-7 -17l-92 -104q-15 -17 -35 -17q-19 0 -31 17l-72 102q-7 10 -7 19q0 10 7.5 17t18.5 7q17 0 26 -16l61 -97l82 103
q9 12 22 12z" />
    <glyph glyph-name="ccaron" unicode="&#x10d;" horiz-adv-x="475" 
d="M151.5 22q-49.5 29 -76 82t-26.5 123q0 81 29 142t83.5 94.5t127.5 33.5q50 0 93.5 -15t68.5 -38q12 -11 12 -26q0 -12 -7.5 -21t-17.5 -9q-7 0 -15 6q-63 50 -135 50q-83 0 -129 -58t-46 -161q0 -83 41.5 -130.5t117.5 -47.5q37 0 67.5 12.5t60.5 36.5q9 6 16 6
q10 0 17.5 -8t7.5 -18q0 -11 -9 -20q-30 -30 -74 -46.5t-92 -16.5q-65 0 -114.5 29zM397 752q7 4 13 4q11 0 18.5 -7.5t7.5 -18.5q0 -9 -6 -18l-95 -145q-15 -22 -35 -22q-21 0 -31 22l-72 146q-3 8 -3 14q0 12 9 21t20 9q15 0 22 -17l59 -140l82 140q4 8 11 12z" />
    <glyph glyph-name="Dcaron" unicode="&#x10e;" horiz-adv-x="731" 
d="M83.5 10.5q-9.5 10.5 -7.5 26.5l49 637q1 14 10.5 22.5t23.5 8.5h190q158 0 243 -84t85 -238q0 -119 -41.5 -205t-120.5 -132t-191 -46h-215q-16 0 -25.5 10.5zM322 54q143 0 216.5 85.5t73.5 244.5q0 267 -265 267h-162l-47 -597h184zM512 922q11 0 19 -8t8 -18t-7 -17
l-92 -104q-15 -17 -35 -17q-19 0 -31 17l-72 102q-7 10 -7 19q0 10 7.5 17t18.5 7q17 0 26 -16l61 -97l82 103q9 12 22 12z" />
    <glyph glyph-name="dcaron" unicode="&#x10f;" horiz-adv-x="573" 
d="M573.5 702q9.5 9 20.5 9t18.5 -7.5t7.5 -20.5q0 -7 -1 -11l-33 -145q-1 -8 -6.5 -12t-11.5 -4q-7 0 -12.5 5t-4.5 14l12 147q1 16 10.5 25zM520 703.5q8 -7.5 7 -20.5l-51 -657q-1 -16 -10.5 -23.5t-22.5 -7.5t-21 7.5t-7 23.5l5 56q-25 -42 -69 -65.5t-95 -23.5
q-61 0 -108 29t-73 82t-26 123q0 80 28.5 141.5t80 95t118.5 33.5q59 0 103 -25.5t65 -72.5l22 284q1 14 10.5 21t22.5 7t21 -7.5zM389.5 105.5q44.5 58.5 44.5 159.5q0 87 -40.5 133t-115.5 46q-77 0 -121 -57.5t-44 -158.5q0 -87 40.5 -134t114.5 -47q77 0 121.5 58.5z
" />
    <glyph glyph-name="Dcroat" unicode="&#x110;" horiz-adv-x="740" 
d="M600.5 621q84.5 -84 84.5 -238q0 -119 -41 -205t-120 -132t-191 -46h-215q-16 0 -25.5 10.5t-8.5 26.5l23 295h-67q-15 0 -23 7t-8 19q0 11 8 18t22 7h72l23 291q1 14 10 22.5t23 8.5h191q158 0 242.5 -84zM547.5 139.5q73.5 85.5 73.5 244.5q0 267 -266 267h-161
l-21 -268h167q30 0 30 -25q0 -12 -7.5 -19t-21.5 -7h-172l-22 -278h184q143 0 216.5 85.5z" />
    <glyph glyph-name="dcroat" unicode="&#x111;" horiz-adv-x="573" 
d="M613 603q7 -7 7 -18q0 -10 -7 -17t-19 -7h-76l-42 -535q-1 -16 -10.5 -23.5t-22.5 -7.5t-21 7.5t-7 23.5l5 56q-25 -42 -69 -65.5t-95 -23.5q-61 0 -108 29t-73 82t-26 123q0 80 28.5 141.5t80 95t118.5 33.5q59 0 103 -26t65 -73l13 163h-173q-11 0 -18 7t-7 18
q0 10 7 17t19 7h176l6 73q1 14 10 21t22 7t21.5 -7t7.5 -21l-6 -73h72q12 0 19 -7zM389.5 105.5q44.5 58.5 44.5 159.5q0 87 -40.5 133t-115.5 46q-77 0 -121 -57.5t-44 -158.5q0 -87 40.5 -134t114.5 -47q77 0 121.5 58.5z" />
    <glyph glyph-name="Emacron" unicode="&#x112;" horiz-adv-x="579" 
d="M558.5 697.5q7.5 -7.5 7.5 -18.5q0 -12 -7.5 -19.5t-20.5 -7.5h-353l-21 -267h330q12 0 19.5 -7.5t7.5 -19.5t-7.5 -19.5t-20.5 -7.5h-333l-22 -278h350q12 0 19.5 -7.5t7.5 -18.5q0 -12 -7.5 -19.5t-20.5 -7.5h-382q-16 0 -23.5 8.5t-6.5 24.5l50 642q2 30 33 30h381
q12 0 19.5 -7.5zM224.5 822q-7.5 7 -7.5 19q0 13 9 19.5t24 6.5h243q30 0 30 -26q0 -12 -9 -19t-24 -7h-243q-15 0 -22.5 7z" />
    <glyph glyph-name="emacron" unicode="&#x113;" horiz-adv-x="526" 
d="M112 235v-10q0 -84 42 -131t121 -47q41 0 79.5 12.5t67.5 34.5q10 7 19 7q10 0 16.5 -7t6.5 -18q0 -14 -12 -25q-27 -25 -77.5 -41.5t-101.5 -16.5q-104 0 -164 63.5t-60 170.5q0 80 29 141t83 95t126 34q96 0 146 -56.5t50 -167.5q0 -19 -9.5 -28.5t-24.5 -9.5h-337z
M171.5 403.5q-44.5 -43.5 -55.5 -123.5h311q3 82 -34 124.5t-103 42.5q-74 0 -118.5 -43.5zM156 651q0 13 9 19.5t24 6.5h243q30 0 30 -25q0 -13 -9 -19.5t-24 -6.5h-243q-30 0 -30 25z" />
    <glyph glyph-name="Ebreve" unicode="&#x114;" horiz-adv-x="579" 
d="M558.5 697.5q7.5 -7.5 7.5 -18.5q0 -12 -7.5 -19.5t-20.5 -7.5h-353l-21 -267h330q12 0 19.5 -7.5t7.5 -19.5t-7.5 -19.5t-20.5 -7.5h-333l-22 -278h350q12 0 19.5 -7.5t7.5 -18.5q0 -12 -7.5 -19.5t-20.5 -7.5h-382q-16 0 -23.5 8.5t-6.5 24.5l50 642q2 30 33 30h381
q12 0 19.5 -7.5zM278 800q-37 22 -56 66q-3 8 -3 14q0 10 7.5 16.5t16.5 6.5q17 0 26 -16q17 -32 40.5 -46t57.5 -14t60.5 14t47.5 46q6 8 14 12.5t15 4.5q10 0 16.5 -5.5t6.5 -15.5q0 -9 -5 -17q-25 -44 -66 -66t-91 -22t-87 22z" />
    <glyph glyph-name="ebreve" unicode="&#x115;" horiz-adv-x="526" 
d="M112 235v-10q0 -84 42 -131t121 -47q41 0 79.5 12.5t67.5 34.5q10 7 19 7q10 0 16.5 -7t6.5 -18q0 -14 -12 -25q-27 -25 -77.5 -41.5t-101.5 -16.5q-104 0 -164 63.5t-60 170.5q0 80 29 141t83 95t126 34q96 0 146 -56.5t50 -167.5q0 -19 -9.5 -28.5t-24.5 -9.5h-337z
M171.5 403.5q-44.5 -43.5 -55.5 -123.5h311q3 82 -34 124.5t-103 42.5q-74 0 -118.5 -43.5zM216 608q-37 25 -55 73q-3 8 -3 13q0 12 8 19.5t18 7.5q17 0 26 -20q13 -34 38.5 -51.5t58.5 -17.5q68 0 107 69q11 20 28 20q9 0 15.5 -6.5t6.5 -16.5q0 -9 -4 -17
q-23 -48 -64.5 -73t-92.5 -25q-50 0 -87 25z" />
    <glyph glyph-name="Edotaccent" unicode="&#x116;" horiz-adv-x="579" 
d="M558.5 697.5q7.5 -7.5 7.5 -18.5q0 -12 -7.5 -19.5t-20.5 -7.5h-353l-21 -267h330q12 0 19.5 -7.5t7.5 -19.5t-7.5 -19.5t-20.5 -7.5h-333l-22 -278h350q12 0 19.5 -7.5t7.5 -18.5q0 -12 -7.5 -19.5t-20.5 -7.5h-382q-16 0 -23.5 8.5t-6.5 24.5l50 642q2 30 33 30h381
q12 0 19.5 -7.5zM337.5 810q-12.5 12 -12.5 31q0 20 12.5 32t32.5 12t32.5 -12t12.5 -32q0 -19 -12.5 -31t-32.5 -12t-32.5 12z" />
    <glyph glyph-name="edotaccent" unicode="&#x117;" horiz-adv-x="526" 
d="M112 235v-10q0 -84 42 -131t121 -47q41 0 79.5 12.5t67.5 34.5q10 7 19 7q10 0 16.5 -7t6.5 -18q0 -14 -12 -25q-27 -25 -77.5 -41.5t-101.5 -16.5q-104 0 -164 63.5t-60 170.5q0 80 29 141t83 95t126 34q96 0 146 -56.5t50 -167.5q0 -19 -9.5 -28.5t-24.5 -9.5h-337z
M171.5 403.5q-44.5 -43.5 -55.5 -123.5h311q3 82 -34 124.5t-103 42.5q-74 0 -118.5 -43.5zM276.5 620q-12.5 12 -12.5 31q0 20 12.5 32t32.5 12t32.5 -12t12.5 -32q0 -19 -12.5 -31t-32.5 -12t-32.5 12z" />
    <glyph glyph-name="Eogonek" unicode="&#x118;" horiz-adv-x="579" 
d="M558.5 697.5q7.5 -7.5 7.5 -18.5q0 -12 -7.5 -19.5t-20.5 -7.5h-353l-21 -267h330q12 0 19.5 -7.5t7.5 -19.5t-7.5 -19.5t-20.5 -7.5h-333l-22 -278h350q12 0 19.5 -7.5t7.5 -18.5q0 -12 -7 -19t-19 -8q-49 -1 -73 -25t-24 -60q0 -30 16 -45.5t45 -15.5q22 0 49 13
q8 3 13 3q8 0 12 -5t4 -13q0 -7 -4 -14.5t-12 -11.5q-33 -17 -71 -17q-48 0 -77.5 26.5t-29.5 69.5q0 57 44 95h-276q-16 0 -23.5 8.5t-6.5 24.5l50 642q2 30 33 30h381q12 0 19.5 -7.5z" />
    <glyph glyph-name="eogonek" unicode="&#x119;" horiz-adv-x="526" 
d="M112 235v-10q0 -84 42 -131t121 -47q41 0 79.5 12.5t67.5 34.5q10 7 19 7q10 0 16.5 -7t6.5 -18q0 -14 -12 -25q-20 -17 -51 -31q-55 -25 -76 -50.5t-21 -54.5q0 -30 16 -45.5t46 -15.5q22 0 48 13q10 4 14 4q7 0 11.5 -5t4.5 -13q0 -7 -4.5 -15t-12.5 -12
q-31 -17 -71 -17q-48 0 -77 26.5t-29 69.5q0 54 40 89q-6 -1 -17 -1q-104 0 -164 63.5t-60 170.5q0 80 29 141t83 95t126 34q96 0 146 -56.5t50 -167.5q0 -19 -9.5 -28.5t-24.5 -9.5h-337zM171.5 403.5q-44.5 -43.5 -55.5 -123.5h311q3 82 -34 124.5t-103 42.5
q-74 0 -118.5 -43.5z" />
    <glyph glyph-name="Ecaron" unicode="&#x11a;" horiz-adv-x="579" 
d="M558.5 697.5q7.5 -7.5 7.5 -18.5q0 -12 -7.5 -19.5t-20.5 -7.5h-353l-21 -267h330q12 0 19.5 -7.5t7.5 -19.5t-7.5 -19.5t-20.5 -7.5h-333l-22 -278h350q12 0 19.5 -7.5t7.5 -18.5q0 -12 -7.5 -19.5t-20.5 -7.5h-382q-16 0 -23.5 8.5t-6.5 24.5l50 642q2 30 33 30h381
q12 0 19.5 -7.5zM469 922q11 0 19 -8t8 -18t-7 -17l-92 -104q-15 -17 -35 -17q-19 0 -31 17l-72 102q-7 10 -7 19q0 10 7.5 17t18.5 7q17 0 26 -16l61 -97l82 103q9 12 22 12z" />
    <glyph glyph-name="ecaron" unicode="&#x11b;" horiz-adv-x="526" 
d="M112 235v-10q0 -84 42 -131t121 -47q41 0 79.5 12.5t67.5 34.5q10 7 19 7q10 0 16.5 -7t6.5 -18q0 -14 -12 -25q-27 -25 -77.5 -41.5t-101.5 -16.5q-104 0 -164 63.5t-60 170.5q0 80 29 141t83 95t126 34q96 0 146 -56.5t50 -167.5q0 -19 -9.5 -28.5t-24.5 -9.5h-337z
M171.5 403.5q-44.5 -43.5 -55.5 -123.5h311q3 82 -34 124.5t-103 42.5q-74 0 -118.5 -43.5zM397 752q7 4 13 4q11 0 18.5 -7.5t7.5 -18.5q0 -9 -6 -18l-95 -145q-15 -22 -35 -22q-21 0 -31 22l-72 146q-3 8 -3 14q0 12 9 21t20 9q15 0 22 -17l59 -140l82 140q4 8 11 12z" />
    <glyph glyph-name="Gcircumflex" unicode="&#x11c;" horiz-adv-x="719" 
d="M265.5 617q-63.5 -41 -97 -118t-33.5 -183q0 -130 64 -200t190 -70q44 0 91.5 8.5t86.5 23.5l18 231h-158q-14 0 -22 7t-8 19t8 19t22 7h182q16 0 25 -10t8 -26l-19 -259q-3 -26 -24 -34q-43 -18 -101 -29t-109 -11q-154 0 -236 84.5t-82 235.5q0 121 42.5 211.5
t120.5 139.5t183 49q147 0 235 -85q13 -10 13 -28q0 -12 -7.5 -20.5t-17.5 -8.5q-9 0 -19 8q-46 42 -94.5 61t-109.5 19q-88 0 -151.5 -41zM336 758q-11 0 -19 8t-8 18t7 17l92 104q15 17 35 17q19 0 31 -17l72 -101q7 -10 7 -19q0 -10 -7.5 -17.5t-18.5 -7.5q-16 0 -26 17
l-61 96l-82 -103q-9 -12 -22 -12z" />
    <glyph glyph-name="gcircumflex" unicode="&#x11d;" horiz-adv-x="577" 
d="M508 487.5q8 -7.5 7 -23.5l-35 -436q-17 -215 -220 -215q-59 0 -108.5 15t-85.5 42q-15 11 -15 27q0 11 7.5 19t17.5 8q8 0 13 -4q42 -28 81 -40.5t90 -12.5q148 0 160 158l7 82q-23 -44 -67.5 -68t-98.5 -24q-96 0 -153.5 61t-57.5 163q0 77 28 135.5t80 90.5t120 32
q61 0 105 -26t65 -73l6 66q1 16 10 23.5t22 7.5q14 0 22 -7.5zM393.5 123.5q44.5 54.5 44.5 150.5q0 81 -41.5 125.5t-115.5 44.5q-79 0 -123 -55t-44 -152q0 -82 40.5 -125t116.5 -43q78 0 122.5 54.5zM234 549q-7 -4 -13 -4q-11 0 -18.5 7.5t-7.5 18.5q0 9 6 18l95 145
q15 22 35 22q21 0 31 -22l72 -146q3 -7 3 -14q0 -12 -9 -20.5t-20 -8.5q-15 0 -22 16l-59 140l-82 -140q-4 -8 -11 -12z" />
    <glyph glyph-name="Gbreve" unicode="&#x11e;" horiz-adv-x="719" 
d="M265.5 617q-63.5 -41 -97 -118t-33.5 -183q0 -130 64 -200t190 -70q44 0 91.5 8.5t86.5 23.5l18 231h-158q-14 0 -22 7t-8 19t8 19t22 7h182q16 0 25 -10t8 -26l-19 -259q-3 -26 -24 -34q-43 -18 -101 -29t-109 -11q-154 0 -236 84.5t-82 235.5q0 121 42.5 211.5
t120.5 139.5t183 49q147 0 235 -85q13 -10 13 -28q0 -12 -7.5 -20.5t-17.5 -8.5q-9 0 -19 8q-46 42 -94.5 61t-109.5 19q-88 0 -151.5 -41zM344 800q-37 22 -56 66q-3 8 -3 14q0 10 7.5 16.5t16.5 6.5q17 0 26 -16q17 -32 40.5 -46t57.5 -14t60.5 14t47.5 46q6 8 14 12.5
t15 4.5q10 0 16.5 -5.5t6.5 -15.5q0 -9 -5 -17q-25 -44 -66 -66t-91 -22t-87 22z" />
    <glyph glyph-name="gbreve" unicode="&#x11f;" horiz-adv-x="577" 
d="M508 487.5q8 -7.5 7 -23.5l-35 -436q-17 -215 -220 -215q-59 0 -108.5 15t-85.5 42q-15 11 -15 27q0 11 7.5 19t17.5 8q8 0 13 -4q42 -28 81 -40.5t90 -12.5q148 0 160 158l7 82q-23 -44 -67.5 -68t-98.5 -24q-96 0 -153.5 61t-57.5 163q0 77 28 135.5t80 90.5t120 32
q61 0 105 -26t65 -73l6 66q1 16 10 23.5t22 7.5q14 0 22 -7.5zM393.5 123.5q44.5 54.5 44.5 150.5q0 81 -41.5 125.5t-115.5 44.5q-79 0 -123 -55t-44 -152q0 -82 40.5 -125t116.5 -43q78 0 122.5 54.5zM230 608q-37 25 -55 73q-3 8 -3 13q0 12 8 19.5t18 7.5q17 0 26 -20
q13 -34 38.5 -51.5t58.5 -17.5q68 0 107 69q11 20 28 20q9 0 15.5 -6.5t6.5 -16.5q0 -9 -4 -17q-23 -48 -64.5 -73t-92.5 -25q-50 0 -87 25z" />
    <glyph glyph-name="Gdotaccent" unicode="&#x120;" horiz-adv-x="719" 
d="M265.5 617q-63.5 -41 -97 -118t-33.5 -183q0 -130 64 -200t190 -70q44 0 91.5 8.5t86.5 23.5l18 231h-158q-14 0 -22 7t-8 19t8 19t22 7h182q16 0 25 -10t8 -26l-19 -259q-3 -26 -24 -34q-43 -18 -101 -29t-109 -11q-154 0 -236 84.5t-82 235.5q0 121 42.5 211.5
t120.5 139.5t183 49q147 0 235 -85q13 -10 13 -28q0 -12 -7.5 -20.5t-17.5 -8.5q-9 0 -19 8q-46 42 -94.5 61t-109.5 19q-88 0 -151.5 -41zM403.5 810q-12.5 12 -12.5 31q0 20 12.5 32t32.5 12t32.5 -12t12.5 -32q0 -19 -12.5 -31t-32.5 -12t-32.5 12z" />
    <glyph glyph-name="gdotaccent" unicode="&#x121;" horiz-adv-x="577" 
d="M508 487.5q8 -7.5 7 -23.5l-35 -436q-17 -215 -220 -215q-59 0 -108.5 15t-85.5 42q-15 11 -15 27q0 11 7.5 19t17.5 8q8 0 13 -4q42 -28 81 -40.5t90 -12.5q148 0 160 158l7 82q-23 -44 -67.5 -68t-98.5 -24q-96 0 -153.5 61t-57.5 163q0 77 28 135.5t80 90.5t120 32
q61 0 105 -26t65 -73l6 66q1 16 10 23.5t22 7.5q14 0 22 -7.5zM393.5 123.5q44.5 54.5 44.5 150.5q0 81 -41.5 125.5t-115.5 44.5q-79 0 -123 -55t-44 -152q0 -82 40.5 -125t116.5 -43q78 0 122.5 54.5zM290.5 620q-12.5 12 -12.5 31q0 20 12.5 32t32.5 12t32.5 -12
t12.5 -32q0 -19 -12.5 -31t-32.5 -12t-32.5 12z" />
    <glyph glyph-name="Gcommaaccent" unicode="&#x122;" horiz-adv-x="719" 
d="M265.5 617q-63.5 -41 -97 -118t-33.5 -183q0 -130 64 -200t190 -70q44 0 91.5 8.5t86.5 23.5l18 231h-158q-14 0 -22 7t-8 19t8 19t22 7h182q16 0 25 -10t8 -26l-19 -259q-3 -26 -24 -34q-43 -18 -101 -29t-109 -11q-154 0 -236 84.5t-82 235.5q0 121 42.5 211.5
t120.5 139.5t183 49q147 0 235 -85q13 -10 13 -28q0 -12 -7.5 -20.5t-17.5 -8.5q-9 0 -19 8q-46 42 -94.5 61t-109.5 19q-88 0 -151.5 -41zM403 -82q12 -13 12 -39q0 -32 -12.5 -63t-39.5 -58q-11 -11 -22 -11q-8 0 -13 5t-5 12t8 17q28 31 36 66q-19 0 -30.5 10.5
t-11.5 28.5q0 19 12.5 32t32.5 13q21 0 33 -13z" />
    <glyph glyph-name="gcommaaccent" unicode="&#x123;" horiz-adv-x="577" 
d="M508 487.5q8 -7.5 7 -23.5l-35 -436q-17 -215 -220 -215q-59 0 -108.5 15t-85.5 42q-15 11 -15 27q0 11 7.5 19t17.5 8q8 0 13 -4q42 -28 81 -40.5t90 -12.5q148 0 160 158l7 82q-23 -44 -67.5 -68t-98.5 -24q-96 0 -153.5 61t-57.5 163q0 77 28 135.5t80 90.5t120 32
q61 0 105 -26t65 -73l6 66q1 16 10 23.5t22 7.5q14 0 22 -7.5zM393.5 123.5q44.5 54.5 44.5 150.5q0 81 -41.5 125.5t-115.5 44.5q-79 0 -123 -55t-44 -152q0 -82 40.5 -125t116.5 -43q78 0 122.5 54.5zM350.5 647.5q11.5 -10.5 11.5 -28.5q0 -20 -11 -32.5t-30 -12.5
q-22 0 -35.5 13t-13.5 39q0 32 12.5 63t39.5 58q11 11 23 11q7 0 12 -4.5t5 -11.5q0 -10 -8 -18q-29 -32 -35 -66q18 0 29.5 -10.5z" />
    <glyph glyph-name="Hcircumflex" unicode="&#x124;" horiz-adv-x="754" 
d="M689 701.5q9 -8.5 8 -23.5l-52 -654q-1 -13 -9.5 -21t-21.5 -8t-22 8.5t-8 23.5l24 304h-448l-24 -307q-1 -13 -10 -21t-21 -8q-13 0 -22 9t-8 23l51 654q1 13 10 21t21 8q13 0 22 -8.5t8 -23.5l-23 -293h448l24 296q1 13 9.5 21t21.5 8t22 -8.5zM325 758q-11 0 -19 8
t-8 18t7 17l92 104q15 17 35 17q19 0 31 -17l72 -101q7 -10 7 -19q0 -10 -7.5 -17.5t-18.5 -7.5q-16 0 -26 17l-61 96l-82 -103q-9 -12 -22 -12z" />
    <glyph glyph-name="hcircumflex" unicode="&#x125;" horiz-adv-x="561" 
d="M445 456q43 -41 43 -122q0 -18 -1 -27l-21 -281q-1 -16 -10.5 -23.5t-22.5 -7.5t-21 7.5t-7 23.5l21 277q1 8 1 23q0 117 -116 117q-74 0 -117.5 -43t-49.5 -119l-20 -255q-2 -16 -11 -23.5t-22 -7.5q-14 0 -22 7.5t-6 23.5l52 657q1 13 10.5 20.5t22.5 7.5t21 -7t7 -21
l-22 -275q25 43 68.5 66t98.5 23q81 0 124 -41zM59 758q-11 0 -19 8t-8 18t7 17l92 104q15 17 35 17q19 0 31 -17l72 -101q7 -10 7 -19q0 -10 -7.5 -17.5t-18.5 -7.5q-16 0 -26 17l-61 96l-82 -103q-9 -12 -22 -12z" />
    <glyph glyph-name="Hbar" unicode="&#x126;" horiz-adv-x="772" 
d="M788.5 567.5q7.5 -7.5 7.5 -18.5q0 -10 -8 -17.5t-19 -7.5h-75l-39 -500q-1 -13 -10 -21t-21 -8q-13 0 -22 9t-8 23l24 304h-449l-24 -307q-1 -13 -9.5 -21t-21.5 -8t-22 8.5t-8 23.5l40 497h-74q-11 0 -18.5 7.5t-7.5 17.5q0 11 8 18.5t19 7.5h77l8 106q1 13 9.5 21
t21.5 8t22 -8.5t8 -23.5l-8 -103h448l8 106q1 13 10 21t21 8q13 0 22 -8.5t8 -23.5l-8 -103h72q11 0 18.5 -7.5zM622 385l11 139h-448l-11 -139h448z" />
    <glyph glyph-name="hbar" unicode="&#x127;" horiz-adv-x="561" 
d="M445 456q43 -41 43 -122q0 -18 -1 -27l-21 -281q-1 -16 -10.5 -23.5t-22.5 -7.5t-21 7.5t-7 23.5l21 277q1 8 1 23q0 117 -116 117q-74 0 -117.5 -43t-49.5 -119l-20 -255q-2 -16 -11 -23.5t-22 -7.5q-14 0 -22 7.5t-6 23.5l42 535h-72q-12 0 -19 7t-7 18q0 10 7.5 17
t19.5 7h75l6 73q1 13 10.5 20.5t22.5 7.5t21 -7t7 -21l-6 -73h173q12 0 18.5 -7t6.5 -18q0 -10 -7 -17t-19 -7h-176l-12 -153q25 43 68.5 66t98.5 23q81 0 124 -41z" />
    <glyph glyph-name="Itilde" unicode="&#x128;" horiz-adv-x="244" 
d="M83 4q-9 9 -8 23l51 654q1 13 10 21t21 8q14 0 22.5 -8.5t7.5 -23.5l-51 -654q-1 -14 -9.5 -21.5t-21.5 -7.5t-22 9zM158 818q-15 8 -30.5 14t-26.5 6q-19 0 -29.5 -7.5t-21.5 -21.5t-19 -14t-12.5 6t-4.5 15q0 16 12 33.5t32.5 29.5t46.5 12q29 0 77 -26q15 -8 30.5 -14
t26.5 -6q19 0 29.5 7.5t21.5 21.5q4 6 8.5 10.5t9.5 4.5q8 0 13 -6t5 -15q0 -16 -12 -34t-33 -30t-46 -12q-29 0 -77 26z" />
    <glyph glyph-name="itilde" unicode="&#x129;" horiz-adv-x="222" 
d="M69 2.5q-8 7.5 -6 23.5l35 441q1 14 10.5 21t22.5 7t21 -7t7 -21l-35 -441q-2 -16 -11 -23.5t-22 -7.5q-14 0 -22 7.5zM171.5 602.5q-18.5 9.5 -39.5 26.5q-23 16 -34.5 22t-22.5 6q-17 0 -28 -9.5t-21 -26.5q-7 -11 -11.5 -16t-10.5 -5q-7 0 -12 6t-5 15q0 17 12.5 38.5
t33.5 36.5t46 15q18 0 36.5 -9.5t39.5 -26.5q23 -16 34.5 -22t22.5 -6q17 0 27.5 9.5t22.5 26.5q7 11 11.5 16t10.5 5q7 0 11.5 -6t4.5 -15q0 -17 -12.5 -38.5t-33.5 -36.5t-46 -15q-18 0 -36.5 9.5z" />
    <glyph glyph-name="Imacron" unicode="&#x12a;" horiz-adv-x="244" 
d="M83 4q-9 9 -8 23l51 654q1 13 10 21t21 8q14 0 22.5 -8.5t7.5 -23.5l-51 -654q-1 -14 -9.5 -21.5t-21.5 -7.5t-22 9zM24.5 822q-7.5 7 -7.5 19q0 13 9 19.5t24 6.5h243q30 0 30 -26q0 -12 -9 -19t-24 -7h-243q-15 0 -22.5 7z" />
    <glyph glyph-name="imacron" unicode="&#x12b;" horiz-adv-x="222" 
d="M69 2.5q-8 7.5 -6 23.5l35 441q1 14 10.5 21t22.5 7t21 -7t7 -21l-35 -441q-2 -16 -11 -23.5t-22 -7.5q-14 0 -22 7.5zM-9 651q0 13 9 19.5t24 6.5h243q30 0 30 -25q0 -13 -9 -19.5t-24 -6.5h-243q-30 0 -30 25z" />
    <glyph glyph-name="Ibreve" unicode="&#x12c;" horiz-adv-x="244" 
d="M83 4q-9 9 -8 23l51 654q1 13 10 21t21 8q14 0 22.5 -8.5t7.5 -23.5l-51 -654q-1 -14 -9.5 -21.5t-21.5 -7.5t-22 9zM78 800q-37 22 -56 66q-3 8 -3 14q0 10 7.5 16.5t16.5 6.5q17 0 26 -16q17 -32 40.5 -46t57.5 -14t60.5 14t47.5 46q6 8 14 12.5t15 4.5q10 0 16.5 -5.5
t6.5 -15.5q0 -9 -5 -17q-25 -44 -66 -66t-91 -22t-87 22z" />
    <glyph glyph-name="ibreve" unicode="&#x12d;" horiz-adv-x="222" 
d="M69 2.5q-8 7.5 -6 23.5l35 441q1 14 10.5 21t22.5 7t21 -7t7 -21l-35 -441q-2 -16 -11 -23.5t-22 -7.5q-14 0 -22 7.5zM51 608q-37 25 -55 73q-3 8 -3 13q0 12 8 19.5t18 7.5q17 0 26 -20q13 -34 38.5 -51.5t58.5 -17.5q68 0 107 69q11 20 28 20q9 0 15.5 -6.5t6.5 -16.5
q0 -9 -4 -17q-23 -48 -64.5 -73t-92.5 -25q-50 0 -87 25z" />
    <glyph glyph-name="Iogonek" unicode="&#x12e;" horiz-adv-x="244" 
d="M51 -29.5q-19 -21.5 -19 -55.5q0 -30 16 -45.5t45 -15.5q23 0 49 13q8 3 13 3q8 0 12 -5t4 -12q0 -18 -16 -27q-31 -17 -71 -17q-48 0 -77.5 26.5t-29.5 69.5q0 48 26 81t72 45l51 650q1 13 10 21t21 8q14 0 22.5 -8.5t7.5 -23.5l-51 -654q-1 -13 -9 -20t-21 -8
q-36 -4 -55 -25.5z" />
    <glyph glyph-name="iogonek" unicode="&#x12f;" horiz-adv-x="222" 
d="M174.5 683q12.5 -12 12.5 -32q0 -19 -12.5 -31t-32.5 -12t-32.5 12t-12.5 31q0 20 12.5 32t32.5 12t32.5 -12zM152 488q8 -7 7 -21l-35 -441q-1 -13 -9 -21t-21 -9q-35 -3 -54.5 -25t-19.5 -56q0 -30 16 -45.5t45 -15.5q22 0 49 13q10 4 13 4q8 0 12 -5t4 -13
q0 -18 -16 -27q-33 -17 -72 -17q-48 0 -77 26.5t-29 69.5q0 47 26 80t72 46l35 436q1 14 10.5 21t22.5 7t21 -7z" />
    <glyph glyph-name="Idotaccent" unicode="&#x130;" horiz-adv-x="244" 
d="M83 4q-9 9 -8 23l51 654q1 13 10 21t21 8q14 0 22.5 -8.5t7.5 -23.5l-51 -654q-1 -14 -9.5 -21.5t-21.5 -7.5t-22 9zM137.5 810q-12.5 12 -12.5 31q0 20 12.5 32t32.5 12t32.5 -12t12.5 -32q0 -19 -12.5 -31t-32.5 -12t-32.5 12z" />
    <glyph glyph-name="dotlessi" unicode="&#x131;" horiz-adv-x="222" 
d="M69 2.5q-8 7.5 -6 23.5l35 441q1 14 10.5 21t22.5 7t21 -7t7 -21l-35 -441q-2 -16 -11 -23.5t-22 -7.5q-14 0 -22 7.5z" />
    <glyph glyph-name="Jcircumflex" unicode="&#x134;" horiz-adv-x="311" 
d="M-19.5 2q-7.5 8 -6.5 21q0 10 7 16.5t19 7.5l32 2q55 4 86 38.5t36 96.5l39 495q1 14 10 22.5t23 8.5t22 -8.5t7 -22.5l-40 -497q-7 -87 -52.5 -133.5t-127.5 -51.5l-33 -2q-14 -1 -21.5 7zM137 758q-11 0 -19 8t-8 18t7 17l92 104q15 17 35 17q19 0 31 -17l72 -101
q7 -10 7 -19q0 -10 -7.5 -17.5t-18.5 -7.5q-16 0 -26 17l-61 96l-82 -103q-9 -12 -22 -12z" />
    <glyph glyph-name="jcircumflex" unicode="&#x135;" horiz-adv-x="222" 
d="M-114.5 -177q-7.5 7 -6.5 19q0 10 7 17t19 8l29 2q62 4 92 36t35 99l37 461q1 15 10 22.5t21 7.5q13 0 22 -7.5t8 -22.5l-36 -454q-7 -95 -54.5 -141.5t-141.5 -51.5l-19 -1q-15 -1 -22.5 6zM55 549q-7 -4 -13 -4q-11 0 -18.5 7.5t-7.5 18.5q0 9 6 18l95 145q15 22 35 22
q21 0 31 -22l72 -146q3 -7 3 -14q0 -12 -9 -20.5t-20 -8.5q-15 0 -22 16l-59 140l-82 -140q-4 -8 -11 -12z" />
    <glyph glyph-name="Kcommaaccent" unicode="&#x136;" horiz-adv-x="613" 
d="M578 709q11 0 19.5 -8t8.5 -19q0 -13 -11 -21l-374 -301l343 -318q9 -9 9 -19q0 -11 -8.5 -19t-19.5 -8t-19 8l-365 336l-25 -316q-1 -12 -10 -20.5t-21 -8.5q-13 0 -22 9.5t-8 22.5l51 654q1 12 10 20.5t21 8.5q13 0 22.5 -9.5t7.5 -22.5l-23 -298l397 323q8 6 17 6z
M317 -82q12 -13 12 -39q0 -32 -12.5 -63t-39.5 -58q-11 -11 -22 -11q-8 0 -13 5t-5 12t8 17q28 31 36 66q-19 0 -30.5 10.5t-11.5 28.5q0 19 12.5 32t32.5 13q21 0 33 -13z" />
    <glyph glyph-name="kcommaaccent" unicode="&#x137;" horiz-adv-x="484" 
d="M425 491q11 0 19 -8t8 -19t-10 -20l-229 -193l221 -209q9 -9 9 -19q0 -11 -8.5 -19.5t-19.5 -8.5t-19 8l-255 233l-17 -213q-1 -13 -9.5 -20.5t-20.5 -7.5q-13 0 -22.5 9t-8.5 23l52 655q1 13 11 20.5t22 7.5q14 0 21.5 -8.5t6.5 -23.5l-33 -417l264 223q8 7 18 7z
M250 -82q12 -13 12 -39q0 -32 -12.5 -63t-39.5 -58q-11 -11 -22 -11q-8 0 -13 5t-5 12t8 17q28 31 36 66q-19 0 -30.5 10.5t-11.5 28.5q0 19 12.5 32t32.5 13q21 0 33 -13z" />
    <glyph glyph-name="kgreenlandic" unicode="&#x138;" horiz-adv-x="484" 
d="M425 491q11 0 19 -8t8 -19t-10 -20l-229 -193l221 -209q9 -9 9 -19q0 -11 -8.5 -19.5t-19.5 -8.5t-19 8l-255 233l-17 -210q-2 -16 -11 -23.5t-22 -7.5q-14 0 -22 7.5t-6 23.5l35 441q1 14 10.5 21t22.5 7t21 -7t7 -21l-16 -207l264 224q8 7 18 7z" />
    <glyph glyph-name="Lacute" unicode="&#x139;" horiz-adv-x="533" 
d="M81 8.5q-8 8.5 -6 24.5l51 648q1 13 10 21t22 8q14 0 22 -8.5t7 -23.5l-49 -624h341q12 0 19.5 -7.5t7.5 -19.5t-7.5 -19.5t-20.5 -7.5h-373q-16 0 -24 8.5zM170 760q-7 0 -11.5 4.5t-4.5 11.5q0 6 5 14l82 114q15 19 31 19q11 0 19 -7.5t8 -18.5q0 -14 -13 -27l-97 -101
q-9 -9 -19 -9z" />
    <glyph glyph-name="lacute" unicode="&#x13a;" horiz-adv-x="222" 
d="M69 2.5q-8 7.5 -6 23.5l52 657q1 14 10.5 21t22.5 7t21 -7t7 -21l-52 -657q-2 -16 -11 -23.5t-22 -7.5q-14 0 -22 7.5zM159 760q-7 0 -11.5 4.5t-4.5 11.5q0 6 5 14l82 114q15 19 31 19q11 0 19 -7.5t8 -18.5q0 -14 -13 -27l-97 -101q-9 -9 -19 -9z" />
    <glyph glyph-name="Lcommaaccent" unicode="&#x13b;" horiz-adv-x="533" 
d="M81 8.5q-8 8.5 -6 24.5l51 648q1 13 10 21t22 8q14 0 22 -8.5t7 -23.5l-49 -624h341q12 0 19.5 -7.5t7.5 -19.5t-7.5 -19.5t-20.5 -7.5h-373q-16 0 -24 8.5zM315 -82q12 -13 12 -39q0 -32 -12.5 -63t-39.5 -58q-11 -11 -22 -11q-8 0 -13 5t-5 12t8 17q28 31 36 66
q-19 0 -30.5 10.5t-11.5 28.5q0 19 12.5 32t32.5 13q21 0 33 -13z" />
    <glyph glyph-name="lcommaaccent" unicode="&#x13c;" horiz-adv-x="222" 
d="M69 2.5q-8 7.5 -6 23.5l52 657q1 14 10.5 21t22.5 7t21 -7t7 -21l-52 -657q-2 -16 -11 -23.5t-22 -7.5q-14 0 -22 7.5zM119 -82q12 -13 12 -39q0 -32 -12.5 -63t-39.5 -58q-11 -11 -22 -11q-8 0 -13 5t-5 12t8 17q28 31 36 66q-19 0 -30.5 10.5t-11.5 28.5q0 19 12.5 32
t32.5 13q21 0 33 -13z" />
    <glyph glyph-name="Lcaron" unicode="&#x13d;" horiz-adv-x="533" 
d="M81 8.5q-8 8.5 -6 24.5l51 648q1 13 10 21t22 8q14 0 22 -8.5t7 -23.5l-49 -624h341q12 0 19.5 -7.5t7.5 -19.5t-7.5 -19.5t-20.5 -7.5h-373q-16 0 -24 8.5zM276 511q-7 0 -12.5 5t-4.5 14l11 148q1 16 10 24.5t21 8.5q11 0 19 -8t8 -22q0 -6 -1 -9l-31 -145
q-4 -16 -20 -16z" />
    <glyph glyph-name="lcaron" unicode="&#x13e;" horiz-adv-x="222" 
d="M230.5 515q-5.5 -4 -11.5 -4q-7 0 -12.5 5t-4.5 14l12 147q1 16 10.5 25t21.5 9q10 0 17.5 -7.5t7.5 -20.5q0 -7 -1 -11l-33 -145q-1 -8 -6.5 -12zM69 2.5q-8 7.5 -6 23.5l52 657q1 14 10.5 21t22.5 7t21 -7t7 -21l-52 -657q-2 -16 -11 -23.5t-22 -7.5q-14 0 -22 7.5z
" />
    <glyph glyph-name="Ldot" unicode="&#x13f;" horiz-adv-x="533" 
d="M81 8.5q-8 8.5 -6 24.5l51 648q1 13 10 21t22 8q14 0 22 -8.5t7 -23.5l-49 -624h341q12 0 19.5 -7.5t7.5 -19.5t-7.5 -19.5t-20.5 -7.5h-373q-16 0 -24 8.5zM314.5 322q-12.5 12 -12.5 31q0 20 12.5 32t32.5 12t32.5 -12t12.5 -32q0 -19 -12.5 -31t-32.5 -12t-32.5 12z
" />
    <glyph glyph-name="ldot" unicode="&#x140;" horiz-adv-x="229" 
d="M69 2.5q-8 7.5 -6 23.5l52 657q1 14 10.5 21t22.5 7t21 -7t7 -21l-52 -657q-2 -16 -11 -23.5t-22 -7.5q-14 0 -22 7.5zM192.5 322q-12.5 12 -12.5 31q0 20 12.5 32t32.5 12t32.5 -12t12.5 -32q0 -19 -12.5 -31t-32.5 -12t-32.5 12z" />
    <glyph glyph-name="Lslash" unicode="&#x141;" horiz-adv-x="542" 
d="M506.5 46.5q7.5 -7.5 7.5 -19.5t-7.5 -19.5t-20.5 -7.5h-372q-16 0 -24 8.5t-7 24.5l22 276l-62 -34q-7 -4 -14 -4q-10 0 -17 8t-7 18q0 16 15 23l90 50l25 311q1 13 9.5 21t22.5 8t22 -8.5t7 -23.5l-21 -273l163 90q6 3 12 3q10 0 17 -8t7 -19q0 -14 -13 -21l-191 -105
l-23 -291h340q12 0 19.5 -7.5z" />
    <glyph glyph-name="lslash" unicode="&#x142;" horiz-adv-x="263" 
d="M252 444q10 0 17.5 -8t7.5 -18q0 -14 -14 -22l-92 -51l-26 -319q-1 -16 -10.5 -23.5t-22.5 -7.5t-21 7.5t-7 23.5l23 284l-66 -36q-6 -3 -11 -3q-10 0 -18.5 8.5t-8.5 18.5q0 13 14 20l95 52l25 313q1 14 10 21t22 7t21.5 -7t7.5 -21l-22 -278l64 36q6 3 12 3z" />
    <glyph glyph-name="Nacute" unicode="&#x143;" horiz-adv-x="735" 
d="M671.5 701q8.5 -9 7.5 -22l-52 -654q-2 -30 -28 -30q-17 0 -30 17l-391 591l-47 -580q-1 -13 -9 -20.5t-20 -7.5t-20.5 9t-7.5 23l51 652q1 15 9.5 23t21.5 8q18 0 28 -17l391 -587l46 576q1 13 9 20.5t21 7.5q12 0 20.5 -9zM416 760q-7 0 -11.5 4.5t-4.5 11.5q0 6 5 14
l82 114q15 19 31 19q11 0 19 -7.5t8 -18.5q0 -14 -13 -27l-97 -101q-9 -9 -19 -9z" />
    <glyph glyph-name="nacute" unicode="&#x144;" horiz-adv-x="561" 
d="M445 456q43 -41 43 -122q0 -18 -1 -27l-21 -281q-1 -16 -10.5 -23.5t-22.5 -7.5t-21 7.5t-7 23.5l21 277q1 8 1 23q0 117 -116 117q-74 0 -117.5 -43t-49.5 -119l-20 -255q-2 -16 -11 -23.5t-22 -7.5q-14 0 -22 7.5t-6 23.5l35 441q1 14 10.5 21t22.5 7t20.5 -7t6.5 -21
l-5 -61q25 43 68.5 67t99.5 24q81 0 124 -41zM309 545q-7 0 -12 5t-5 13t5 14l138 165q12 15 28 15q13 0 23 -9t10 -22t-13 -25l-159 -149q-7 -7 -15 -7z" />
    <glyph glyph-name="Ncommaaccent" unicode="&#x145;" horiz-adv-x="735" 
d="M671.5 701q8.5 -9 7.5 -22l-52 -654q-2 -30 -28 -30q-17 0 -30 17l-391 591l-47 -580q-1 -13 -9 -20.5t-20 -7.5t-20.5 9t-7.5 23l51 652q1 15 9.5 23t21.5 8q18 0 28 -17l391 -587l46 576q1 13 9 20.5t21 7.5q12 0 20.5 -9zM376 -82q12 -13 12 -39q0 -32 -12.5 -63
t-39.5 -58q-11 -11 -22 -11q-8 0 -13 5t-5 12t8 17q28 31 36 66q-19 0 -30.5 10.5t-11.5 28.5q0 19 12.5 32t32.5 13q21 0 33 -13z" />
    <glyph glyph-name="ncommaaccent" unicode="&#x146;" horiz-adv-x="561" 
d="M445 456q43 -41 43 -122q0 -18 -1 -27l-21 -281q-1 -16 -10.5 -23.5t-22.5 -7.5t-21 7.5t-7 23.5l21 277q1 8 1 23q0 117 -116 117q-74 0 -117.5 -43t-49.5 -119l-20 -255q-2 -16 -11 -23.5t-22 -7.5q-14 0 -22 7.5t-6 23.5l35 441q1 14 10.5 21t22.5 7t20.5 -7t6.5 -21
l-5 -61q25 43 68.5 67t99.5 24q81 0 124 -41zM288 -82q12 -13 12 -39q0 -32 -12.5 -63t-39.5 -58q-11 -11 -22 -11q-8 0 -13 5t-5 12t8 17q28 31 36 66q-19 0 -30.5 10.5t-11.5 28.5q0 19 12.5 32t32.5 13q21 0 33 -13z" />
    <glyph glyph-name="Ncaron" unicode="&#x147;" horiz-adv-x="735" 
d="M671.5 701q8.5 -9 7.5 -22l-52 -654q-2 -30 -28 -30q-17 0 -30 17l-391 591l-47 -580q-1 -13 -9 -20.5t-20 -7.5t-20.5 9t-7.5 23l51 652q1 15 9.5 23t21.5 8q18 0 28 -17l391 -587l46 576q1 13 9 20.5t21 7.5q12 0 20.5 -9zM515 922q11 0 19 -8t8 -18t-7 -17l-92 -104
q-15 -17 -35 -17q-19 0 -31 17l-72 102q-7 10 -7 19q0 10 7.5 17t18.5 7q17 0 26 -16l61 -97l82 103q9 12 22 12z" />
    <glyph glyph-name="ncaron" unicode="&#x148;" horiz-adv-x="561" 
d="M445 456q43 -41 43 -122q0 -18 -1 -27l-21 -281q-1 -16 -10.5 -23.5t-22.5 -7.5t-21 7.5t-7 23.5l21 277q1 8 1 23q0 117 -116 117q-74 0 -117.5 -43t-49.5 -119l-20 -255q-2 -16 -11 -23.5t-22 -7.5q-14 0 -22 7.5t-6 23.5l35 441q1 14 10.5 21t22.5 7t20.5 -7t6.5 -21
l-5 -61q25 43 68.5 67t99.5 24q81 0 124 -41zM401 752q7 4 13 4q11 0 18.5 -7.5t7.5 -18.5q0 -9 -6 -18l-95 -145q-15 -22 -35 -22q-21 0 -31 22l-72 146q-3 8 -3 14q0 12 9 21t20 9q15 0 22 -17l59 -140l82 140q4 8 11 12z" />
    <glyph glyph-name="napostrophe" unicode="&#x149;" horiz-adv-x="561" 
d="M228 707q0 -31 -13 -62.5t-39 -59.5q-10 -10 -22 -10q-8 0 -13.5 5t-5.5 12q0 8 8 16q30 32 36 66q-18 0 -29.5 10.5t-11.5 28.5q0 19 12.5 31.5t32.5 12.5q45 0 45 -50zM445 456q43 -41 43 -122q0 -18 -1 -27l-21 -281q-1 -16 -10.5 -23.5t-22.5 -7.5t-21 7.5t-7 23.5
l21 277q1 8 1 23q0 117 -116 117q-74 0 -117.5 -43t-49.5 -119l-20 -255q-2 -16 -11 -23.5t-22 -7.5q-14 0 -22 7.5t-6 23.5l35 441q1 14 10.5 21t22.5 7t20.5 -7t6.5 -21l-5 -61q25 43 68.5 67t99.5 24q81 0 124 -41z" />
    <glyph glyph-name="Eng" unicode="&#x14a;" horiz-adv-x="735" 
d="M671.5 701q8.5 -9 7.5 -22l-54 -677q-7 -87 -52.5 -133.5t-127.5 -51.5l-34 -2q-14 -1 -21 6.5t-7 19.5q0 10 6.5 18t18.5 8l41 2q50 2 81.5 37.5t36.5 96.5l1 10l-390 590l-47 -580q-1 -13 -9 -20.5t-20 -7.5t-20.5 9t-7.5 23l51 652q1 15 9.5 23t21.5 8q18 0 28 -17
l391 -587l46 576q1 13 9 20.5t21 7.5q12 0 20.5 -9z" />
    <glyph glyph-name="eng" unicode="&#x14b;" horiz-adv-x="561" 
d="M445.5 456q42.5 -41 42.5 -122q0 -18 -1 -27l-23 -296q-7 -95 -54.5 -141.5t-141.5 -51.5l-19 -1q-14 -1 -21.5 6.5t-7.5 18.5q0 10 7 17t20 8l29 2q61 4 91 36.5t35 98.5l24 299q1 8 1 23q0 60 -29 88.5t-87 28.5q-74 0 -117.5 -43t-49.5 -119l-20 -255
q-2 -16 -11 -23.5t-22 -7.5q-14 0 -22 7.5t-6 23.5l35 441q1 14 10.5 21t22.5 7t20.5 -7t6.5 -21l-5 -61q25 43 68.5 67t99.5 24q82 0 124.5 -41z" />
    <glyph glyph-name="Omacron" unicode="&#x14c;" horiz-adv-x="757" 
d="M215 31.5q-69 39.5 -106 114t-37 176.5q0 118 40 206.5t113 136.5t170 48q95 0 164 -39.5t106 -114t37 -176.5q0 -118 -39.5 -206.5t-113 -136.5t-171.5 -48q-94 0 -163 39.5zM517.5 88q58.5 40 89.5 115.5t31 179.5q0 133 -63 203.5t-180 70.5q-80 0 -138.5 -40
t-89.5 -116t-31 -180q0 -132 63 -202.5t180 -70.5q80 0 138.5 40zM280.5 822q-7.5 7 -7.5 19q0 13 9 19.5t24 6.5h243q30 0 30 -26q0 -12 -9 -19t-24 -7h-243q-15 0 -22.5 7z" />
    <glyph glyph-name="omacron" unicode="&#x14d;" horiz-adv-x="545" 
d="M151.5 22q-49.5 29 -76 82t-26.5 123q0 81 28.5 142t81 94.5t120.5 33.5q66 0 115.5 -29t76 -82t26.5 -124q0 -80 -28.5 -141t-81 -94.5t-121.5 -33.5q-65 0 -114.5 29zM390 105.5q44 58.5 44 159.5q0 85 -41 132t-114 47q-78 0 -122 -58.5t-44 -161.5q0 -86 40 -131.5
t116 -45.5q77 0 121 58.5zM153 651q0 13 9 19.5t24 6.5h243q30 0 30 -25q0 -13 -9 -19.5t-24 -6.5h-243q-30 0 -30 25z" />
    <glyph glyph-name="Obreve" unicode="&#x14e;" horiz-adv-x="757" 
d="M215 31.5q-69 39.5 -106 114t-37 176.5q0 118 40 206.5t113 136.5t170 48q95 0 164 -39.5t106 -114t37 -176.5q0 -118 -39.5 -206.5t-113 -136.5t-171.5 -48q-94 0 -163 39.5zM517.5 88q58.5 40 89.5 115.5t31 179.5q0 133 -63 203.5t-180 70.5q-80 0 -138.5 -40
t-89.5 -116t-31 -180q0 -132 63 -202.5t180 -70.5q80 0 138.5 40zM334 800q-37 22 -56 66q-3 8 -3 14q0 10 7.5 16.5t16.5 6.5q17 0 26 -16q17 -32 40.5 -46t57.5 -14t60.5 14t47.5 46q6 8 14 12.5t15 4.5q10 0 16.5 -5.5t6.5 -15.5q0 -9 -5 -17q-25 -44 -66 -66t-91 -22
t-87 22z" />
    <glyph glyph-name="obreve" unicode="&#x14f;" horiz-adv-x="545" 
d="M151.5 22q-49.5 29 -76 82t-26.5 123q0 81 28.5 142t81 94.5t120.5 33.5q66 0 115.5 -29t76 -82t26.5 -124q0 -80 -28.5 -141t-81 -94.5t-121.5 -33.5q-65 0 -114.5 29zM390 105.5q44 58.5 44 159.5q0 85 -41 132t-114 47q-78 0 -122 -58.5t-44 -161.5q0 -86 40 -131.5
t116 -45.5q77 0 121 58.5zM213 608q-37 25 -55 73q-3 8 -3 13q0 12 8 19.5t18 7.5q17 0 26 -20q13 -34 38.5 -51.5t58.5 -17.5q68 0 107 69q11 20 28 20q9 0 15.5 -6.5t6.5 -16.5q0 -9 -4 -17q-23 -48 -64.5 -73t-92.5 -25q-50 0 -87 25z" />
    <glyph glyph-name="Ohungarumlaut" unicode="&#x150;" horiz-adv-x="757" 
d="M215 31.5q-69 39.5 -106 114t-37 176.5q0 118 40 206.5t113 136.5t170 48q95 0 164 -39.5t106 -114t37 -176.5q0 -118 -39.5 -206.5t-113 -136.5t-171.5 -48q-94 0 -163 39.5zM517.5 88q58.5 40 89.5 115.5t31 179.5q0 133 -63 203.5t-180 70.5q-80 0 -138.5 -40
t-89.5 -116t-31 -180q0 -132 63 -202.5t180 -70.5q80 0 138.5 40zM366 760q-6 0 -10 3.5t-4 9.5t3 10l60 115q11 23 31 23q10 0 17 -7t7 -17t-9 -22l-81 -107q-5 -8 -14 -8zM481 760q-6 0 -10 3.5t-4 9.5t3 10l60 115q11 23 31 23q10 0 16.5 -7t6.5 -17q0 -11 -8 -22
l-81 -107q-5 -8 -14 -8z" />
    <glyph glyph-name="ohungarumlaut" unicode="&#x151;" horiz-adv-x="545" 
d="M151.5 22q-49.5 29 -76 82t-26.5 123q0 81 28.5 142t81 94.5t120.5 33.5q66 0 115.5 -29t76 -82t26.5 -124q0 -80 -28.5 -141t-81 -94.5t-121.5 -33.5q-65 0 -114.5 29zM390 105.5q44 58.5 44 159.5q0 85 -41 132t-114 47q-78 0 -122 -58.5t-44 -161.5q0 -86 40 -131.5
t116 -45.5q77 0 121 58.5zM242 544q-8 0 -13 6t-2 15l52 164q4 14 13 21.5t19 7.5q11 0 19 -8t8 -20q0 -9 -6 -21l-75 -155q-4 -10 -15 -10zM357 544q-7 0 -12 6t-2 15l51 164q4 14 13.5 21.5t19.5 7.5q11 0 18.5 -8t7.5 -20q0 -11 -5 -21l-76 -155q-4 -10 -15 -10z" />
    <glyph glyph-name="OE" unicode="&#x152;" horiz-adv-x="1046" 
d="M1026.5 697.5q7.5 -7.5 7.5 -18.5q0 -12 -7.5 -19.5t-20.5 -7.5h-355l-21 -267h331q13 0 20.5 -7.5t7.5 -19.5q0 -11 -7.5 -19t-20.5 -8h-335l-22 -278h352q12 0 19.5 -7.5t7.5 -18.5q0 -12 -7.5 -19.5t-20.5 -7.5h-556q-158 0 -242.5 84t-84.5 238q0 119 41 205t120 132
t191 46h582q13 0 20.5 -7.5zM591 652h-165q-143 0 -216.5 -86t-73.5 -245q0 -132 66.5 -200t199.5 -68h142z" />
    <glyph glyph-name="oe" unicode="&#x153;" horiz-adv-x="905" 
d="M495 235v-10q0 -84 42.5 -131t123.5 -47q37 0 74.5 12.5t66.5 34.5q10 7 19 7q10 0 16.5 -7t6.5 -18q0 -14 -12 -25q-27 -25 -76.5 -41.5t-95.5 -16.5q-75 0 -125.5 32.5t-74.5 92.5q-26 -58 -76.5 -91.5t-118.5 -33.5q-65 0 -114 29t-75.5 82t-26.5 123q0 81 28.5 142
t81 94.5t121.5 33.5q71 0 119 -32t70 -96q27 61 78 94.5t122 33.5q95 0 144.5 -56.5t49.5 -167.5q0 -19 -9.5 -28.5t-24.5 -9.5h-334zM554.5 403.5q-44.5 -43.5 -55.5 -123.5h308q3 82 -33.5 124.5t-101.5 42.5q-73 0 -117.5 -43.5zM390 105.5q44 58.5 44 159.5
q0 85 -41 132t-114 47q-78 0 -122 -58.5t-44 -161.5q0 -86 40 -131.5t116 -45.5q77 0 121 58.5z" />
    <glyph glyph-name="Racute" unicode="&#x154;" horiz-adv-x="682" 
d="M603 36q4 -7 4 -15q0 -11 -9 -18.5t-21 -7.5q-19 0 -29 19l-115 212q-24 46 -53.5 63t-83.5 17h-138l-22 -282q-1 -14 -9.5 -21.5t-22.5 -7.5t-22.5 8.5t-6.5 24.5l50 646q1 14 10.5 22.5t23.5 8.5h245q107 0 164.5 -47t57.5 -137q0 -92 -52 -145.5t-153 -61.5
q22 -9 38.5 -27.5t34.5 -50.5zM380 359q93 0 139 38.5t46 119.5q0 69 -40.5 102t-121.5 33h-218l-23 -293h218zM385 760q-7 0 -11.5 4.5t-4.5 11.5q0 6 5 14l82 114q15 19 31 19q11 0 19 -7.5t8 -18.5q0 -14 -13 -27l-97 -101q-9 -9 -19 -9z" />
    <glyph glyph-name="racute" unicode="&#x155;" horiz-adv-x="339" 
d="M352 490q8 -7 8 -19q-1 -11 -7.5 -19t-19.5 -9l-27 -3q-76 -7 -116 -46t-46 -110l-20 -258q-2 -16 -11 -23.5t-22 -7.5q-14 0 -22 7.5t-6 23.5l35 441q1 14 10.5 21t22.5 7t20.5 -7t6.5 -21l-5 -62q25 42 65.5 63.5t100.5 26.5l11 1q14 1 22 -6zM238 545q-7 0 -12 5
t-5 13t5 14l138 165q12 15 28 15q13 0 23 -9t10 -22t-13 -25l-159 -149q-7 -7 -15 -7z" />
    <glyph glyph-name="Rcommaaccent" unicode="&#x156;" horiz-adv-x="682" 
d="M603 36q4 -7 4 -15q0 -11 -9 -18.5t-21 -7.5q-19 0 -29 19l-115 212q-24 46 -53.5 63t-83.5 17h-138l-22 -282q-1 -14 -9.5 -21.5t-22.5 -7.5t-22.5 8.5t-6.5 24.5l50 646q1 14 10.5 22.5t23.5 8.5h245q107 0 164.5 -47t57.5 -137q0 -92 -52 -145.5t-153 -61.5
q22 -9 38.5 -27.5t34.5 -50.5zM380 359q93 0 139 38.5t46 119.5q0 69 -40.5 102t-121.5 33h-218l-23 -293h218zM345 -82q12 -13 12 -39q0 -32 -12.5 -63t-39.5 -58q-11 -11 -22 -11q-8 0 -13 5t-5 12t8 17q28 31 36 66q-19 0 -30.5 10.5t-11.5 28.5q0 19 12.5 32t32.5 13
q21 0 33 -13z" />
    <glyph glyph-name="rcommaaccent" unicode="&#x157;" horiz-adv-x="339" 
d="M352 490q8 -7 8 -19q-1 -11 -7.5 -19t-19.5 -9l-27 -3q-76 -7 -116 -46t-46 -110l-20 -258q-2 -16 -11 -23.5t-22 -7.5q-14 0 -22 7.5t-6 23.5l35 441q1 14 10.5 21t22.5 7t20.5 -7t6.5 -21l-5 -62q25 42 65.5 63.5t100.5 26.5l11 1q14 1 22 -6zM119 -82q12 -13 12 -39
q0 -32 -12.5 -63t-39.5 -58q-11 -11 -22 -11q-8 0 -13 5t-5 12t8 17q28 31 36 66q-19 0 -30.5 10.5t-11.5 28.5q0 19 12.5 32t32.5 13q21 0 33 -13z" />
    <glyph glyph-name="Rcaron" unicode="&#x158;" horiz-adv-x="682" 
d="M603 36q4 -7 4 -15q0 -11 -9 -18.5t-21 -7.5q-19 0 -29 19l-115 212q-24 46 -53.5 63t-83.5 17h-138l-22 -282q-1 -14 -9.5 -21.5t-22.5 -7.5t-22.5 8.5t-6.5 24.5l50 646q1 14 10.5 22.5t23.5 8.5h245q107 0 164.5 -47t57.5 -137q0 -92 -52 -145.5t-153 -61.5
q22 -9 38.5 -27.5t34.5 -50.5zM380 359q93 0 139 38.5t46 119.5q0 69 -40.5 102t-121.5 33h-218l-23 -293h218zM484 922q11 0 19 -8t8 -18t-7 -17l-92 -104q-15 -17 -35 -17q-19 0 -31 17l-72 102q-7 10 -7 19q0 10 7.5 17t18.5 7q17 0 26 -16l61 -97l82 103q9 12 22 12z
" />
    <glyph glyph-name="rcaron" unicode="&#x159;" horiz-adv-x="339" 
d="M352 490q8 -7 8 -19q-1 -11 -7.5 -19t-19.5 -9l-27 -3q-76 -7 -116 -46t-46 -110l-20 -258q-2 -16 -11 -23.5t-22 -7.5q-14 0 -22 7.5t-6 23.5l35 441q1 14 10.5 21t22.5 7t20.5 -7t6.5 -21l-5 -62q25 42 65.5 63.5t100.5 26.5l11 1q14 1 22 -6zM330 752q7 4 13 4
q11 0 18.5 -7.5t7.5 -18.5q0 -9 -6 -18l-95 -145q-15 -22 -35 -22q-21 0 -31 22l-72 146q-3 8 -3 14q0 12 9 21t20 9q15 0 22 -17l59 -140l82 140q4 8 11 12z" />
    <glyph glyph-name="Sacute" unicode="&#x15a;" horiz-adv-x="607" 
d="M50 74q-16 13 -16 31q0 12 7 20t17 8t16 -6q50 -42 104.5 -61.5t123.5 -19.5q93 0 142 36t49 100q0 38 -23.5 63t-59.5 39t-96 31q-75 21 -121 40.5t-78 58.5t-32 103q0 59 31 103.5t88.5 68.5t134.5 24q72 0 135 -23t107 -65q10 -10 10 -24q0 -11 -7.5 -19.5t-18.5 -8.5
q-13 0 -24 10q-40 36 -91.5 56t-110.5 20q-93 0 -142 -37t-49 -103q0 -43 25.5 -71t63.5 -43t101 -33q73 -21 116.5 -39.5t73.5 -54t30 -93.5q0 -89 -68.5 -141t-185.5 -52q-159 0 -252 82zM352 760q-7 0 -11.5 4.5t-4.5 11.5q0 6 5 14l82 114q15 19 31 19q11 0 19 -7.5
t8 -18.5q0 -14 -13 -27l-97 -101q-9 -9 -19 -9z" />
    <glyph glyph-name="sacute" unicode="&#x15b;" horiz-adv-x="478" 
d="M124 8.5q-47 15.5 -75 39.5q-13 12 -13 27q0 12 6.5 19.5t16.5 7.5q8 0 17 -6q35 -25 70.5 -37.5t78.5 -12.5q129 0 129 81q0 26 -16 42.5t-40 26t-65 21.5q-51 15 -82 28.5t-53 40t-22 69.5q0 66 51 104t136 38q49 0 92.5 -16t68.5 -42q10 -10 10 -22q0 -11 -7 -19
t-18 -8q-10 0 -22 9q-24 20 -56.5 32.5t-67.5 12.5q-60 0 -92 -22t-32 -64q0 -26 16 -42t38.5 -25.5t65.5 -22.5q50 -14 81.5 -27.5t53.5 -40.5t22 -70q0 -63 -52.5 -100t-140.5 -37q-52 0 -99 15.5zM276 545q-7 0 -12 5t-5 13t5 14l138 165q12 15 28 15q13 0 23 -9t10 -22
t-13 -25l-159 -149q-7 -7 -15 -7z" />
    <glyph glyph-name="Scircumflex" unicode="&#x15c;" horiz-adv-x="607" 
d="M50 74q-16 13 -16 31q0 12 7 20t17 8t16 -6q50 -42 104.5 -61.5t123.5 -19.5q93 0 142 36t49 100q0 38 -23.5 63t-59.5 39t-96 31q-75 21 -121 40.5t-78 58.5t-32 103q0 59 31 103.5t88.5 68.5t134.5 24q72 0 135 -23t107 -65q10 -10 10 -24q0 -11 -7.5 -19.5t-18.5 -8.5
q-13 0 -24 10q-40 36 -91.5 56t-110.5 20q-93 0 -142 -37t-49 -103q0 -43 25.5 -71t63.5 -43t101 -33q73 -21 116.5 -39.5t73.5 -54t30 -93.5q0 -89 -68.5 -141t-185.5 -52q-159 0 -252 82zM252 758q-11 0 -19 8t-8 18t7 17l92 104q15 17 35 17q19 0 31 -17l72 -101
q7 -10 7 -19q0 -10 -7.5 -17.5t-18.5 -7.5q-16 0 -26 17l-61 96l-82 -103q-9 -12 -22 -12z" />
    <glyph glyph-name="scircumflex" unicode="&#x15d;" horiz-adv-x="478" 
d="M124 8.5q-47 15.5 -75 39.5q-13 12 -13 27q0 12 6.5 19.5t16.5 7.5q8 0 17 -6q35 -25 70.5 -37.5t78.5 -12.5q129 0 129 81q0 26 -16 42.5t-40 26t-65 21.5q-51 15 -82 28.5t-53 40t-22 69.5q0 66 51 104t136 38q49 0 92.5 -16t68.5 -42q10 -10 10 -22q0 -11 -7 -19
t-18 -8q-10 0 -22 9q-24 20 -56.5 32.5t-67.5 12.5q-60 0 -92 -22t-32 -64q0 -26 16 -42t38.5 -25.5t65.5 -22.5q50 -14 81.5 -27.5t53.5 -40.5t22 -70q0 -63 -52.5 -100t-140.5 -37q-52 0 -99 15.5zM191 549q-7 -4 -13 -4q-11 0 -18.5 7.5t-7.5 18.5q0 9 6 18l95 145
q15 22 35 22q21 0 31 -22l72 -146q3 -7 3 -14q0 -12 -9 -20.5t-20 -8.5q-15 0 -22 16l-59 140l-82 -140q-4 -8 -11 -12z" />
    <glyph glyph-name="Scedilla" unicode="&#x15e;" horiz-adv-x="607" 
d="M589 601q0 -11 -7.5 -19.5t-18.5 -8.5q-13 0 -24 10q-40 36 -91.5 56t-110.5 20q-93 0 -142 -37t-49 -103q0 -43 25.5 -71t63.5 -43t101 -33q73 -21 116.5 -39.5t73.5 -54t30 -93.5q0 -89 -68.5 -141t-184.5 -52l-7 -36q12 3 25 3q32 0 51.5 -18t19.5 -49
q0 -38 -30.5 -60.5t-82.5 -22.5q-40 0 -72 12q-15 5 -15 20q0 9 6.5 15t16.5 6q5 0 8 -1q30 -9 57 -9q30 0 45.5 10t15.5 28q0 14 -9 21.5t-26 7.5q-15 0 -29 -5t-18 -5q-8 0 -13.5 6t-4.5 13l13 66q-125 10 -204 80q-16 13 -16 31q0 12 7 20t17 8t16 -6q50 -42 104.5 -61.5
t123.5 -19.5q93 0 142 36t49 100q0 38 -23.5 63t-59.5 39t-96 31q-75 21 -121 40.5t-78 58.5t-32 103q0 59 31 103.5t88.5 68.5t134.5 24q72 0 135 -23t107 -65q10 -10 10 -24z" />
    <glyph glyph-name="scedilla" unicode="&#x15f;" horiz-adv-x="478" 
d="M171 422q-32 -22 -32 -64q0 -26 16 -42t38.5 -25.5t65.5 -22.5q50 -14 81.5 -27.5t53.5 -40.5t22 -70q0 -62 -50 -98.5t-133 -38.5l-8 -37q12 3 25 3q32 0 51.5 -18t19.5 -49q0 -38 -30.5 -60.5t-82.5 -22.5q-40 0 -72 12q-15 5 -15 20q0 9 6.5 15t16.5 6q5 0 8 -1
q30 -9 57 -9q30 0 45.5 10t15.5 28q0 14 -9 21.5t-26 7.5q-15 0 -29 -5t-18 -5q-8 0 -13.5 6t-4.5 13l13 67q-40 5 -76 19.5t-58 33.5q-13 12 -13 27q0 12 6.5 19.5t16.5 7.5q8 0 17 -6q35 -25 70.5 -37.5t78.5 -12.5q129 0 129 81q0 26 -16 42.5t-40 26t-65 21.5
q-51 15 -82 28.5t-53 40t-22 69.5q0 66 51 104t136 38q49 0 92.5 -16t68.5 -42q10 -10 10 -22q0 -11 -7 -19t-18 -8q-10 0 -22 9q-24 20 -56.5 32.5t-67.5 12.5q-60 0 -92 -22z" />
    <glyph glyph-name="Scaron" unicode="&#x160;" horiz-adv-x="607" 
d="M50 74q-16 13 -16 31q0 12 7 20t17 8t16 -6q50 -42 104.5 -61.5t123.5 -19.5q93 0 142 36t49 100q0 38 -23.5 63t-59.5 39t-96 31q-75 21 -121 40.5t-78 58.5t-32 103q0 59 31 103.5t88.5 68.5t134.5 24q72 0 135 -23t107 -65q10 -10 10 -24q0 -11 -7.5 -19.5t-18.5 -8.5
q-13 0 -24 10q-40 36 -91.5 56t-110.5 20q-93 0 -142 -37t-49 -103q0 -43 25.5 -71t63.5 -43t101 -33q73 -21 116.5 -39.5t73.5 -54t30 -93.5q0 -89 -68.5 -141t-185.5 -52q-159 0 -252 82zM451 922q11 0 19 -8t8 -18t-7 -17l-92 -104q-15 -17 -35 -17q-19 0 -31 17l-72 102
q-7 10 -7 19q0 10 7.5 17t18.5 7q17 0 26 -16l61 -97l82 103q9 12 22 12z" />
    <glyph glyph-name="scaron" unicode="&#x161;" horiz-adv-x="478" 
d="M124 8.5q-47 15.5 -75 39.5q-13 12 -13 27q0 12 6.5 19.5t16.5 7.5q8 0 17 -6q35 -25 70.5 -37.5t78.5 -12.5q129 0 129 81q0 26 -16 42.5t-40 26t-65 21.5q-51 15 -82 28.5t-53 40t-22 69.5q0 66 51 104t136 38q49 0 92.5 -16t68.5 -42q10 -10 10 -22q0 -11 -7 -19
t-18 -8q-10 0 -22 9q-24 20 -56.5 32.5t-67.5 12.5q-60 0 -92 -22t-32 -64q0 -26 16 -42t38.5 -25.5t65.5 -22.5q50 -14 81.5 -27.5t53.5 -40.5t22 -70q0 -63 -52.5 -100t-140.5 -37q-52 0 -99 15.5zM368 752q7 4 13 4q11 0 18.5 -7.5t7.5 -18.5q0 -9 -6 -18l-95 -145
q-15 -22 -35 -22q-21 0 -31 22l-72 146q-3 8 -3 14q0 12 9 21t20 9q15 0 22 -17l59 -140l82 140q4 8 11 12z" />
    <glyph glyph-name="uni0162" unicode="&#x162;" horiz-adv-x="590" 
d="M611.5 697.5q7.5 -7.5 7.5 -19.5t-7.5 -19.5t-20.5 -7.5h-232l-50 -627q-2 -20 -17 -26l-9 -42q12 3 25 3q32 0 51.5 -18t19.5 -49q0 -38 -30.5 -60.5t-82.5 -22.5q-40 0 -72 12q-15 5 -15 20q0 9 6.5 15t16.5 6q5 0 8 -1q30 -9 57 -9q30 0 45.5 10t15.5 28q0 14 -9 21.5
t-26 7.5q-15 0 -29 -5t-18 -5q-8 0 -13.5 6t-4.5 13l18 92h2v7l49 624h-229q-12 0 -19.5 7.5t-7.5 19.5t7.5 19.5t20.5 7.5h523q12 0 19.5 -7.5z" />
    <glyph glyph-name="uni0163" unicode="&#x163;" horiz-adv-x="327" 
d="M159 171q-1 -7 -1 -20q0 -51 24 -78.5t67 -27.5q14 0 25.5 1.5t16.5 1.5q9 0 14.5 -6.5t5.5 -18.5q0 -16 -15.5 -22.5t-55.5 -6.5q-16 0 -33 3l-8 -41q12 3 25 3q32 0 51.5 -18t19.5 -49q0 -38 -30.5 -60.5t-82.5 -22.5q-40 0 -72 12q-15 5 -15 20q0 9 6.5 15t16.5 6
q5 0 8 -1q30 -9 57 -9q30 0 45.5 10t15.5 28q0 14 -9 21.5t-26 7.5q-15 0 -29 -5t-18 -5q-8 0 -13.5 6t-4.5 13l17 86q-30 17 -47 51t-17 79q0 15 1 22l21 270h-74q-11 0 -18 6.5t-7 18.5q0 11 7 17.5t18 6.5h77l10 125q2 12 10.5 20t21.5 8q14 0 22 -8.5t7 -21.5l-10 -123
h122q11 0 18 -6.5t7 -17.5q0 -12 -7 -18.5t-19 -6.5h-124z" />
    <glyph glyph-name="Tcaron" unicode="&#x164;" horiz-adv-x="590" 
d="M256 4q-9 9 -8 23l49 624h-229q-12 0 -19.5 7.5t-7.5 19.5t7.5 19.5t20.5 7.5h523q12 0 19.5 -7.5t7.5 -19.5t-7.5 -19.5t-20.5 -7.5h-232l-50 -627q-1 -13 -9.5 -21t-21.5 -8t-22 9zM442 922q11 0 19 -8t8 -18t-7 -17l-92 -104q-15 -17 -35 -17q-19 0 -31 17l-72 102
q-7 10 -7 19q0 10 7.5 17t18.5 7q17 0 26 -16l61 -97l82 103q9 12 22 12z" />
    <glyph glyph-name="tcaron" unicode="&#x165;" horiz-adv-x="327" 
d="M261 531q-8 0 -13.5 4.5t-4.5 12.5l12 133q1 14 10 22t21 8q11 0 19 -7t8 -19q0 -6 -1 -9l-31 -131q-4 -14 -20 -14zM159 171q-1 -7 -1 -20q0 -51 24 -78.5t67 -27.5q14 0 25.5 1.5t16.5 1.5q9 0 14.5 -6.5t5.5 -18.5q0 -16 -15.5 -22.5t-55.5 -6.5q-66 0 -104.5 39.5
t-38.5 110.5q0 14 1 22l21 270h-74q-11 0 -18 6.5t-7 18.5q0 11 7 17.5t18 6.5h77l10 125q2 12 10.5 20t21.5 8q14 0 22 -8.5t7 -21.5l-10 -123h122q11 0 18 -6.5t7 -17.5q0 -12 -7 -18.5t-19 -6.5h-124z" />
    <glyph glyph-name="Tbar" unicode="&#x166;" horiz-adv-x="590" 
d="M611.5 697.5q7.5 -7.5 7.5 -19.5t-7.5 -19.5t-20.5 -7.5h-232l-21 -268h121q12 0 19 -7t7 -18t-7 -18.5t-20 -7.5h-124l-25 -308q-1 -13 -9.5 -21t-21.5 -8t-22 9t-8 23l24 305h-122q-12 0 -19 7.5t-7 18.5t7 18t19 7h126l21 268h-229q-12 0 -19.5 7.5t-7.5 19.5
t7.5 19.5t20.5 7.5h523q12 0 19.5 -7.5z" />
    <glyph glyph-name="tbar" unicode="&#x167;" horiz-adv-x="337" 
d="M185 436l-11 -131h101q12 0 19 -7t7 -17q0 -11 -7 -18t-19 -7h-104l-7 -85q-1 -7 -1 -20q0 -52 26 -79t74 -27q13 0 32 3h3q7 0 12 -6.5t5 -14.5q0 -9 -6 -16.5t-19 -10.5q-9 -6 -35 -6q-73 0 -113 40t-40 112q0 13 1 20l7 90h-54q-12 0 -19 7t-7 17q0 11 7 18t19 7h58
l10 131h-74q-12 0 -18.5 7t-6.5 18t6.5 17.5t18.5 6.5h77l10 125q1 13 10.5 20.5t21.5 7.5q13 0 21.5 -8t7.5 -22l-10 -123h122q11 0 18 -6.5t7 -17.5t-7 -18t-19 -7h-124z" />
    <glyph glyph-name="Utilde" unicode="&#x168;" horiz-adv-x="720" 
d="M152.5 54.5q-65.5 62.5 -65.5 179.5q0 12 2 38l32 409q1 13 10 21t21 8q13 0 22 -9t8 -23l-32 -403q-1 -12 -1 -34q0 -194 196 -194q107 0 163.5 53.5t65.5 163.5l33 417q1 13 9.5 21t21.5 8t22 -8.5t8 -23.5l-33 -407q-11 -140 -84 -209.5t-206 -69.5
q-127 0 -192.5 62.5zM396 818q-15 8 -30.5 14t-26.5 6q-19 0 -29.5 -7.5t-21.5 -21.5t-19 -14t-12.5 6t-4.5 15q0 16 12 33.5t32.5 29.5t46.5 12q29 0 77 -26q15 -8 30.5 -14t26.5 -6q19 0 29.5 7.5t21.5 21.5q4 6 8.5 10.5t9.5 4.5q8 0 13 -6t5 -15q0 -16 -12 -34t-33 -30
t-46 -12q-29 0 -77 26z" />
    <glyph glyph-name="utilde" unicode="&#x169;" horiz-adv-x="553" 
d="M483 487.5q8 -7.5 7 -23.5l-35 -441q-1 -14 -10.5 -21t-22.5 -7t-20.5 7t-6.5 21l5 62q-25 -44 -67.5 -68t-95.5 -24q-80 0 -122.5 41.5t-42.5 122.5q0 17 1 26l22 281q1 16 10.5 23.5t22.5 7.5t21 -7.5t7 -23.5l-22 -276q-1 -8 -1 -24q0 -117 113 -117q71 0 114 43
t49 120l20 254q1 16 10.5 23.5t22.5 7.5t21 -7.5zM336.5 602.5q-18.5 9.5 -39.5 26.5q-23 16 -34.5 22t-22.5 6q-17 0 -28 -9.5t-21 -26.5q-7 -11 -11.5 -16t-10.5 -5q-7 0 -12 6t-5 15q0 17 12.5 38.5t33.5 36.5t46 15q18 0 36.5 -9.5t39.5 -26.5q23 -16 34.5 -22t22.5 -6
q17 0 27.5 9.5t22.5 26.5q7 11 11.5 16t10.5 5q7 0 11.5 -6t4.5 -15q0 -17 -12.5 -38.5t-33.5 -36.5t-46 -15q-18 0 -36.5 9.5z" />
    <glyph glyph-name="Umacron" unicode="&#x16a;" horiz-adv-x="720" 
d="M152.5 54.5q-65.5 62.5 -65.5 179.5q0 12 2 38l32 409q1 13 10 21t21 8q13 0 22 -9t8 -23l-32 -403q-1 -12 -1 -34q0 -194 196 -194q107 0 163.5 53.5t65.5 163.5l33 417q1 13 9.5 21t21.5 8t22 -8.5t8 -23.5l-33 -407q-11 -140 -84 -209.5t-206 -69.5
q-127 0 -192.5 62.5zM262.5 822q-7.5 7 -7.5 19q0 13 9 19.5t24 6.5h243q30 0 30 -26q0 -12 -9 -19t-24 -7h-243q-15 0 -22.5 7z" />
    <glyph glyph-name="umacron" unicode="&#x16b;" horiz-adv-x="553" 
d="M483 487.5q8 -7.5 7 -23.5l-35 -441q-1 -14 -10.5 -21t-22.5 -7t-20.5 7t-6.5 21l5 62q-25 -44 -67.5 -68t-95.5 -24q-80 0 -122.5 41.5t-42.5 122.5q0 17 1 26l22 281q1 16 10.5 23.5t22.5 7.5t21 -7.5t7 -23.5l-22 -276q-1 -8 -1 -24q0 -117 113 -117q71 0 114 43
t49 120l20 254q1 16 10.5 23.5t22.5 7.5t21 -7.5zM156 651q0 13 9 19.5t24 6.5h243q30 0 30 -25q0 -13 -9 -19.5t-24 -6.5h-243q-30 0 -30 25z" />
    <glyph glyph-name="Ubreve" unicode="&#x16c;" horiz-adv-x="720" 
d="M152.5 54.5q-65.5 62.5 -65.5 179.5q0 12 2 38l32 409q1 13 10 21t21 8q13 0 22 -9t8 -23l-32 -403q-1 -12 -1 -34q0 -194 196 -194q107 0 163.5 53.5t65.5 163.5l33 417q1 13 9.5 21t21.5 8t22 -8.5t8 -23.5l-33 -407q-11 -140 -84 -209.5t-206 -69.5
q-127 0 -192.5 62.5zM316 800q-37 22 -56 66q-3 8 -3 14q0 10 7.5 16.5t16.5 6.5q17 0 26 -16q17 -32 40.5 -46t57.5 -14t60.5 14t47.5 46q6 8 14 12.5t15 4.5q10 0 16.5 -5.5t6.5 -15.5q0 -9 -5 -17q-25 -44 -66 -66t-91 -22t-87 22z" />
    <glyph glyph-name="ubreve" unicode="&#x16d;" horiz-adv-x="553" 
d="M483 487.5q8 -7.5 7 -23.5l-35 -441q-1 -14 -10.5 -21t-22.5 -7t-20.5 7t-6.5 21l5 62q-25 -44 -67.5 -68t-95.5 -24q-80 0 -122.5 41.5t-42.5 122.5q0 17 1 26l22 281q1 16 10.5 23.5t22.5 7.5t21 -7.5t7 -23.5l-22 -276q-1 -8 -1 -24q0 -117 113 -117q71 0 114 43
t49 120l20 254q1 16 10.5 23.5t22.5 7.5t21 -7.5zM216 608q-37 25 -55 73q-3 8 -3 13q0 12 8 19.5t18 7.5q17 0 26 -20q13 -34 38.5 -51.5t58.5 -17.5q68 0 107 69q11 20 28 20q9 0 15.5 -6.5t6.5 -16.5q0 -9 -4 -17q-23 -48 -64.5 -73t-92.5 -25q-50 0 -87 25z" />
    <glyph glyph-name="Uring" unicode="&#x16e;" horiz-adv-x="720" 
d="M152.5 54.5q-65.5 62.5 -65.5 179.5q0 12 2 38l32 409q1 13 10 21t21 8q13 0 22 -9t8 -23l-32 -403q-1 -12 -1 -34q0 -194 196 -194q107 0 163.5 53.5t65.5 163.5l33 417q1 13 9.5 21t21.5 8t22 -8.5t8 -23.5l-33 -407q-11 -140 -84 -209.5t-206 -69.5
q-127 0 -192.5 62.5zM338 788q-29 28 -29 69q0 40 29 68.5t70 28.5t70 -28.5t29 -68.5q0 -41 -29 -69t-70 -28t-70 28zM444 820q14 15 14 37t-14 36.5t-36 14.5t-35.5 -14.5t-13.5 -36.5t14 -37t35 -15q22 0 36 15z" />
    <glyph glyph-name="uring" unicode="&#x16f;" horiz-adv-x="553" 
d="M483 487.5q8 -7.5 7 -23.5l-35 -441q-1 -14 -10.5 -21t-22.5 -7t-20.5 7t-6.5 21l5 62q-25 -44 -67.5 -68t-95.5 -24q-80 0 -122.5 41.5t-42.5 122.5q0 17 1 26l22 281q1 16 10.5 23.5t22.5 7.5t21 -7.5t7 -23.5l-22 -276q-1 -8 -1 -24q0 -117 113 -117q71 0 114 43
t49 120l20 254q1 16 10.5 23.5t22.5 7.5t21 -7.5zM238 582q-29 28 -29 69q0 40 29 68t70 28t70 -28t29 -68q0 -41 -29 -69t-70 -28t-70 28zM344 614q14 15 14 37q0 21 -14.5 36t-35.5 15t-35 -15t-14 -36q0 -22 14 -37t35 -15q22 0 36 15z" />
    <glyph glyph-name="Uhungarumlaut" unicode="&#x170;" horiz-adv-x="720" 
d="M152.5 54.5q-65.5 62.5 -65.5 179.5q0 12 2 38l32 409q1 13 10 21t21 8q13 0 22 -9t8 -23l-32 -403q-1 -12 -1 -34q0 -194 196 -194q107 0 163.5 53.5t65.5 163.5l33 417q1 13 9.5 21t21.5 8t22 -8.5t8 -23.5l-33 -407q-11 -140 -84 -209.5t-206 -69.5
q-127 0 -192.5 62.5zM348 760q-6 0 -10 3.5t-4 9.5t3 10l60 115q11 23 31 23q10 0 17 -7t7 -17t-9 -22l-81 -107q-5 -8 -14 -8zM463 760q-6 0 -10 3.5t-4 9.5t3 10l60 115q11 23 31 23q10 0 16.5 -7t6.5 -17q0 -11 -8 -22l-81 -107q-5 -8 -14 -8z" />
    <glyph glyph-name="uhungarumlaut" unicode="&#x171;" horiz-adv-x="553" 
d="M483 487.5q8 -7.5 7 -23.5l-35 -441q-1 -14 -10.5 -21t-22.5 -7t-20.5 7t-6.5 21l5 62q-25 -44 -67.5 -68t-95.5 -24q-80 0 -122.5 41.5t-42.5 122.5q0 17 1 26l22 281q1 16 10.5 23.5t22.5 7.5t21 -7.5t7 -23.5l-22 -276q-1 -8 -1 -24q0 -117 113 -117q71 0 114 43
t49 120l20 254q1 16 10.5 23.5t22.5 7.5t21 -7.5zM245 544q-8 0 -13 6t-2 15l52 164q4 14 13 21.5t19 7.5q11 0 19 -8t8 -20q0 -9 -6 -21l-75 -155q-4 -10 -15 -10zM360 544q-7 0 -12 6t-2 15l51 164q4 14 13.5 21.5t19.5 7.5q11 0 18.5 -8t7.5 -20q0 -11 -5 -21l-76 -155
q-4 -10 -15 -10z" />
    <glyph glyph-name="Uogonek" unicode="&#x172;" horiz-adv-x="720" 
d="M660 701.5q9 -8.5 8 -23.5l-33 -407q-18 -219 -187 -266q-46 -14 -68.5 -35t-22.5 -55q0 -30 16 -45.5t45 -15.5q23 0 49 13q10 4 13 4q8 0 12 -5t4 -13q0 -18 -16 -27q-31 -17 -69 -17q-50 0 -79 26.5t-29 69.5q0 56 43 87h-6q-124 0 -188.5 62.5t-64.5 179.5q0 12 2 38
l32 409q1 13 10 21t21 8q13 0 22 -9t8 -23l-32 -403q-1 -12 -1 -34q0 -194 196 -194q107 0 163.5 53.5t65.5 163.5l33 417q1 13 9.5 21t21.5 8t22 -8.5z" />
    <glyph glyph-name="uogonek" unicode="&#x173;" horiz-adv-x="553" 
d="M475 -130q8 0 12 -5t4 -13q0 -7 -4 -14.5t-12 -11.5q-33 -17 -69 -17q-50 0 -79.5 26.5t-29.5 69.5t26 75t72 47l5 58q-25 -44 -67.5 -68t-95.5 -24q-80 0 -122.5 41.5t-42.5 122.5q0 17 1 26l22 281q1 16 10.5 23.5t22.5 7.5t21 -7.5t7 -23.5l-22 -276q-1 -8 -1 -24
q0 -117 113 -117q71 0 114 43t49 120l20 254q1 16 10.5 23.5t22.5 7.5t21 -7.5t7 -23.5l-34 -440q-1 -20 -21 -24q-35 -5 -59 -26.5t-24 -58.5q0 -30 16 -45.5t45 -15.5q23 0 49 13q8 3 13 3z" />
    <glyph glyph-name="Wcircumflex" unicode="&#x174;" horiz-adv-x="1096" 
d="M1056 710q11 0 19 -7t8 -18q0 -7 -3 -15l-279 -653q-4 -11 -13.5 -16.5t-19.5 -5.5q-11 0 -20 6.5t-12 19.5l-159 587l-253 -591q-4 -11 -13.5 -16.5t-19.5 -5.5q-11 0 -20 6.5t-13 19.5l-176 651q-1 3 -1 10q0 13 9 20.5t21 7.5q10 0 17.5 -5.5t10.5 -16.5l159 -601
l254 598q5 12 13.5 18.5t18.5 6.5t18.5 -6.5t11.5 -18.5l158 -597l257 605q7 17 27 17zM496 758q-11 0 -19 8t-8 18t7 17l92 104q15 17 35 17q19 0 31 -17l72 -101q7 -10 7 -19q0 -10 -7.5 -17.5t-18.5 -7.5q-16 0 -26 17l-61 96l-82 -103q-9 -12 -22 -12z" />
    <glyph glyph-name="wcircumflex" unicode="&#x175;" horiz-adv-x="836" 
d="M780 490q13 0 22.5 -8t9.5 -20q0 -6 -3 -12l-191 -428q-6 -12 -16.5 -18.5t-23.5 -6.5t-24.5 8t-15.5 22l-108 378l-168 -383q-5 -12 -15.5 -18.5t-23.5 -6.5q-14 0 -25.5 8t-15.5 22l-123 425q-1 3 -1 10q0 13 9.5 21t21.5 8q10 0 17.5 -5.5t10.5 -16.5l109 -397
l170 389q6 15 17 22.5t23 7.5t22.5 -8t14.5 -22l108 -387l173 399q9 17 26 17zM362 549q-7 -4 -13 -4q-11 0 -18.5 7.5t-7.5 18.5q0 9 6 18l95 145q15 22 35 22q21 0 31 -22l72 -146q3 -7 3 -14q0 -12 -9 -20.5t-20 -8.5q-15 0 -22 16l-59 140l-82 -140q-4 -8 -11 -12z" />
    <glyph glyph-name="Ycircumflex" unicode="&#x176;" horiz-adv-x="591" 
d="M587 710q11 0 18 -7t7 -18q0 -12 -8 -21l-271 -327l-24 -313q-1 -13 -10 -21t-21 -8q-13 0 -22.5 9t-8.5 23l25 310l-220 327q-7 10 -7 19q0 12 9 19t21 7q16 0 25 -13l205 -306l251 303q14 17 31 17zM243 758q-11 0 -19 8t-8 18t7 17l92 104q15 17 35 17q19 0 31 -17
l72 -101q7 -10 7 -19q0 -10 -7.5 -17.5t-18.5 -7.5q-16 0 -26 17l-61 96l-82 -103q-9 -12 -22 -12z" />
    <glyph glyph-name="ycircumflex" unicode="&#x177;" horiz-adv-x="509" 
d="M477 490q12 0 20.5 -7.5t8.5 -19.5q0 -8 -4 -15l-324 -615q-10 -18 -29 -18q-11 0 -19 6.5t-8 16.5q0 6 4 13l79 150l-166 448q-2 4 -2 12q0 12 9 20t21 8q20 0 27 -20l145 -408l213 412q9 17 25 17zM199 549q-7 -4 -13 -4q-11 0 -18.5 7.5t-7.5 18.5q0 9 6 18l95 145
q15 22 35 22q21 0 31 -22l72 -146q3 -7 3 -14q0 -12 -9 -20.5t-20 -8.5q-15 0 -22 16l-59 140l-82 -140q-4 -8 -11 -12z" />
    <glyph glyph-name="Ydieresis" unicode="&#x178;" horiz-adv-x="591" 
d="M587 710q11 0 18 -7t7 -18q0 -12 -8 -21l-271 -327l-24 -313q-1 -13 -10 -21t-21 -8q-13 0 -22.5 9t-8.5 23l25 310l-220 327q-7 10 -7 19q0 12 9 19t21 7q16 0 25 -13l205 -306l251 303q14 17 31 17zM230 811.5q-12 11.5 -12 29.5t12 29.5t30 11.5t30.5 -11.5
t12.5 -29.5t-12.5 -29.5t-30.5 -11.5t-30 11.5zM395.5 811.5q-12.5 11.5 -12.5 29.5t12.5 29.5t30.5 11.5t30 -11.5t12 -29.5t-12 -29.5t-30 -11.5t-30.5 11.5z" />
    <glyph glyph-name="Zacute" unicode="&#x179;" horiz-adv-x="584" 
d="M568.5 697.5q6.5 -7.5 6.5 -17.5q0 -14 -8 -23l-463 -604h405q13 0 20 -7t7 -19t-7.5 -19.5t-20.5 -7.5h-459q-12 0 -19 7.5t-7 19.5q0 11 7 21l464 604h-394q-12 0 -19.5 7.5t-7.5 18.5q0 12 7.5 19.5t20.5 7.5h450q11 0 17.5 -7.5zM339 760q-7 0 -11.5 4.5t-4.5 11.5
q0 6 5 14l82 114q15 19 31 19q11 0 19 -7.5t8 -18.5q0 -14 -13 -27l-97 -101q-9 -9 -19 -9z" />
    <glyph glyph-name="zacute" unicode="&#x17a;" horiz-adv-x="499" 
d="M461.5 478q6.5 -7 6.5 -17q0 -12 -10 -24l-343 -387h303q12 0 19 -7t7 -18t-7.5 -18t-19.5 -7h-367q-11 0 -17.5 6.5t-6.5 16.5q0 12 10 22l347 391h-285q-12 0 -18.5 7t-6.5 18t7 17.5t19 6.5h345q11 0 17.5 -7zM282 545q-7 0 -12 5t-5 13t5 14l138 165q12 15 28 15
q13 0 23 -9t10 -22t-13 -25l-159 -149q-7 -7 -15 -7z" />
    <glyph glyph-name="Zdotaccent" unicode="&#x17b;" horiz-adv-x="584" 
d="M568.5 697.5q6.5 -7.5 6.5 -17.5q0 -14 -8 -23l-463 -604h405q13 0 20 -7t7 -19t-7.5 -19.5t-20.5 -7.5h-459q-12 0 -19 7.5t-7 19.5q0 11 7 21l464 604h-394q-12 0 -19.5 7.5t-7.5 18.5q0 12 7.5 19.5t20.5 7.5h450q11 0 17.5 -7.5zM306.5 810q-12.5 12 -12.5 31
q0 20 12.5 32t32.5 12t32.5 -12t12.5 -32q0 -19 -12.5 -31t-32.5 -12t-32.5 12z" />
    <glyph glyph-name="zdotaccent" unicode="&#x17c;" horiz-adv-x="499" 
d="M461.5 478q6.5 -7 6.5 -17q0 -12 -10 -24l-343 -387h303q12 0 19 -7t7 -18t-7.5 -18t-19.5 -7h-367q-11 0 -17.5 6.5t-6.5 16.5q0 12 10 22l347 391h-285q-12 0 -18.5 7t-6.5 18t7 17.5t19 6.5h345q11 0 17.5 -7zM253.5 620q-12.5 12 -12.5 31q0 20 12.5 32t32.5 12
t32.5 -12t12.5 -32q0 -19 -12.5 -31t-32.5 -12t-32.5 12z" />
    <glyph glyph-name="Zcaron" unicode="&#x17d;" horiz-adv-x="584" 
d="M568.5 697.5q6.5 -7.5 6.5 -17.5q0 -14 -8 -23l-463 -604h405q13 0 20 -7t7 -19t-7.5 -19.5t-20.5 -7.5h-459q-12 0 -19 7.5t-7 19.5q0 11 7 21l464 604h-394q-12 0 -19.5 7.5t-7.5 18.5q0 12 7.5 19.5t20.5 7.5h450q11 0 17.5 -7.5zM438 922q11 0 19 -8t8 -18t-7 -17
l-92 -104q-15 -17 -35 -17q-19 0 -31 17l-72 102q-7 10 -7 19q0 10 7.5 17t18.5 7q17 0 26 -16l61 -97l82 103q9 12 22 12z" />
    <glyph glyph-name="zcaron" unicode="&#x17e;" horiz-adv-x="499" 
d="M461.5 478q6.5 -7 6.5 -17q0 -12 -10 -24l-343 -387h303q12 0 19 -7t7 -18t-7.5 -18t-19.5 -7h-367q-11 0 -17.5 6.5t-6.5 16.5q0 12 10 22l347 391h-285q-12 0 -18.5 7t-6.5 18t7 17.5t19 6.5h345q11 0 17.5 -7zM374 752q7 4 13 4q11 0 18.5 -7.5t7.5 -18.5q0 -9 -6 -18
l-95 -145q-15 -22 -35 -22q-21 0 -31 22l-72 146q-3 8 -3 14q0 12 9 21t20 9q15 0 22 -17l59 -140l82 140q4 8 11 12z" />
    <glyph glyph-name="uni018F" unicode="&#x18f;" horiz-adv-x="735" 
d="M540 673q67 -40 103.5 -114t36.5 -176q0 -118 -40 -206.5t-114.5 -136.5t-175.5 -48q-89 0 -152 39t-95 108.5t-32 159.5q0 30 3 57q1 13 10 21t22 8h510q-1 132 -64 202.5t-181 70.5q-122 0 -212 -76q-13 -10 -23 -10q-9 0 -14.5 6.5t-5.5 16.5q0 18 15 31
q45 42 109 64.5t142 22.5q91 0 158 -40zM534 121.5q68 74.5 80 208.5h-479l-1 -28q0 -120 55.5 -187.5t163.5 -67.5q113 0 181 74.5z" />
    <glyph glyph-name="florin" unicode="&#x192;" 
d="M588 702q8 -7 8 -17t-8.5 -18.5t-22.5 -8.5h-22q-49 0 -79.5 -25t-46.5 -83l-19 -64h109q11 0 17 -7t6 -18q0 -10 -7.5 -17t-18.5 -7h-120l-138 -467q-44 -155 -190 -155h-19q-15 0 -22.5 7t-7.5 17t8.5 18.5t21.5 8.5h23q48 0 78.5 25t47.5 83l136 463h-107
q-10 0 -16 6.5t-6 17.5t7.5 18t18.5 7h117l20 68q46 155 190 155h20q14 0 22 -7z" />
    <glyph glyph-name="Ohorn" unicode="&#x1a0;" horiz-adv-x="757" 
d="M668 553.5q34 -70.5 34 -170.5q0 -118 -39.5 -206.5t-113 -136.5t-171.5 -48q-94 0 -163 39.5t-106 114t-37 176.5q0 119 40 207t115 136t178 48q23 0 69 -4q52 -4 84 -4q63 0 91 25t34 86q2 31 29 31q26 0 26 -32q0 -67 -41 -108.5t-117 -45.5q54 -37 88 -107.5z
M517.5 88q58.5 40 89.5 115.5t31 179.5q0 133 -63 203.5t-180 70.5q-80 0 -138.5 -40t-89.5 -116t-31 -180q0 -132 63 -202.5t180 -70.5q80 0 138.5 40z" />
    <glyph glyph-name="ohorn" unicode="&#x1a1;" horiz-adv-x="545" 
d="M476.5 371.5q20.5 -50.5 20.5 -109.5q0 -80 -28.5 -141t-81 -94.5t-121.5 -33.5q-65 0 -114.5 29t-76 82t-26.5 123q0 81 28.5 142t81 94.5t121.5 33.5q27 0 57 -4q20 -2 25 -2q49 0 72.5 24t29.5 76q6 30 32 30q25 0 25 -29q0 -51 -28 -88t-78 -51q41 -31 61.5 -81.5z
M390 105.5q44 58.5 44 159.5q0 85 -41 132t-114 47q-78 0 -122 -58.5t-44 -161.5q0 -86 40 -131.5t116 -45.5q77 0 121 58.5z" />
    <glyph glyph-name="Uhorn" unicode="&#x1af;" horiz-adv-x="720" 
d="M762 713q-34 -40 -96 -49l-31 -393q-11 -140 -84 -209.5t-206 -69.5q-127 0 -192.5 62.5t-65.5 179.5q0 12 2 38l32 409q1 13 10 21t21 8q13 0 22 -9t8 -23l-32 -404q-1 -12 -1 -34q0 -193 196 -193q107 0 164 54t65 163l32 414q2 27 34 27q42 0 69.5 27.5t31.5 83.5
q2 31 29 31q26 0 26 -32q0 -62 -34 -102z" />
    <glyph glyph-name="uhorn" unicode="&#x1b0;" horiz-adv-x="564" 
d="M584.5 497q-34.5 -39 -95.5 -46l-34 -428q-1 -14 -10.5 -21t-22.5 -7t-20.5 7t-6.5 21l5 62q-25 -44 -67.5 -68t-95.5 -24q-80 0 -122.5 41.5t-42.5 122.5q0 17 1 26l22 281q1 16 10.5 23.5t22.5 7.5t21 -7.5t7 -23.5l-22 -276q-1 -8 -1 -24q0 -117 113 -117
q71 0 114 43.5t49 119.5l20 254q1 13 10 22t25 9q46 0 69 21.5t29 74.5q3 30 31 30q26 0 26 -29q0 -56 -34.5 -95z" />
    <glyph glyph-name="uni01C4" unicode="&#x1c4;" horiz-adv-x="1300" 
d="M83.5 10.5q-9.5 10.5 -7.5 26.5l49 637q1 14 10.5 22.5t23.5 8.5h190q158 0 243 -84t85 -238q0 -119 -41.5 -205t-120.5 -132t-191 -46h-215q-16 0 -25.5 10.5zM322 54q143 0 216.5 85.5t73.5 244.5q0 267 -265 267h-162l-47 -597h184zM1284.5 697.5q6.5 -7.5 6.5 -17.5
q0 -14 -8 -23l-463 -604h405q13 0 20 -7t7 -19t-7.5 -19.5t-20.5 -7.5h-459q-12 0 -19 7.5t-7 19.5q0 11 7 21l464 604h-394q-12 0 -19.5 7.5t-7.5 18.5q0 12 7.5 19.5t20.5 7.5h450q11 0 17.5 -7.5zM1154 922q11 0 19 -8t8 -18t-7 -17l-92 -104q-15 -17 -35 -17
q-19 0 -31 17l-72 102q-7 10 -7 19q0 10 7.5 17t18.5 7q17 0 26 -16l61 -97l82 103q9 12 22 12z" />
    <glyph glyph-name="uni01C5" unicode="&#x1c5;" horiz-adv-x="1230" 
d="M83.5 10.5q-9.5 10.5 -7.5 26.5l49 637q1 14 10.5 22.5t23.5 8.5h190q158 0 243 -84t85 -238q0 -119 -41.5 -205t-120.5 -132t-191 -46h-215q-16 0 -25.5 10.5zM322 54q143 0 216.5 85.5t73.5 244.5q0 267 -265 267h-162l-47 -597h184zM1192.5 478q6.5 -7 6.5 -17
q0 -12 -10 -24l-343 -387h303q12 0 19 -7t7 -18t-7.5 -18t-19.5 -7h-367q-11 0 -17.5 6.5t-6.5 16.5q0 12 10 22l347 391h-285q-12 0 -18.5 7t-6.5 18t7 17.5t19 6.5h345q11 0 17.5 -7zM1105 752q7 4 13 4q11 0 18.5 -7.5t7.5 -18.5q0 -9 -6 -18l-95 -145q-15 -22 -35 -22
q-21 0 -31 22l-72 146q-3 8 -3 14q0 12 9 21t20 9q15 0 22 -17l59 -140l82 140q4 8 11 12z" />
    <glyph glyph-name="uni01C6" unicode="&#x1c6;" horiz-adv-x="1072" 
d="M520 703.5q8 -7.5 7 -20.5l-51 -657q-1 -16 -10.5 -23.5t-22.5 -7.5t-21 7.5t-7 23.5l5 56q-25 -42 -69 -65.5t-95 -23.5q-61 0 -108 29t-73 82t-26 123q0 80 28.5 141.5t80 95t118.5 33.5q59 0 103 -25.5t65 -72.5l22 284q1 14 10.5 21t22.5 7t21 -7.5zM389.5 105.5
q44.5 58.5 44.5 159.5q0 87 -40.5 133t-115.5 46q-77 0 -121 -57.5t-44 -158.5q0 -87 40.5 -134t114.5 -47q77 0 121.5 58.5zM1034.5 478q6.5 -7 6.5 -17q0 -12 -10 -24l-343 -387h303q12 0 19 -7t7 -18t-7.5 -18t-19.5 -7h-367q-11 0 -17.5 6.5t-6.5 16.5q0 12 10 22
l347 391h-285q-12 0 -18.5 7t-6.5 18t7 17.5t19 6.5h345q11 0 17.5 -7zM947 752q7 4 13 4q11 0 18.5 -7.5t7.5 -18.5q0 -9 -6 -18l-95 -145q-15 -22 -35 -22q-21 0 -31 22l-72 146q-3 8 -3 14q0 12 9 21t20 9q15 0 22 -17l59 -140l82 140q4 8 11 12z" />
    <glyph glyph-name="uni01C7" unicode="&#x1c7;" horiz-adv-x="843" 
d="M81 8.5q-8 8.5 -6 24.5l51 648q1 13 10 21t22 8q14 0 22 -8.5t7 -23.5l-49 -624h311q12 0 19.5 -7.5t7.5 -19.5t-7.5 -19.5t-20.5 -7.5h-343q-16 0 -24 8.5zM510.5 2q-7.5 8 -6.5 21q3 23 26 24l34 2q54 3 85 37.5t36 97.5l40 495q1 14 10 22.5t23 8.5t21.5 -8.5
t6.5 -22.5l-39 -497q-7 -87 -52.5 -133.5t-127.5 -51.5l-35 -2q-14 -1 -21.5 7z" />
    <glyph glyph-name="uni01C8" unicode="&#x1c8;" horiz-adv-x="755" 
d="M81 8.5q-8 8.5 -6 24.5l51 648q1 13 10 21t22 8q14 0 22 -8.5t7 -23.5l-49 -624h341q12 0 19.5 -7.5t7.5 -19.5t-7.5 -19.5t-20.5 -7.5h-373q-16 0 -24 8.5zM418.5 -177q-7.5 7 -6.5 19q0 10 7 17t19 8l29 2q62 4 92 36t35 99l37 461q1 15 10 22.5t21 7.5q13 0 22 -7.5
t8 -22.5l-36 -454q-7 -95 -54.5 -141.5t-141.5 -51.5l-19 -1q-15 -1 -22.5 6zM644.5 620q-12.5 12 -12.5 31q0 20 12.5 32t32.5 12t32.5 -12t12.5 -32q0 -19 -12.5 -31t-32.5 -12t-32.5 12z" />
    <glyph glyph-name="uni01C9" unicode="&#x1c9;" horiz-adv-x="444" 
d="M69 2.5q-8 7.5 -6 23.5l52 657q1 14 10.5 21t22.5 7t21 -7t7 -21l-52 -657q-2 -16 -11 -23.5t-22 -7.5q-14 0 -22 7.5zM107.5 -177q-7.5 7 -6.5 19q0 10 7 17t19 8l29 2q62 4 92 36t35 99l37 461q1 15 10 22.5t21 7.5q13 0 22 -7.5t8 -22.5l-36 -454q-7 -95 -54.5 -141.5
t-141.5 -51.5l-19 -1q-15 -1 -22.5 6zM333.5 620q-12.5 12 -12.5 31q0 20 12.5 32t32.5 12t32.5 -12t12.5 -32q0 -19 -12.5 -31t-32.5 -12t-32.5 12z" />
    <glyph glyph-name="uni01CA" unicode="&#x1ca;" horiz-adv-x="1046" 
d="M671.5 701q8.5 -9 7.5 -22l-52 -654q-2 -30 -28 -30q-17 0 -30 17l-391 591l-47 -580q-1 -13 -9 -20.5t-20 -7.5t-20.5 9t-7.5 23l51 652q1 15 9.5 23t21.5 8q18 0 28 -17l391 -587l46 576q1 13 9 20.5t21 7.5q12 0 20.5 -9zM715.5 2q-7.5 8 -6.5 21q0 10 7 16.5t19 7.5
l32 2q55 4 86 38.5t36 96.5l39 495q1 14 10 22.5t23 8.5t22 -8.5t7 -22.5l-40 -497q-7 -87 -52.5 -133.5t-127.5 -51.5l-33 -2q-14 -1 -21.5 7z" />
    <glyph glyph-name="uni01CB" unicode="&#x1cb;" horiz-adv-x="957" 
d="M671.5 701q8.5 -9 7.5 -22l-52 -654q-2 -30 -28 -30q-17 0 -30 17l-391 591l-47 -580q-1 -13 -9 -20.5t-20 -7.5t-20.5 9t-7.5 23l51 652q1 15 9.5 23t21.5 8q18 0 28 -17l391 -587l46 576q1 13 9 20.5t21 7.5q12 0 20.5 -9zM620.5 -177q-7.5 7 -6.5 19q0 10 7 17t19 8
l29 2q62 4 92 36t35 99l37 461q1 15 10 22.5t21 7.5q13 0 22 -7.5t8 -22.5l-36 -454q-7 -95 -54.5 -141.5t-141.5 -51.5l-19 -1q-15 -1 -22.5 6zM846.5 620q-12.5 12 -12.5 31q0 20 12.5 32t32.5 12t32.5 -12t12.5 -32q0 -19 -12.5 -31t-32.5 -12t-32.5 12z" />
    <glyph glyph-name="uni01CC" unicode="&#x1cc;" horiz-adv-x="783" 
d="M445 456q43 -41 43 -122q0 -18 -1 -27l-21 -281q-1 -16 -10.5 -23.5t-22.5 -7.5t-21 7.5t-7 23.5l21 277q1 8 1 23q0 117 -116 117q-74 0 -117.5 -43t-49.5 -119l-20 -255q-2 -16 -11 -23.5t-22 -7.5q-14 0 -22 7.5t-6 23.5l35 441q1 14 10.5 21t22.5 7t20.5 -7t6.5 -21
l-5 -61q25 43 68.5 67t99.5 24q81 0 124 -41zM446.5 -177q-7.5 7 -6.5 19q0 10 7 17t19 8l29 2q62 4 92 36t35 99l37 461q1 15 10 22.5t21 7.5q13 0 22 -7.5t8 -22.5l-36 -454q-7 -95 -54.5 -141.5t-141.5 -51.5l-19 -1q-15 -1 -22.5 6zM672.5 620q-12.5 12 -12.5 31
q0 20 12.5 32t32.5 12t32.5 -12t12.5 -32q0 -19 -12.5 -31t-32.5 -12t-32.5 12z" />
    <glyph glyph-name="uni01CE" unicode="&#x1ce;" horiz-adv-x="526" 
d="M454 337q0 -16 -1 -25l-22 -289q-1 -13 -9 -20.5t-21 -7.5q-14 0 -22.5 9t-7.5 23l4 56q-22 -43 -62 -66.5t-92 -23.5q-73 0 -119 39t-46 100q0 55 29.5 87t94.5 46.5t175 14.5h35l3 34q1 8 1 22q0 56 -26.5 82t-81.5 26q-78 0 -164 -54q-7 -4 -13 -4q-10 0 -16.5 8
t-6.5 19q0 17 15 27q36 26 87 41.5t100 15.5q166 0 166 -160zM336 88.5q43 42.5 48 110.5l3 36h-29q-92 0 -143 -9t-73 -30.5t-22 -59.5q0 -41 30 -65.5t81 -24.5q62 0 105 42.5zM393 752q7 4 13 4q11 0 18.5 -7.5t7.5 -18.5q0 -9 -6 -18l-95 -145q-15 -22 -35 -22
q-21 0 -31 22l-72 146q-3 8 -3 14q0 12 9 21t20 9q15 0 22 -17l59 -140l82 140q4 8 11 12z" />
    <glyph glyph-name="Gcaron" unicode="&#x1e6;" horiz-adv-x="719" 
d="M265.5 617q-63.5 -41 -97 -118t-33.5 -183q0 -130 64 -200t190 -70q44 0 91.5 8.5t86.5 23.5l18 231h-158q-14 0 -22 7t-8 19t8 19t22 7h182q16 0 25 -10t8 -26l-19 -259q-3 -26 -24 -34q-43 -18 -101 -29t-109 -11q-154 0 -236 84.5t-82 235.5q0 121 42.5 211.5
t120.5 139.5t183 49q147 0 235 -85q13 -10 13 -28q0 -12 -7.5 -20.5t-17.5 -8.5q-9 0 -19 8q-46 42 -94.5 61t-109.5 19q-88 0 -151.5 -41zM535 922q11 0 19 -8t8 -18t-7 -17l-92 -104q-15 -17 -35 -17q-19 0 -31 17l-72 102q-7 10 -7 19q0 10 7.5 17t18.5 7q17 0 26 -16
l61 -97l82 103q9 12 22 12z" />
    <glyph glyph-name="gcaron" unicode="&#x1e7;" horiz-adv-x="577" 
d="M508 487.5q8 -7.5 7 -23.5l-35 -436q-17 -215 -220 -215q-59 0 -108.5 15t-85.5 42q-15 11 -15 27q0 11 7.5 19t17.5 8q8 0 13 -4q42 -28 81 -40.5t90 -12.5q148 0 160 158l7 82q-23 -44 -67.5 -68t-98.5 -24q-96 0 -153.5 61t-57.5 163q0 77 28 135.5t80 90.5t120 32
q61 0 105 -26t65 -73l6 66q1 16 10 23.5t22 7.5q14 0 22 -7.5zM393.5 123.5q44.5 54.5 44.5 150.5q0 81 -41.5 125.5t-115.5 44.5q-79 0 -123 -55t-44 -152q0 -82 40.5 -125t116.5 -43q78 0 122.5 54.5zM411 752q7 4 13 4q11 0 18.5 -7.5t7.5 -18.5q0 -9 -6 -18l-95 -145
q-15 -22 -35 -22q-21 0 -31 22l-72 146q-3 8 -3 14q0 12 9 21t20 9q15 0 22 -17l59 -140l82 140q4 8 11 12z" />
    <glyph glyph-name="uni01EA" unicode="&#x1ea;" horiz-adv-x="757" 
d="M369 -85q0 -30 16 -45.5t45 -15.5q23 0 49 13q8 3 13 3q8 0 12 -5t4 -13q0 -7 -4 -14.5t-12 -11.5q-33 -17 -69 -17q-50 0 -79.5 27t-29.5 71q0 55 39 86q-86 4 -149.5 44.5t-97.5 113.5t-34 171q0 118 40 206.5t113 136.5t170 48q95 0 164.5 -39.5t106 -114t36.5 -176.5
q0 -161 -68 -259t-181 -124q-84 -19 -84 -85zM199 118.5q63 -70.5 180 -70.5q80 0 138.5 40t89.5 115.5t31 179.5q0 133 -63 203.5t-180 70.5q-80 0 -138.5 -40t-89.5 -116t-31 -180q0 -132 63 -202.5z" />
    <glyph glyph-name="uni01EB" unicode="&#x1eb;" horiz-adv-x="545" 
d="M264 -32q-22 -20 -22 -53q0 -30 16 -45.5t45 -15.5q23 0 49 13q8 3 13 3q8 0 12 -5t4 -13q0 -7 -4 -14.5t-12 -11.5q-33 -17 -69 -17q-50 0 -79.5 26.5t-29.5 69.5q0 58 42 90q-82 11 -131 73t-49 159q0 81 28.5 142t81 94.5t120.5 33.5q66 0 115.5 -29t76 -82t26.5 -124
q0 -107 -45.5 -172t-115.5 -86q-50 -16 -72 -36zM153 92.5q40 -45.5 116 -45.5q77 0 121 58.5t44 159.5q0 85 -41 132t-114 47q-78 0 -122 -58.5t-44 -161.5q0 -86 40 -131.5z" />
    <glyph glyph-name="Aringacute" unicode="&#x1fa;" horiz-adv-x="720" 
d="M668 24q0 -13 -9 -21.5t-21 -8.5q-9 0 -16.5 6t-11.5 17l-61 171h-383l-89 -175q-8 -18 -27 -18q-12 0 -20.5 8t-8.5 20q0 8 4 16l332 645q-25 11 -40.5 34.5t-15.5 52.5q0 41 28.5 69t69.5 28q35 0 62 -21l113 87q13 10 27 10q13 0 22.5 -9.5t9.5 -23.5
q0 -10 -6.5 -19.5t-19.5 -15.5l-121 -58q12 -21 12 -47q0 -31 -18 -55.5t-47 -34.5l233 -645q2 -4 2 -12zM364 808q-14 -15 -14 -37q0 -21 14 -36t35 -15t35.5 15t14.5 36q0 22 -14 37t-36 15q-21 0 -35 -15zM193 242h337l-139 388z" />
    <glyph glyph-name="aringacute" unicode="&#x1fb;" horiz-adv-x="526" 
d="M482 854q14 0 25 -10.5t11 -24.5q0 -19 -18 -31l-112 -84q16 -24 16 -53q0 -40 -29 -68t-70 -28t-69.5 28t-28.5 68q0 41 28.5 69t69.5 28q31 0 56 -17l92 108q12 15 29 15zM340.5 615q14.5 15 14.5 36q0 22 -14 37t-36 15q-21 0 -35 -15t-14 -37q0 -21 14 -36t35 -15
t35.5 15zM454 337q0 -16 -1 -25l-22 -289q-1 -14 -9.5 -21t-20.5 -7q-13 0 -22 8t-8 24l4 57q-24 -45 -64 -68t-90 -23q-73 0 -119 39t-46 100q0 54 29 86.5t94 47t176 14.5h35l3 34q1 8 1 22q0 56 -26 82t-82 26q-78 0 -164 -54q-7 -4 -14 -4q-9 0 -15.5 8t-6.5 19
q0 17 15 27q36 26 87 41.5t100 15.5q166 0 166 -160zM336 88.5q43 42.5 48 110.5l3 36h-29q-98 0 -149 -10t-70 -31t-19 -58q0 -41 30 -65.5t81 -24.5q62 0 105 42.5z" />
    <glyph glyph-name="AEacute" unicode="&#x1fc;" horiz-adv-x="989" 
d="M968.5 697.5q7.5 -7.5 7.5 -19.5t-7.5 -19.5t-20.5 -7.5h-421l36 -266h341q12 0 19.5 -7.5t7.5 -19.5t-7.5 -19.5t-20.5 -7.5h-333l37 -277h290q13 0 20.5 -7.5t7.5 -19.5t-8 -19.5t-21 -7.5h-310q-14 0 -23 7t-10 20l-21 161h-349l-119 -177q-11 -17 -28 -17
q-11 0 -19.5 7.5t-8.5 19.5q0 10 7 20l438 644q14 20 38 20h457q13 0 20.5 -7.5zM219 242h306l-50 381zM545 760q-7 0 -11.5 4.5t-4.5 11.5q0 6 5 14l82 114q15 19 31 19q11 0 19 -7.5t8 -18.5q0 -14 -13 -27l-97 -101q-9 -9 -19 -9z" />
    <glyph glyph-name="aeacute" unicode="&#x1fd;" horiz-adv-x="857" 
d="M451 235v-10q0 -84 42 -131t122 -47q36 0 73 12.5t66 34.5q10 7 19 7q10 0 16.5 -7t6.5 -18q0 -14 -12 -25q-27 -25 -76 -41.5t-94 -16.5q-77 0 -128.5 35t-72.5 98q-23 -62 -74 -97.5t-118 -35.5q-73 0 -119 39t-46 100q0 54 29 86.5t94 47t176 14.5h38l3 34q1 9 1 24
q0 55 -26.5 80.5t-82.5 25.5q-82 0 -166 -54q-7 -4 -14 -4q-10 0 -16 7.5t-6 18.5q0 18 15 28q36 26 87.5 41.5t101.5 15.5q124 0 156 -89q30 43 75 66t102 23q93 0 142.5 -56.5t49.5 -167.5q0 -19 -9.5 -28.5t-24.5 -9.5h-330zM510 403.5q-44 -43.5 -55 -123.5h304
q3 82 -33 124.5t-100 42.5q-72 0 -116 -43.5zM337.5 91q44.5 45 50.5 117l2 27h-32q-98 0 -149 -10t-70 -31t-19 -58q0 -41 29.5 -65.5t78.5 -24.5q65 0 109.5 45zM451 545q-7 0 -12 5t-5 13t5 14l138 165q12 15 28 15q13 0 23 -9t10 -22t-13 -25l-159 -149q-7 -7 -15 -7z
" />
    <glyph glyph-name="Oslashacute" unicode="&#x1fe;" horiz-adv-x="757" 
d="M678 529.5q24 -64.5 24 -146.5q0 -118 -39.5 -206.5t-113 -136.5t-171.5 -48t-170 43l-37 -56q-10 -14 -24 -14q-10 0 -17.5 7t-7.5 18q0 9 6 18l39 59q-46 42 -70.5 107t-24.5 148q0 118 40 206.5t113 136.5t170 48q101 0 172 -44l38 57q10 14 24 14q11 0 18.5 -7
t7.5 -18q0 -9 -6 -18l-40 -60q45 -43 69 -107.5zM200 117l335 504q-55 36 -140 36q-80 0 -138.5 -40t-89.5 -116t-31 -180q0 -134 64 -204zM517.5 88q58.5 40 89.5 115.5t31 179.5q0 132 -63 203l-334 -503q56 -35 138 -35q80 0 138.5 40zM426 760q-7 0 -11.5 4.5t-4.5 11.5
q0 6 5 14l82 114q15 19 31 19q11 0 19 -7.5t8 -18.5q0 -14 -13 -27l-97 -101q-9 -9 -19 -9z" />
    <glyph glyph-name="oslashacute" unicode="&#x1ff;" horiz-adv-x="545" 
d="M479.5 364.5q17.5 -45.5 17.5 -102.5q0 -80 -28.5 -141t-81 -94.5t-121.5 -33.5q-63 0 -113 28l-27 -41q-8 -14 -22 -14q-9 0 -15.5 6t-6.5 16q0 9 6 18l28 43q-32 30 -49.5 75.5t-17.5 102.5q0 81 28.5 142t81 94.5t120.5 33.5q64 0 114 -28l27 41q10 14 23 14
q9 0 15 -6t6 -16q0 -9 -6 -18l-28 -43q32 -31 49.5 -76.5zM148 98l215 325q-34 21 -84 21q-78 0 -122.5 -59t-44.5 -161q0 -82 36 -126zM390 105.5q44 58.5 44 159.5q0 81 -37 127l-214 -325q37 -20 86 -20q77 0 121 58.5zM302 545q-7 0 -12 5t-5 13t5 14l138 165
q12 15 28 15q13 0 23 -9t10 -22t-13 -25l-159 -149q-7 -7 -15 -7z" />
    <glyph glyph-name="uni0200" unicode="&#x200;" horiz-adv-x="720" 
d="M668 24q0 -13 -9 -21.5t-21 -8.5q-9 0 -16.5 6t-11.5 17l-61 171h-383l-89 -175q-8 -18 -27 -18q-12 0 -20.5 8t-8.5 20q0 8 4 16l334 647q12 24 37 24q12 0 22 -7t15 -21l233 -646q2 -4 2 -12zM193 242h337l-139 388zM260 877q-4 7 -4 15q0 12 9 20.5t20 8.5
q18 0 26 -23l44 -115q1 -2 1 -6q0 -7 -5 -12t-11 -5q-8 0 -14 9zM375 877q-5 8 -5 16q0 12 8.5 20t20.5 8q19 0 27 -23l43 -115q1 -3 1 -7q0 -7 -4.5 -11.5t-10.5 -4.5q-8 0 -14 9z" />
    <glyph glyph-name="uni0201" unicode="&#x201;" horiz-adv-x="526" 
d="M454 337q0 -16 -1 -25l-22 -289q-1 -13 -9 -20.5t-21 -7.5q-14 0 -22.5 9t-7.5 23l4 56q-22 -43 -62 -66.5t-92 -23.5q-73 0 -119 39t-46 100q0 55 29.5 87t94.5 46.5t175 14.5h35l3 34q1 8 1 22q0 56 -26.5 82t-81.5 26q-78 0 -164 -54q-7 -4 -13 -4q-10 0 -16.5 8
t-6.5 19q0 17 15 27q36 26 87 41.5t100 15.5q166 0 166 -160zM336 88.5q43 42.5 48 110.5l3 36h-29q-92 0 -143 -9t-73 -30.5t-22 -59.5q0 -41 30 -65.5t81 -24.5q62 0 105 42.5zM168 716q-2 5 -2 13q0 12 9 19.5t20 7.5t19.5 -6.5t10.5 -20.5l27 -164v-3q0 -7 -5.5 -11.5
t-11.5 -4.5q-11 0 -14 10zM284 715l-2 12q0 14 9 22t21 8q10 0 18.5 -7t10.5 -21l27 -164v-3q0 -7 -5.5 -11.5t-11.5 -4.5q-11 0 -14 10z" />
    <glyph glyph-name="uni0202" unicode="&#x202;" horiz-adv-x="720" 
d="M668 24q0 -13 -9 -21.5t-21 -8.5q-9 0 -16.5 6t-11.5 17l-61 171h-383l-89 -175q-8 -18 -27 -18q-12 0 -20.5 8t-8.5 20q0 8 4 16l334 647q12 24 37 24q12 0 22 -7t15 -21l233 -646q2 -4 2 -12zM193 242h337l-139 388zM499.5 882q37.5 -22 55.5 -66q3 -7 3 -14
q0 -10 -7 -17t-17 -7q-16 0 -26 17q-17 31 -41 45.5t-57 14.5q-34 0 -59.5 -14.5t-48.5 -45.5q-11 -17 -29 -17q-10 0 -16.5 5.5t-6.5 15.5t5 17q25 43 66 65.5t91 22.5t87.5 -22z" />
    <glyph glyph-name="uni0203" unicode="&#x203;" horiz-adv-x="526" 
d="M454 337q0 -16 -1 -25l-22 -289q-1 -13 -9 -20.5t-21 -7.5q-14 0 -22.5 9t-7.5 23l4 56q-22 -43 -62 -66.5t-92 -23.5q-73 0 -119 39t-46 100q0 55 29.5 87t94.5 46.5t175 14.5h35l3 34q1 8 1 22q0 56 -26.5 82t-81.5 26q-78 0 -164 -54q-7 -4 -13 -4q-10 0 -16.5 8
t-6.5 19q0 17 15 27q36 26 87 41.5t100 15.5q166 0 166 -160zM336 88.5q43 42.5 48 110.5l3 36h-29q-92 0 -143 -9t-73 -30.5t-22 -59.5q0 -41 30 -65.5t81 -24.5q62 0 105 42.5zM396 696q37 -25 55 -73q3 -7 3 -13q0 -12 -8 -19.5t-18 -7.5q-17 0 -26 20q-27 69 -97 69
t-107 -69q-11 -20 -28 -20q-9 0 -15.5 6.5t-6.5 16.5q0 9 4 17q24 48 65 73t92 25q50 0 87 -25z" />
    <glyph glyph-name="uni0204" unicode="&#x204;" horiz-adv-x="579" 
d="M558.5 697.5q7.5 -7.5 7.5 -18.5q0 -12 -7.5 -19.5t-20.5 -7.5h-353l-21 -267h330q12 0 19.5 -7.5t7.5 -19.5t-7.5 -19.5t-20.5 -7.5h-333l-22 -278h350q12 0 19.5 -7.5t7.5 -18.5q0 -12 -7.5 -19.5t-20.5 -7.5h-382q-16 0 -23.5 8.5t-6.5 24.5l50 642q2 30 33 30h381
q12 0 19.5 -7.5zM222 877q-4 7 -4 15q0 12 9 20.5t20 8.5q18 0 26 -23l44 -115q1 -2 1 -6q0 -7 -5 -12t-11 -5q-8 0 -14 9zM337 877q-5 8 -5 16q0 12 8.5 20t20.5 8q19 0 27 -23l43 -115q1 -3 1 -7q0 -7 -4.5 -11.5t-10.5 -4.5q-8 0 -14 9z" />
    <glyph glyph-name="uni0205" unicode="&#x205;" horiz-adv-x="526" 
d="M112 235v-10q0 -84 42 -131t121 -47q41 0 79.5 12.5t67.5 34.5q10 7 19 7q10 0 16.5 -7t6.5 -18q0 -14 -12 -25q-27 -25 -77.5 -41.5t-101.5 -16.5q-104 0 -164 63.5t-60 170.5q0 80 29 141t83 95t126 34q96 0 146 -56.5t50 -167.5q0 -19 -9.5 -28.5t-24.5 -9.5h-337z
M171.5 403.5q-44.5 -43.5 -55.5 -123.5h311q3 82 -34 124.5t-103 42.5q-74 0 -118.5 -43.5zM172 716q-2 5 -2 13q0 12 9 19.5t20 7.5t19.5 -6.5t10.5 -20.5l27 -164v-3q0 -7 -5.5 -11.5t-11.5 -4.5q-11 0 -14 10zM288 715l-2 12q0 14 9 22t21 8q10 0 18.5 -7t10.5 -21
l27 -164v-3q0 -7 -5.5 -11.5t-11.5 -4.5q-11 0 -14 10z" />
    <glyph glyph-name="uni0206" unicode="&#x206;" horiz-adv-x="579" 
d="M558.5 697.5q7.5 -7.5 7.5 -18.5q0 -12 -7.5 -19.5t-20.5 -7.5h-353l-21 -267h330q12 0 19.5 -7.5t7.5 -19.5t-7.5 -19.5t-20.5 -7.5h-333l-22 -278h350q12 0 19.5 -7.5t7.5 -18.5q0 -12 -7.5 -19.5t-20.5 -7.5h-382q-16 0 -23.5 8.5t-6.5 24.5l50 642q2 30 33 30h381
q12 0 19.5 -7.5zM461.5 882q37.5 -22 55.5 -66q3 -7 3 -14q0 -10 -7 -17t-17 -7q-16 0 -26 17q-17 31 -41 45.5t-57 14.5q-34 0 -59.5 -14.5t-48.5 -45.5q-11 -17 -29 -17q-10 0 -16.5 5.5t-6.5 15.5t5 17q25 43 66 65.5t91 22.5t87.5 -22z" />
    <glyph glyph-name="uni0207" unicode="&#x207;" horiz-adv-x="526" 
d="M112 235v-10q0 -84 42 -131t121 -47q41 0 79.5 12.5t67.5 34.5q10 7 19 7q10 0 16.5 -7t6.5 -18q0 -14 -12 -25q-27 -25 -77.5 -41.5t-101.5 -16.5q-104 0 -164 63.5t-60 170.5q0 80 29 141t83 95t126 34q96 0 146 -56.5t50 -167.5q0 -19 -9.5 -28.5t-24.5 -9.5h-337z
M171.5 403.5q-44.5 -43.5 -55.5 -123.5h311q3 82 -34 124.5t-103 42.5q-74 0 -118.5 -43.5zM400 696q37 -25 55 -73q3 -7 3 -13q0 -12 -8 -19.5t-18 -7.5q-17 0 -26 20q-27 69 -97 69t-107 -69q-11 -20 -28 -20q-9 0 -15.5 6.5t-6.5 16.5q0 9 4 17q24 48 65 73t92 25
q50 0 87 -25z" />
    <glyph glyph-name="uni0208" unicode="&#x208;" horiz-adv-x="244" 
d="M83 4q-9 9 -8 23l51 654q1 13 10 21t21 8q14 0 22.5 -8.5t7.5 -23.5l-51 -654q-1 -14 -9.5 -21.5t-21.5 -7.5t-22 9zM22 877q-4 7 -4 15q0 12 9 20.5t20 8.5q18 0 26 -23l44 -115q1 -2 1 -6q0 -7 -5 -12t-11 -5q-8 0 -14 9zM137 877q-5 8 -5 16q0 12 8.5 20t20.5 8
q19 0 27 -23l43 -115q1 -3 1 -7q0 -7 -4.5 -11.5t-10.5 -4.5q-8 0 -14 9z" />
    <glyph glyph-name="uni0209" unicode="&#x209;" horiz-adv-x="222" 
d="M69 2.5q-8 7.5 -6 23.5l35 441q1 14 10.5 21t22.5 7t21 -7t7 -21l-35 -441q-2 -16 -11 -23.5t-22 -7.5q-14 0 -22 7.5zM7 716q-2 5 -2 13q0 12 9 19.5t20 7.5t19.5 -6.5t10.5 -20.5l27 -164v-3q0 -7 -5.5 -11.5t-11.5 -4.5q-11 0 -14 10zM123 715l-2 12q0 14 9 22t21 8
q10 0 18.5 -7t10.5 -21l27 -164v-3q0 -7 -5.5 -11.5t-11.5 -4.5q-11 0 -14 10z" />
    <glyph glyph-name="uni020A" unicode="&#x20a;" horiz-adv-x="244" 
d="M83 4q-9 9 -8 23l51 654q1 13 10 21t21 8q14 0 22.5 -8.5t7.5 -23.5l-51 -654q-1 -14 -9.5 -21.5t-21.5 -7.5t-22 9zM261.5 882q37.5 -22 55.5 -66q3 -7 3 -14q0 -10 -7 -17t-17 -7q-16 0 -26 17q-17 31 -41 45.5t-57 14.5q-34 0 -59.5 -14.5t-48.5 -45.5
q-11 -17 -29 -17q-10 0 -16.5 5.5t-6.5 15.5t5 17q25 43 66 65.5t91 22.5t87.5 -22z" />
    <glyph glyph-name="uni020B" unicode="&#x20b;" horiz-adv-x="222" 
d="M69 2.5q-8 7.5 -6 23.5l35 441q1 14 10.5 21t22.5 7t21 -7t7 -21l-35 -441q-2 -16 -11 -23.5t-22 -7.5q-14 0 -22 7.5zM235 696q37 -25 55 -73q3 -7 3 -13q0 -12 -8 -19.5t-18 -7.5q-17 0 -26 20q-27 69 -97 69t-107 -69q-11 -20 -28 -20q-9 0 -15.5 6.5t-6.5 16.5
q0 9 4 17q24 48 65 73t92 25q50 0 87 -25z" />
    <glyph glyph-name="uni020C" unicode="&#x20c;" horiz-adv-x="757" 
d="M215 31.5q-69 39.5 -106 114t-37 176.5q0 118 40 206.5t113 136.5t170 48q95 0 164 -39.5t106 -114t37 -176.5q0 -118 -39.5 -206.5t-113 -136.5t-171.5 -48q-94 0 -163 39.5zM517.5 88q58.5 40 89.5 115.5t31 179.5q0 133 -63 203.5t-180 70.5q-80 0 -138.5 -40
t-89.5 -116t-31 -180q0 -132 63 -202.5t180 -70.5q80 0 138.5 40zM278 877q-4 7 -4 15q0 12 9 20.5t20 8.5q18 0 26 -23l44 -115q1 -2 1 -6q0 -7 -5 -12t-11 -5q-8 0 -14 9zM393 877q-5 8 -5 16q0 12 8.5 20t20.5 8q19 0 27 -23l43 -115q1 -3 1 -7q0 -7 -4.5 -11.5
t-10.5 -4.5q-8 0 -14 9z" />
    <glyph glyph-name="uni020D" unicode="&#x20d;" horiz-adv-x="545" 
d="M151.5 22q-49.5 29 -76 82t-26.5 123q0 81 28.5 142t81 94.5t120.5 33.5q66 0 115.5 -29t76 -82t26.5 -124q0 -80 -28.5 -141t-81 -94.5t-121.5 -33.5q-65 0 -114.5 29zM390 105.5q44 58.5 44 159.5q0 85 -41 132t-114 47q-78 0 -122 -58.5t-44 -161.5q0 -86 40 -131.5
t116 -45.5q77 0 121 58.5zM169 716q-2 5 -2 13q0 12 9 19.5t20 7.5t19.5 -6.5t10.5 -20.5l27 -164v-3q0 -7 -5.5 -11.5t-11.5 -4.5q-11 0 -14 10zM285 715l-2 12q0 14 9 22t21 8q10 0 18.5 -7t10.5 -21l27 -164v-3q0 -7 -5.5 -11.5t-11.5 -4.5q-11 0 -14 10z" />
    <glyph glyph-name="uni020E" unicode="&#x20e;" horiz-adv-x="757" 
d="M215 31.5q-69 39.5 -106 114t-37 176.5q0 118 40 206.5t113 136.5t170 48q95 0 164 -39.5t106 -114t37 -176.5q0 -118 -39.5 -206.5t-113 -136.5t-171.5 -48q-94 0 -163 39.5zM517.5 88q58.5 40 89.5 115.5t31 179.5q0 133 -63 203.5t-180 70.5q-80 0 -138.5 -40
t-89.5 -116t-31 -180q0 -132 63 -202.5t180 -70.5q80 0 138.5 40zM517.5 882q37.5 -22 55.5 -66q3 -7 3 -14q0 -10 -7 -17t-17 -7q-16 0 -26 17q-17 31 -41 45.5t-57 14.5q-34 0 -59.5 -14.5t-48.5 -45.5q-11 -17 -29 -17q-10 0 -16.5 5.5t-6.5 15.5t5 17q25 43 66 65.5
t91 22.5t87.5 -22z" />
    <glyph glyph-name="uni020F" unicode="&#x20f;" horiz-adv-x="545" 
d="M151.5 22q-49.5 29 -76 82t-26.5 123q0 81 28.5 142t81 94.5t120.5 33.5q66 0 115.5 -29t76 -82t26.5 -124q0 -80 -28.5 -141t-81 -94.5t-121.5 -33.5q-65 0 -114.5 29zM390 105.5q44 58.5 44 159.5q0 85 -41 132t-114 47q-78 0 -122 -58.5t-44 -161.5q0 -86 40 -131.5
t116 -45.5q77 0 121 58.5zM397 696q37 -25 55 -73q3 -7 3 -13q0 -12 -8 -19.5t-18 -7.5q-17 0 -26 20q-27 69 -97 69t-107 -69q-11 -20 -28 -20q-9 0 -15.5 6.5t-6.5 16.5q0 9 4 17q24 48 65 73t92 25q50 0 87 -25z" />
    <glyph glyph-name="uni0210" unicode="&#x210;" horiz-adv-x="682" 
d="M603 36q4 -7 4 -15q0 -11 -9 -18.5t-21 -7.5q-19 0 -29 19l-115 212q-24 46 -53.5 63t-83.5 17h-138l-22 -282q-1 -14 -9.5 -21.5t-22.5 -7.5t-22.5 8.5t-6.5 24.5l50 646q1 14 10.5 22.5t23.5 8.5h245q107 0 164.5 -47t57.5 -137q0 -92 -52 -145.5t-153 -61.5
q22 -9 38.5 -27.5t34.5 -50.5zM380 359q93 0 139 38.5t46 119.5q0 69 -40.5 102t-121.5 33h-218l-23 -293h218zM237 877q-4 7 -4 15q0 12 9 20.5t20 8.5q18 0 26 -23l44 -115q1 -2 1 -6q0 -7 -5 -12t-11 -5q-8 0 -14 9zM352 877q-5 8 -5 16q0 12 8.5 20t20.5 8q19 0 27 -23
l43 -115q1 -3 1 -7q0 -7 -4.5 -11.5t-10.5 -4.5q-8 0 -14 9z" />
    <glyph glyph-name="uni0211" unicode="&#x211;" horiz-adv-x="339" 
d="M352 490q8 -7 8 -19q-1 -11 -7.5 -19t-19.5 -9l-27 -3q-76 -7 -116 -46t-46 -110l-20 -258q-2 -16 -11 -23.5t-22 -7.5q-14 0 -22 7.5t-6 23.5l35 441q1 14 10.5 21t22.5 7t20.5 -7t6.5 -21l-5 -62q25 42 65.5 63.5t100.5 26.5l11 1q14 1 22 -6zM105 716q-2 5 -2 13
q0 12 9 19.5t20 7.5t19.5 -6.5t10.5 -20.5l27 -164v-3q0 -7 -5.5 -11.5t-11.5 -4.5q-11 0 -14 10zM221 715l-2 12q0 14 9 22t21 8q10 0 18.5 -7t10.5 -21l27 -164v-3q0 -7 -5.5 -11.5t-11.5 -4.5q-11 0 -14 10z" />
    <glyph glyph-name="uni0212" unicode="&#x212;" horiz-adv-x="682" 
d="M603 36q4 -7 4 -15q0 -11 -9 -18.5t-21 -7.5q-19 0 -29 19l-115 212q-24 46 -53.5 63t-83.5 17h-138l-22 -282q-1 -14 -9.5 -21.5t-22.5 -7.5t-22.5 8.5t-6.5 24.5l50 646q1 14 10.5 22.5t23.5 8.5h245q107 0 164.5 -47t57.5 -137q0 -92 -52 -145.5t-153 -61.5
q22 -9 38.5 -27.5t34.5 -50.5zM380 359q93 0 139 38.5t46 119.5q0 69 -40.5 102t-121.5 33h-218l-23 -293h218zM476.5 882q37.5 -22 55.5 -66q3 -7 3 -14q0 -10 -7 -17t-17 -7q-16 0 -26 17q-17 31 -41 45.5t-57 14.5q-34 0 -59.5 -14.5t-48.5 -45.5q-11 -17 -29 -17
q-10 0 -16.5 5.5t-6.5 15.5t5 17q25 43 66 65.5t91 22.5t87.5 -22z" />
    <glyph glyph-name="uni0213" unicode="&#x213;" horiz-adv-x="339" 
d="M352 490q8 -7 8 -19q-1 -11 -7.5 -19t-19.5 -9l-27 -3q-76 -7 -116 -46t-46 -110l-20 -258q-2 -16 -11 -23.5t-22 -7.5q-14 0 -22 7.5t-6 23.5l35 441q1 14 10.5 21t22.5 7t20.5 -7t6.5 -21l-5 -62q25 42 65.5 63.5t100.5 26.5l11 1q14 1 22 -6zM333 696q37 -25 55 -73
q3 -7 3 -13q0 -12 -8 -19.5t-18 -7.5q-17 0 -26 20q-27 69 -97 69t-107 -69q-11 -20 -28 -20q-9 0 -15.5 6.5t-6.5 16.5q0 9 4 17q24 48 65 73t92 25q50 0 87 -25z" />
    <glyph glyph-name="uni0214" unicode="&#x214;" horiz-adv-x="720" 
d="M152.5 54.5q-65.5 62.5 -65.5 179.5q0 12 2 38l32 409q1 13 10 21t21 8q13 0 22 -9t8 -23l-32 -403q-1 -12 -1 -34q0 -194 196 -194q107 0 163.5 53.5t65.5 163.5l33 417q1 13 9.5 21t21.5 8t22 -8.5t8 -23.5l-33 -407q-11 -140 -84 -209.5t-206 -69.5
q-127 0 -192.5 62.5zM260 877q-4 7 -4 15q0 12 9 20.5t20 8.5q18 0 26 -23l44 -115q1 -2 1 -6q0 -7 -5 -12t-11 -5q-8 0 -14 9zM375 877q-5 8 -5 16q0 12 8.5 20t20.5 8q19 0 27 -23l43 -115q1 -3 1 -7q0 -7 -4.5 -11.5t-10.5 -4.5q-8 0 -14 9z" />
    <glyph glyph-name="uni0215" unicode="&#x215;" horiz-adv-x="553" 
d="M483 487.5q8 -7.5 7 -23.5l-35 -441q-1 -14 -10.5 -21t-22.5 -7t-20.5 7t-6.5 21l5 62q-25 -44 -67.5 -68t-95.5 -24q-80 0 -122.5 41.5t-42.5 122.5q0 17 1 26l22 281q1 16 10.5 23.5t22.5 7.5t21 -7.5t7 -23.5l-22 -276q-1 -8 -1 -24q0 -117 113 -117q71 0 114 43
t49 120l20 254q1 16 10.5 23.5t22.5 7.5t21 -7.5zM172 716q-2 5 -2 13q0 12 9 19.5t20 7.5t19.5 -6.5t10.5 -20.5l27 -164v-3q0 -7 -5.5 -11.5t-11.5 -4.5q-11 0 -14 10zM288 715l-2 12q0 14 9 22t21 8q10 0 18.5 -7t10.5 -21l27 -164v-3q0 -7 -5.5 -11.5t-11.5 -4.5
q-11 0 -14 10z" />
    <glyph glyph-name="uni0216" unicode="&#x216;" horiz-adv-x="720" 
d="M152.5 54.5q-65.5 62.5 -65.5 179.5q0 12 2 38l32 409q1 13 10 21t21 8q13 0 22 -9t8 -23l-32 -403q-1 -12 -1 -34q0 -194 196 -194q107 0 163.5 53.5t65.5 163.5l33 417q1 13 9.5 21t21.5 8t22 -8.5t8 -23.5l-33 -407q-11 -140 -84 -209.5t-206 -69.5
q-127 0 -192.5 62.5zM499.5 882q37.5 -22 55.5 -66q3 -7 3 -14q0 -10 -7 -17t-17 -7q-16 0 -26 17q-17 31 -41 45.5t-57 14.5q-34 0 -59.5 -14.5t-48.5 -45.5q-11 -17 -29 -17q-10 0 -16.5 5.5t-6.5 15.5t5 17q25 43 66 65.5t91 22.5t87.5 -22z" />
    <glyph glyph-name="uni0217" unicode="&#x217;" horiz-adv-x="553" 
d="M483 487.5q8 -7.5 7 -23.5l-35 -441q-1 -14 -10.5 -21t-22.5 -7t-20.5 7t-6.5 21l5 62q-25 -44 -67.5 -68t-95.5 -24q-80 0 -122.5 41.5t-42.5 122.5q0 17 1 26l22 281q1 16 10.5 23.5t22.5 7.5t21 -7.5t7 -23.5l-22 -276q-1 -8 -1 -24q0 -117 113 -117q71 0 114 43
t49 120l20 254q1 16 10.5 23.5t22.5 7.5t21 -7.5zM400 696q37 -25 55 -73q3 -7 3 -13q0 -12 -8 -19.5t-18 -7.5q-17 0 -26 20q-27 69 -97 69t-107 -69q-11 -20 -28 -20q-9 0 -15.5 6.5t-6.5 16.5q0 9 4 17q24 48 65 73t92 25q50 0 87 -25z" />
    <glyph glyph-name="Scommaaccent" unicode="&#x218;" horiz-adv-x="607" 
d="M50 74q-16 13 -16 31q0 12 7 20t17 8t16 -6q50 -42 104.5 -61.5t123.5 -19.5q93 0 142 36t49 100q0 38 -23.5 63t-59.5 39t-96 31q-75 21 -121 40.5t-78 58.5t-32 103q0 59 31 103.5t88.5 68.5t134.5 24q72 0 135 -23t107 -65q10 -10 10 -24q0 -11 -7.5 -19.5t-18.5 -8.5
q-13 0 -24 10q-40 36 -91.5 56t-110.5 20q-93 0 -142 -37t-49 -103q0 -43 25.5 -71t63.5 -43t101 -33q73 -21 116.5 -39.5t73.5 -54t30 -93.5q0 -89 -68.5 -141t-185.5 -52q-159 0 -252 82zM316 -82q12 -13 12 -39q0 -32 -12.5 -63t-39.5 -58q-11 -11 -22 -11q-8 0 -13 5
t-5 12t8 17q28 31 36 66q-19 0 -30.5 10.5t-11.5 28.5q0 19 12.5 32t32.5 13q21 0 33 -13z" />
    <glyph glyph-name="scommaaccent" unicode="&#x219;" horiz-adv-x="478" 
d="M124 8.5q-47 15.5 -75 39.5q-13 12 -13 27q0 12 6.5 19.5t16.5 7.5q8 0 17 -6q35 -25 70.5 -37.5t78.5 -12.5q129 0 129 81q0 26 -16 42.5t-40 26t-65 21.5q-51 15 -82 28.5t-53 40t-22 69.5q0 66 51 104t136 38q49 0 92.5 -16t68.5 -42q10 -10 10 -22q0 -11 -7 -19
t-18 -8q-10 0 -22 9q-24 20 -56.5 32.5t-67.5 12.5q-60 0 -92 -22t-32 -64q0 -26 16 -42t38.5 -25.5t65.5 -22.5q50 -14 81.5 -27.5t53.5 -40.5t22 -70q0 -63 -52.5 -100t-140.5 -37q-52 0 -99 15.5zM245 -82q12 -13 12 -39q0 -32 -12.5 -63t-39.5 -58q-11 -11 -22 -11
q-8 0 -13 5t-5 12t8 17q28 31 36 66q-19 0 -30.5 10.5t-11.5 28.5q0 19 12.5 32t32.5 13q21 0 33 -13z" />
    <glyph glyph-name="uni021A" unicode="&#x21a;" horiz-adv-x="590" 
d="M256 4q-9 9 -8 23l49 624h-229q-12 0 -19.5 7.5t-7.5 19.5t7.5 19.5t20.5 7.5h523q12 0 19.5 -7.5t7.5 -19.5t-7.5 -19.5t-20.5 -7.5h-232l-50 -627q-1 -13 -9.5 -21t-21.5 -8t-22 9zM303 -82q12 -13 12 -39q0 -32 -12.5 -63t-39.5 -58q-11 -11 -22 -11q-8 0 -13 5t-5 12
t8 17q28 31 36 66q-19 0 -30.5 10.5t-11.5 28.5q0 19 12.5 32t32.5 13q21 0 33 -13z" />
    <glyph glyph-name="uni021B" unicode="&#x21b;" horiz-adv-x="327" 
d="M159 171q-1 -7 -1 -20q0 -51 24 -78.5t67 -27.5q14 0 25.5 1.5t16.5 1.5q9 0 14.5 -6.5t5.5 -18.5q0 -16 -15.5 -22.5t-55.5 -6.5q-66 0 -104.5 39.5t-38.5 110.5q0 14 1 22l21 270h-74q-11 0 -18 6.5t-7 18.5q0 11 7 17.5t18 6.5h77l10 125q2 12 10.5 20t21.5 8
q14 0 22 -8.5t7 -21.5l-10 -123h122q11 0 18 -6.5t7 -17.5q0 -12 -7 -18.5t-19 -6.5h-124zM219 -82q12 -13 12 -39q0 -32 -12.5 -63t-39.5 -58q-11 -11 -22 -11q-8 0 -13 5t-5 12t8 17q28 31 36 66q-19 0 -30.5 10.5t-11.5 28.5q0 19 12.5 32t32.5 13q21 0 33 -13z" />
    <glyph glyph-name="uni0227" unicode="&#x227;" horiz-adv-x="526" 
d="M454 337q0 -16 -1 -25l-22 -289q-1 -13 -9 -20.5t-21 -7.5q-14 0 -22.5 9t-7.5 23l4 56q-22 -43 -62 -66.5t-92 -23.5q-73 0 -119 39t-46 100q0 55 29.5 87t94.5 46.5t175 14.5h35l3 34q1 8 1 22q0 56 -26.5 82t-81.5 26q-78 0 -164 -54q-7 -4 -13 -4q-10 0 -16.5 8
t-6.5 19q0 17 15 27q36 26 87 41.5t100 15.5q166 0 166 -160zM336 88.5q43 42.5 48 110.5l3 36h-29q-92 0 -143 -9t-73 -30.5t-22 -59.5q0 -41 30 -65.5t81 -24.5q62 0 105 42.5zM272.5 620q-12.5 12 -12.5 31q0 20 12.5 32t32.5 12t32.5 -12t12.5 -32q0 -19 -12.5 -31
t-32.5 -12t-32.5 12z" />
    <glyph glyph-name="uni0228" unicode="&#x228;" horiz-adv-x="579" 
d="M558.5 697.5q7.5 -7.5 7.5 -18.5q0 -12 -7.5 -19.5t-20.5 -7.5h-353l-21 -267h330q12 0 19.5 -7.5t7.5 -19.5t-7.5 -19.5t-20.5 -7.5h-333l-22 -278h350q12 0 19.5 -7.5t7.5 -18.5q0 -12 -7.5 -19.5t-20.5 -7.5h-168l-9 -44q12 3 25 3q32 0 51.5 -18t19.5 -49
q0 -38 -30.5 -60.5t-82.5 -22.5q-40 0 -72 12q-15 5 -15 20q0 9 6.5 15t16.5 6q5 0 8 -1q30 -9 57 -9q30 0 45.5 10t15.5 28q0 14 -9 21.5t-26 7.5q-15 0 -29 -5t-18 -5q-8 0 -13.5 6t-4.5 13l14 72h-164q-16 0 -23.5 8.5t-6.5 24.5l50 642q2 30 33 30h381q12 0 19.5 -7.5z
" />
    <glyph glyph-name="uni022A" unicode="&#x22a;" horiz-adv-x="757" 
d="M215 31.5q-69 39.5 -106 114t-37 176.5q0 118 40 206.5t113 136.5t170 48q95 0 164 -39.5t106 -114t37 -176.5q0 -118 -39.5 -206.5t-113 -136.5t-171.5 -48q-94 0 -163 39.5zM517.5 88q58.5 40 89.5 115.5t31 179.5q0 133 -63 203.5t-180 70.5q-80 0 -138.5 -40
t-89.5 -116t-31 -180q0 -132 63 -202.5t180 -70.5q80 0 138.5 40zM313 811.5q-12 11.5 -12 29.5t12 29.5t30 11.5t30.5 -11.5t12.5 -29.5t-12.5 -29.5t-30.5 -11.5t-30 11.5zM478.5 811.5q-12.5 11.5 -12.5 29.5t12.5 29.5t30.5 11.5t30 -11.5t12 -29.5t-12 -29.5t-30 -11.5
t-30.5 11.5zM293.5 982q-7.5 7 -7.5 19q0 13 9 19.5t24 6.5h243q30 0 30 -26q0 -12 -9 -19t-24 -7h-243q-15 0 -22.5 7z" />
    <glyph glyph-name="uni022B" unicode="&#x22b;" horiz-adv-x="545" 
d="M151.5 22q-49.5 29 -76 82t-26.5 123q0 81 28.5 142t81 94.5t120.5 33.5q66 0 115.5 -29t76 -82t26.5 -124q0 -80 -28.5 -141t-81 -94.5t-121.5 -33.5q-65 0 -114.5 29zM390 105.5q44 58.5 44 159.5q0 85 -41 132t-114 47q-78 0 -122 -58.5t-44 -161.5q0 -86 40 -131.5
t116 -45.5q77 0 121 58.5zM193 621.5q-12 11.5 -12 29.5q0 19 12 30.5t30 11.5t30.5 -12t12.5 -30t-12.5 -29.5t-30.5 -11.5t-30 11.5zM358.5 621.5q-12.5 11.5 -12.5 29.5t12.5 30t30.5 12t30 -12t12 -30t-12 -29.5t-30 -11.5t-30.5 11.5zM168 846q0 13 9 19.5t24 6.5h243
q30 0 30 -25q0 -13 -9 -19.5t-24 -6.5h-243q-30 0 -30 25z" />
    <glyph glyph-name="uni022C" unicode="&#x22c;" horiz-adv-x="757" 
d="M215 31.5q-69 39.5 -106 114t-37 176.5q0 118 40 206.5t113 136.5t170 48q95 0 164 -39.5t106 -114t37 -176.5q0 -118 -39.5 -206.5t-113 -136.5t-171.5 -48q-94 0 -163 39.5zM517.5 88q58.5 40 89.5 115.5t31 179.5q0 133 -63 203.5t-180 70.5q-80 0 -138.5 -40
t-89.5 -116t-31 -180q0 -132 63 -202.5t180 -70.5q80 0 138.5 40zM414 818q-15 8 -30.5 14t-26.5 6q-19 0 -29.5 -7.5t-21.5 -21.5t-19 -14t-12.5 6t-4.5 15q0 16 12 33.5t32.5 29.5t46.5 12q29 0 77 -26q15 -8 30.5 -14t26.5 -6q19 0 29.5 7.5t21.5 21.5q4 6 8.5 10.5
t9.5 4.5q8 0 13 -6t5 -15q0 -16 -12 -34t-33 -30t-46 -12q-29 0 -77 26zM293.5 982q-7.5 7 -7.5 19q0 13 9 19.5t24 6.5h243q30 0 30 -26q0 -12 -9 -19t-24 -7h-243q-15 0 -22.5 7z" />
    <glyph glyph-name="uni022D" unicode="&#x22d;" horiz-adv-x="545" 
d="M151.5 22q-49.5 29 -76 82t-26.5 123q0 81 28.5 142t81 94.5t120.5 33.5q66 0 115.5 -29t76 -82t26.5 -124q0 -80 -28.5 -141t-81 -94.5t-121.5 -33.5q-65 0 -114.5 29zM390 105.5q44 58.5 44 159.5q0 85 -41 132t-114 47q-78 0 -122 -58.5t-44 -161.5q0 -86 40 -131.5
t116 -45.5q77 0 121 58.5zM333.5 602.5q-18.5 9.5 -39.5 26.5q-23 16 -34.5 22t-22.5 6q-17 0 -28 -9.5t-21 -26.5q-7 -11 -11.5 -16t-10.5 -5q-7 0 -12 6t-5 15q0 17 12.5 38.5t33.5 36.5t46 15q18 0 36.5 -9.5t39.5 -26.5q23 -16 34.5 -22t22.5 -6q17 0 27.5 9.5
t22.5 26.5q7 11 11.5 16t10.5 5q7 0 11.5 -6t4.5 -15q0 -17 -12.5 -38.5t-33.5 -36.5t-46 -15q-18 0 -36.5 9.5zM168 846q0 13 9 19.5t24 6.5h243q30 0 30 -25q0 -13 -9 -19.5t-24 -6.5h-243q-30 0 -30 25z" />
    <glyph glyph-name="uni0230" unicode="&#x230;" horiz-adv-x="757" 
d="M215 31.5q-69 39.5 -106 114t-37 176.5q0 118 40 206.5t113 136.5t170 48q95 0 164 -39.5t106 -114t37 -176.5q0 -118 -39.5 -206.5t-113 -136.5t-171.5 -48q-94 0 -163 39.5zM517.5 88q58.5 40 89.5 115.5t31 179.5q0 133 -63 203.5t-180 70.5q-80 0 -138.5 -40
t-89.5 -116t-31 -180q0 -132 63 -202.5t180 -70.5q80 0 138.5 40zM393.5 810q-12.5 12 -12.5 31q0 20 12.5 32t32.5 12t32.5 -12t12.5 -32q0 -19 -12.5 -31t-32.5 -12t-32.5 12zM293.5 982q-7.5 7 -7.5 19q0 13 9 19.5t24 6.5h243q30 0 30 -26q0 -12 -9 -19t-24 -7h-243
q-15 0 -22.5 7z" />
    <glyph glyph-name="uni0231" unicode="&#x231;" horiz-adv-x="545" 
d="M151.5 22q-49.5 29 -76 82t-26.5 123q0 81 28.5 142t81 94.5t120.5 33.5q66 0 115.5 -29t76 -82t26.5 -124q0 -80 -28.5 -141t-81 -94.5t-121.5 -33.5q-65 0 -114.5 29zM390 105.5q44 58.5 44 159.5q0 85 -41 132t-114 47q-78 0 -122 -58.5t-44 -161.5q0 -86 40 -131.5
t116 -45.5q77 0 121 58.5zM273.5 620q-12.5 12 -12.5 31q0 20 12.5 32t32.5 12t32.5 -12t12.5 -32q0 -19 -12.5 -31t-32.5 -12t-32.5 12zM168 846q0 13 9 19.5t24 6.5h243q30 0 30 -25q0 -13 -9 -19.5t-24 -6.5h-243q-30 0 -30 25z" />
    <glyph glyph-name="uni0232" unicode="&#x232;" horiz-adv-x="591" 
d="M587 710q11 0 18 -7t7 -18q0 -12 -8 -21l-271 -327l-24 -313q-1 -13 -10 -21t-21 -8q-13 0 -22.5 9t-8.5 23l25 310l-220 327q-7 10 -7 19q0 12 9 19t21 7q16 0 25 -13l205 -306l251 303q14 17 31 17zM197.5 822q-7.5 7 -7.5 19q0 13 9 19.5t24 6.5h243q30 0 30 -26
q0 -12 -9 -19t-24 -7h-243q-15 0 -22.5 7z" />
    <glyph glyph-name="uni0233" unicode="&#x233;" horiz-adv-x="509" 
d="M477 490q12 0 20.5 -7.5t8.5 -19.5q0 -8 -4 -15l-324 -615q-10 -18 -29 -18q-11 0 -19 6.5t-8 16.5q0 6 4 13l79 150l-166 448q-2 4 -2 12q0 12 9 20t21 8q20 0 27 -20l145 -408l213 412q9 17 25 17zM135 651q0 13 9 19.5t24 6.5h243q30 0 30 -25q0 -13 -9 -19.5
t-24 -6.5h-243q-30 0 -30 25z" />
    <glyph glyph-name="uni0237" unicode="&#x237;" horiz-adv-x="222" 
d="M-114.5 -177q-7.5 7 -6.5 19q0 10 7 17t19 8l29 2q62 4 92 36t35 99l37 461q1 15 10 22.5t21 7.5q13 0 22 -7.5t8 -22.5l-36 -454q-7 -95 -54.5 -141.5t-141.5 -51.5l-19 -1q-15 -1 -22.5 6z" />
    <glyph glyph-name="uni0259" unicode="&#x259;" horiz-adv-x="526" 
d="M418 433.5q60 -63.5 60 -170.5q0 -80 -28 -141t-80 -95t-121 -34q-98 0 -152 54.5t-54 161.5q0 47 35 47h336v10q0 85 -42 131.5t-120 46.5q-42 0 -80.5 -13t-67.5 -35q-10 -7 -19 -7q-10 0 -16 7t-6 17q0 15 12 26q27 25 77.5 41.5t101.5 16.5q104 0 164 -63.5z
M356.5 86.5q42.5 43.5 53.5 123.5h-311q-4 -82 35 -124.5t112 -42.5q68 0 110.5 43.5z" />
    <glyph glyph-name="uni02BB" unicode="&#x2bb;" horiz-adv-x="300" 
d="M210.5 647.5q11.5 -10.5 11.5 -28.5q0 -19 -12.5 -32t-32.5 -13q-45 0 -45 53q0 31 13 62.5t39 57.5q11 11 22 11q8 0 13 -5t5 -12t-8 -17q-28 -31 -36 -66q19 0 30.5 -10.5z" />
    <glyph glyph-name="uni02BC" unicode="&#x2bc;" horiz-adv-x="300" 
d="M228 707q0 -31 -13 -62.5t-39 -59.5q-10 -10 -22 -10q-8 0 -13.5 5t-5.5 12q0 8 8 16q30 32 36 66q-18 0 -29.5 10.5t-11.5 28.5q0 19 12.5 31.5t32.5 12.5q45 0 45 -50z" />
    <glyph glyph-name="uni02BE" unicode="&#x2be;" horiz-adv-x="300" 
d="M178 600q24 0 39 15t15 40q0 21 -12.5 34.5t-33.5 13.5l4 45q39 0 65.5 -26t26.5 -65q0 -45 -31.5 -73.5t-75.5 -28.5z" />
    <glyph glyph-name="uni02BF" unicode="&#x2bf;" horiz-adv-x="300" 
d="M187 703q-24 0 -39 -15t-15 -40q0 -21 12 -34.5t33 -13.5l-3 -45q-39 0 -65.5 26t-26.5 65q0 45 31.5 73.5t75.5 28.5z" />
    <glyph glyph-name="circumflex" unicode="&#x2c6;" horiz-adv-x="300" 
d="M94 549q-7 -4 -13 -4q-11 0 -18.5 7.5t-7.5 18.5q0 9 6 18l95 145q15 22 35 22q21 0 31 -22l72 -146q3 -7 3 -14q0 -12 -9 -20.5t-20 -8.5q-15 0 -22 16l-59 140l-82 -140q-4 -8 -11 -12z" />
    <glyph glyph-name="caron" unicode="&#x2c7;" horiz-adv-x="300" 
d="M271 752q7 4 13 4q11 0 18.5 -7.5t7.5 -18.5q0 -9 -6 -18l-95 -145q-15 -22 -35 -22q-21 0 -31 22l-72 146q-3 8 -3 14q0 12 9 21t20 9q15 0 22 -17l59 -140l82 140q4 8 11 12z" />
    <glyph glyph-name="uni02C8" unicode="&#x2c8;" horiz-adv-x="300" 
d="M155 554q-6 9 -4 24l11 144q2 15 9.5 24t19.5 9q13 0 19 -9t4 -24l-12 -144q-2 -15 -9.5 -24t-19.5 -9t-18 9z" />
    <glyph glyph-name="uni02C9" unicode="&#x2c9;" horiz-adv-x="300" 
d="M30 651q0 13 9 19.5t24 6.5h243q30 0 30 -25q0 -13 -9 -19.5t-24 -6.5h-243q-30 0 -30 25z" />
    <glyph glyph-name="uni02CA" unicode="&#x2ca;" horiz-adv-x="300" 
d="M179 545q-7 0 -12 5t-5 13t5 14l138 165q12 15 28 15q13 0 23 -9t10 -22t-13 -25l-159 -149q-7 -7 -15 -7z" />
    <glyph glyph-name="uni02CB" unicode="&#x2cb;" horiz-adv-x="300" 
d="M62 709q-6 11 -6 20q0 13 9 21.5t21 8.5q21 0 31 -23l70 -164q2 -4 2 -10q0 -8 -5.5 -12.5t-13.5 -4.5q-13 0 -20 11z" />
    <glyph glyph-name="uni02CC" unicode="&#x2cc;" horiz-adv-x="300" 
d="M89.5 -266q-6.5 9 -4.5 23l12 145q1 15 9 23.5t20 8.5q13 0 19 -8.5t4 -23.5l-12 -145q-2 -15 -9.5 -23.5t-19.5 -8.5t-18.5 9z" />
    <glyph glyph-name="breve" unicode="&#x2d8;" horiz-adv-x="300" 
d="M90 608q-37 25 -55 73q-3 8 -3 13q0 12 8 19.5t18 7.5q17 0 26 -20q13 -34 38.5 -51.5t58.5 -17.5q68 0 107 69q11 20 28 20q9 0 15.5 -6.5t6.5 -16.5q0 -9 -4 -17q-23 -48 -64.5 -73t-92.5 -25q-50 0 -87 25z" />
    <glyph glyph-name="dotaccent" unicode="&#x2d9;" horiz-adv-x="300" 
d="M150.5 620q-12.5 12 -12.5 31q0 20 12.5 32t32.5 12t32.5 -12t12.5 -32q0 -19 -12.5 -31t-32.5 -12t-32.5 12z" />
    <glyph glyph-name="ring" unicode="&#x2da;" horiz-adv-x="300" 
d="M112 582q-29 28 -29 69q0 40 29 68t70 28t70 -28t29 -68q0 -41 -29 -69t-70 -28t-70 28zM218 614q14 15 14 37q0 21 -14.5 36t-35.5 15t-35 -15t-14 -36q0 -22 14 -37t35 -15q22 0 36 15z" />
    <glyph glyph-name="ogonek" unicode="&#x2db;" horiz-adv-x="300" 
d="M9.5 -164.5q-29.5 26.5 -29.5 69.5q0 52 37.5 88.5t104.5 47.5l10 -31q-47 -9 -72 -35t-25 -60q0 -30 16 -45.5t45 -15.5q22 0 49 13q7 3 13 3q7 0 11.5 -5t4.5 -13q0 -7 -4.5 -14.5t-11.5 -11.5q-33 -17 -71 -17q-48 0 -77.5 26.5z" />
    <glyph glyph-name="tilde" unicode="&#x2dc;" horiz-adv-x="300" 
d="M210.5 602.5q-18.5 9.5 -39.5 26.5q-23 16 -34.5 22t-22.5 6q-17 0 -28 -9.5t-21 -26.5q-7 -11 -11.5 -16t-10.5 -5q-7 0 -12 6t-5 15q0 17 12.5 38.5t33.5 36.5t46 15q18 0 36.5 -9.5t39.5 -26.5q23 -16 34.5 -22t22.5 -6q17 0 27.5 9.5t22.5 26.5q7 11 11.5 16t10.5 5
q7 0 11.5 -6t4.5 -15q0 -17 -12.5 -38.5t-33.5 -36.5t-46 -15q-18 0 -36.5 9.5z" />
    <glyph glyph-name="hungarumlaut" unicode="&#x2dd;" horiz-adv-x="300" 
d="M119 544q-8 0 -13 6t-2 15l52 164q4 14 13 21.5t19 7.5q11 0 19 -8t8 -20q0 -9 -6 -21l-75 -155q-4 -10 -15 -10zM234 544q-7 0 -12 6t-2 15l51 164q4 14 13.5 21.5t19.5 7.5q11 0 18.5 -8t7.5 -20q0 -11 -5 -21l-76 -155q-4 -10 -15 -10z" />
    <glyph glyph-name="gravecomb" unicode="&#x300;" horiz-adv-x="0" 
d="M-238 709q-6 11 -6 20q0 13 9 21.5t21 8.5q21 0 31 -23l70 -164q2 -4 2 -10q0 -8 -5.5 -12.5t-13.5 -4.5q-13 0 -20 11z" />
    <glyph glyph-name="acutecomb" unicode="&#x301;" horiz-adv-x="0" 
d="M-121 545q-7 0 -12 5t-5 13t5 14l138 165q12 15 28 15q13 0 23 -9t10 -22t-13 -25l-159 -149q-7 -7 -15 -7z" />
    <glyph glyph-name="uni0302" unicode="&#x302;" horiz-adv-x="0" 
d="M-206 549q-7 -4 -13 -4q-11 0 -18.5 7.5t-7.5 18.5q0 9 6 18l95 145q15 22 35 22q21 0 31 -22l72 -146q3 -7 3 -14q0 -12 -9 -20.5t-20 -8.5q-15 0 -22 16l-59 140l-82 -140q-4 -8 -11 -12z" />
    <glyph glyph-name="tildecomb" unicode="&#x303;" horiz-adv-x="0" 
d="M-89.5 602.5q-18.5 9.5 -39.5 26.5q-23 16 -34.5 22t-22.5 6q-17 0 -28 -9.5t-21 -26.5q-7 -11 -11.5 -16t-10.5 -5q-7 0 -12 6t-5 15q0 17 12.5 38.5t33.5 36.5t46 15q18 0 36.5 -9.5t39.5 -26.5q23 -16 34.5 -22t22.5 -6q17 0 27.5 9.5t22.5 26.5q7 11 11.5 16t10.5 5
q7 0 11.5 -6t4.5 -15q0 -17 -12.5 -38.5t-33.5 -36.5t-46 -15q-18 0 -36.5 9.5z" />
    <glyph glyph-name="uni0304" unicode="&#x304;" horiz-adv-x="0" 
d="M-270 651q0 13 9 19.5t24 6.5h243q30 0 30 -25q0 -13 -9 -19.5t-24 -6.5h-243q-30 0 -30 25z" />
    <glyph glyph-name="uni0306" unicode="&#x306;" horiz-adv-x="0" 
d="M-210 608q-37 25 -55 73q-3 8 -3 13q0 12 8 19.5t18 7.5q17 0 26 -20q13 -34 38.5 -51.5t58.5 -17.5q68 0 107 69q11 20 28 20q9 0 15.5 -6.5t6.5 -16.5q0 -9 -4 -17q-23 -48 -64.5 -73t-92.5 -25q-50 0 -87 25z" />
    <glyph glyph-name="uni0307" unicode="&#x307;" horiz-adv-x="0" 
d="M-149.5 620q-12.5 12 -12.5 31q0 20 12.5 32t32.5 12t32.5 -12t12.5 -32q0 -19 -12.5 -31t-32.5 -12t-32.5 12z" />
    <glyph glyph-name="uni0308" unicode="&#x308;" horiz-adv-x="0" 
d="M-230 621.5q-12 11.5 -12 29.5q0 19 12 30.5t30 11.5t30.5 -12t12.5 -30t-12.5 -29.5t-30.5 -11.5t-30 11.5zM-64.5 621.5q-12.5 11.5 -12.5 29.5t12.5 30t30.5 12t30 -12t12 -30t-12 -29.5t-30 -11.5t-30.5 11.5z" />
    <glyph glyph-name="hookabovecomb" unicode="&#x309;" horiz-adv-x="0" 
d="M-107.5 553q-7.5 -7 -16.5 -7q-8 0 -14.5 7t-6.5 19q0 22 12 38.5t33 34.5q15 14 22 23t7 18q0 24 -41 24q-25 0 -51 -9q-8 -2 -10 -2q-9 0 -14 5t-5 13q0 7 5 14t14 11q30 13 67 13q42 0 67 -17t25 -46q0 -23 -11.5 -37.5t-33.5 -31.5q-19 -16 -28 -26.5t-12 -25.5
q-1 -11 -8.5 -18z" />
    <glyph glyph-name="uni030A" unicode="&#x30a;" horiz-adv-x="0" 
d="M-188 582q-29 28 -29 69q0 40 29 68t70 28t70 -28t29 -68q0 -41 -29 -69t-70 -28t-70 28zM-82 614q14 15 14 37q0 21 -14.5 36t-35.5 15t-35 -15t-14 -36q0 -22 14 -37t35 -15q22 0 36 15z" />
    <glyph glyph-name="uni030B" unicode="&#x30b;" horiz-adv-x="0" 
d="M-181 544q-8 0 -13 6t-2 15l52 164q4 14 13 21.5t19 7.5q11 0 19 -8t8 -20q0 -9 -6 -21l-75 -155q-4 -10 -15 -10zM-66 544q-7 0 -12 6t-2 15l51 164q4 14 13.5 21.5t19.5 7.5q11 0 18.5 -8t7.5 -20q0 -11 -5 -21l-76 -155q-4 -10 -15 -10z" />
    <glyph glyph-name="uni030C" unicode="&#x30c;" horiz-adv-x="0" 
d="M-29 752q7 4 13 4q11 0 18.5 -7.5t7.5 -18.5q0 -9 -6 -18l-95 -145q-15 -22 -35 -22q-21 0 -31 22l-72 146q-3 8 -3 14q0 12 9 21t20 9q15 0 22 -17l59 -140l82 140q4 8 11 12z" />
    <glyph glyph-name="uni030F" unicode="&#x30f;" horiz-adv-x="0" 
d="M-254 716q-2 5 -2 13q0 12 9 19.5t20 7.5t19.5 -6.5t10.5 -20.5l27 -164v-3q0 -7 -5.5 -11.5t-11.5 -4.5q-11 0 -14 10zM-138 715l-2 12q0 14 9 22t21 8q10 0 18.5 -7t10.5 -21l27 -164v-3q0 -7 -5.5 -11.5t-11.5 -4.5q-11 0 -14 10z" />
    <glyph glyph-name="uni0311" unicode="&#x311;" horiz-adv-x="0" 
d="M-26 696q37 -25 55 -73q3 -7 3 -13q0 -12 -8 -19.5t-18 -7.5q-17 0 -26 20q-27 69 -97 69t-107 -69q-11 -20 -28 -20q-9 0 -15.5 6.5t-6.5 16.5q0 9 4 17q24 48 65 73t92 25q50 0 87 -25z" />
    <glyph glyph-name="uni0312" unicode="&#x312;" horiz-adv-x="0" 
d="M-89.5 647.5q11.5 -10.5 11.5 -28.5q0 -20 -11 -32.5t-30 -12.5q-22 0 -35.5 13t-13.5 39q0 32 12.5 63t39.5 58q11 11 23 11q7 0 12 -4.5t5 -11.5q0 -10 -8 -18q-29 -32 -35 -66q18 0 29.5 -10.5z" />
    <glyph glyph-name="uni031B" unicode="&#x31b;" horiz-adv-x="0" 
d="M-133 467l3 23q44 0 68.5 11t35.5 32t17 58q4 30 32 30q25 0 25 -29q0 -63 -41.5 -103.5t-113.5 -42.5z" />
    <glyph glyph-name="dotbelowcomb" unicode="&#x323;" horiz-adv-x="0" 
d="M-211.5 -171q-12.5 12 -12.5 32q0 19 12.5 31t31.5 12t31.5 -12t12.5 -31q0 -20 -12.5 -32t-31.5 -12t-31.5 12z" />
    <glyph glyph-name="uni0324" unicode="&#x324;" horiz-adv-x="0" 
d="M-293 -169.5q-12 11.5 -12 30.5q0 18 12 29.5t30 11.5t30.5 -11.5t12.5 -29.5t-12.5 -30t-30.5 -12t-30 11.5zM-127.5 -169q-12.5 12 -12.5 30t12.5 29.5t30.5 11.5t30 -11.5t12 -29.5q0 -19 -12 -30.5t-30 -11.5t-30.5 12z" />
    <glyph glyph-name="uni0326" unicode="&#x326;" horiz-adv-x="0" 
d="M-142 -82q12 -13 12 -39q0 -32 -12.5 -63t-39.5 -58q-11 -11 -22 -11q-8 0 -13 5t-5 12t8 17q28 31 36 66q-19 0 -30.5 10.5t-11.5 28.5q0 19 12.5 32t32.5 13q21 0 33 -13z" />
    <glyph glyph-name="uni0327" unicode="&#x327;" horiz-adv-x="0" 
d="M-81.5 -59q19.5 -18 19.5 -49q0 -38 -30.5 -60.5t-82.5 -22.5q-40 0 -72 12q-15 5 -15 20q0 9 6.5 15t16.5 6q5 0 8 -1q30 -9 57 -9q30 0 45.5 10t15.5 28q0 14 -9 21.5t-26 7.5q-15 0 -29 -5t-18 -5q-8 0 -13.5 6t-4.5 13l18 92h50l-13 -64q12 3 25 3q32 0 51.5 -18z
" />
    <glyph glyph-name="uni0328" unicode="&#x328;" horiz-adv-x="0" 
d="M-290.5 -164.5q-29.5 26.5 -29.5 69.5q0 52 37.5 88.5t104.5 47.5l10 -31q-47 -9 -72 -35t-25 -60q0 -30 16 -45.5t45 -15.5q22 0 49 13q7 3 13 3q7 0 11.5 -5t4.5 -13q0 -7 -4.5 -14.5t-11.5 -11.5q-33 -17 -71 -17q-48 0 -77.5 26.5z" />
    <glyph glyph-name="uni032E" unicode="&#x32e;" horiz-adv-x="0" 
d="M-272 -182q-37 25 -55 74q-3 7 -3 13q0 11 8 18.5t18 7.5q18 0 26 -19q27 -69 97 -69t107 69q11 20 28 20q9 0 15.5 -6.5t6.5 -16.5q0 -9 -4 -17q-23 -48 -64.5 -73.5t-92.5 -25.5q-50 0 -87 25z" />
    <glyph glyph-name="uni0331" unicode="&#x331;" horiz-adv-x="0" 
d="M-325.5 -158.5q-7.5 6.5 -7.5 18.5q0 13 9 19.5t24 6.5h243q30 0 30 -25q0 -12 -9 -19t-24 -7h-243q-15 0 -22.5 6.5z" />
    <glyph glyph-name="uni0335" unicode="&#x335;" horiz-adv-x="0" 
d="M-295 228q-8 6 -8 17t9 17.5t23 6.5h244q30 0 30 -24q0 -11 -8.5 -17t-23.5 -6h-243q-15 0 -23 6z" />
    <glyph glyph-name="uni0394" unicode="&#x394;" horiz-adv-x="720" 
d="M663 10q-7 -10 -19 -10h-612q-8 0 -14.5 5.5t-6.5 13.5q0 5 3 11l343 657q5 10 14.5 15.5t19.5 5.5q12 0 22 -6.5t14 -18.5l239 -652q4 -11 -3 -21zM388 627l-297 -573h505z" />
    <glyph glyph-name="Sigma" unicode="&#x3a3;" horiz-adv-x="575" 
d="M567.5 697.5q7.5 -7.5 7.5 -18.5q0 -12 -7.5 -20t-20.5 -8h-399l214 -348q13 -23 13 -36q0 -18 -18 -42l-272 -351h398q13 0 20.5 -7.5t7.5 -19.5t-7.5 -19.5t-20.5 -7.5h-448q-15 0 -23 7t-8 18t9 23l304 395l-242 392q-5 8 -5 18q0 13 10 22.5t23 9.5h445
q12 0 19.5 -7.5z" />
    <glyph glyph-name="uni03A9" unicode="&#x3a9;" horiz-adv-x="769" 
d="M686.5 46.5q7.5 -7.5 7.5 -19.5t-7.5 -19.5t-20.5 -7.5h-197q-16 0 -25 8t-9 22t10 28q87 114 134.5 187t66 122t18.5 92q0 94 -67.5 146.5t-182.5 52.5q-135 0 -206 -59t-71 -160q0 -68 35 -150.5t124 -228.5q7 -13 7 -25q0 -16 -10.5 -25.5t-27.5 -9.5h-196
q-13 0 -20.5 7.5t-7.5 19.5t8 19.5t20 7.5h170q-67 107 -102 173t-49.5 113.5t-14.5 94.5q0 83 40 146t117 97.5t184 34.5q95 0 166 -30t109.5 -86.5t38.5 -134.5q0 -53 -19.5 -104.5t-67.5 -120.5t-140 -183h166q12 0 19.5 -7.5z" />
    <glyph glyph-name="uni03BC" unicode="&#x3bc;" horiz-adv-x="553" 
d="M483 487.5q8 -7.5 7 -23.5l-35 -441q-1 -14 -10.5 -21t-22.5 -7t-20.5 7t-6.5 21l5 62q-25 -44 -67.5 -68t-94.5 -24q-76 0 -116 38l-15 -188q-1 -13 -11 -20.5t-22 -7.5q-14 0 -21.5 7t-6.5 21l49 621q1 16 10.5 23.5t22.5 7.5t21 -7.5t7 -23.5l-22 -276q-1 -8 -1 -24
q0 -117 113 -117q71 0 113.5 43.5t49.5 119.5l20 254q1 16 10.5 23.5t22.5 7.5t21 -7.5z" />
    <glyph glyph-name="pi" unicode="&#x3c0;" horiz-adv-x="570" 
d="M400 176q-1 -7 -1 -20q0 -52 27 -78.5t84 -30.5q12 -1 18.5 -8t6.5 -17q0 -11 -8 -19t-23 -7q-85 4 -125.5 43.5t-40.5 116.5q0 17 1 26l20 254h-178q-23 -246 -95 -422q-4 -9 -11 -14t-16 -5q-13 0 -23 8.5t-10 21.5q0 3 2 11q72 179 92 400h-78q-12 0 -19 7t-7 18
t7 17.5t20 6.5h481q12 0 19 -6.5t7 -17.5t-7 -18t-20 -7h-103z" />
    <glyph glyph-name="uni1E08" unicode="&#x1e08;" horiz-adv-x="677" 
d="M432 760q-7 0 -11.5 4.5t-4.5 11.5q0 6 5 14l82 114q15 19 31 19q11 0 19 -7.5t8 -18.5q0 -14 -13 -27l-97 -101q-9 -9 -19 -9zM662 600q0 -12 -7.5 -20.5t-18.5 -8.5q-10 0 -19 8q-43 41 -93.5 60t-120.5 19q-83 0 -143.5 -40.5t-92 -116.5t-31.5 -180q0 -131 63 -202.5
t179 -71.5q55 0 106.5 19t93.5 57q11 10 22 10q10 0 16 -7.5t6 -18.5q0 -14 -11 -24q-94 -87 -232 -91l-8 -36q12 3 25 3q32 0 51.5 -18t19.5 -49q0 -38 -30.5 -60.5t-82.5 -22.5q-40 0 -72 12q-15 5 -15 20q0 9 6.5 15t16.5 6q5 0 8 -1q30 -9 57 -9q30 0 45.5 10t15.5 28
q0 14 -9 21.5t-26 7.5q-15 0 -29 -5t-18 -5q-8 0 -13.5 6t-4.5 13l13 66q-119 12 -188 98.5t-69 229.5q0 118 40.5 206.5t115.5 136.5t177 48q77 0 140.5 -23t106.5 -67q10 -10 10 -23z" />
    <glyph glyph-name="uni1E09" unicode="&#x1e09;" horiz-adv-x="475" 
d="M459 757q13 0 23 -9t10 -22t-13 -25l-159 -149q-7 -7 -15 -7q-7 0 -12 5t-5 13t5 14l138 165q12 15 28 15zM463 418q0 -12 -7.5 -21t-17.5 -9q-7 0 -15 6q-63 50 -135 50q-83 0 -129 -58t-46 -161q0 -83 41.5 -130.5t117.5 -47.5q37 0 67.5 12.5t60.5 36.5q9 6 16 6
q10 0 17.5 -8t7.5 -18q0 -11 -9 -20q-29 -29 -72 -45.5t-90 -17.5l-8 -37q12 3 25 3q32 0 51.5 -18t19.5 -49q0 -38 -30.5 -60.5t-82.5 -22.5q-40 0 -72 12q-15 5 -15 20q0 9 6.5 15t16.5 6q5 0 8 -1q30 -9 57 -9q30 0 45.5 10t15.5 28q0 14 -9 21.5t-26 7.5q-15 0 -29 -5
t-18 -5q-8 0 -13.5 6t-4.5 13l13 69q-79 14 -125 75.5t-46 154.5q0 81 29 142t83.5 94.5t127.5 33.5q50 0 93.5 -15t68.5 -38q12 -11 12 -26z" />
    <glyph glyph-name="uni1E0C" unicode="&#x1e0c;" horiz-adv-x="731" 
d="M83.5 10.5q-9.5 10.5 -7.5 26.5l49 637q1 14 10.5 22.5t23.5 8.5h190q158 0 243 -84t85 -238q0 -119 -41.5 -205t-120.5 -132t-191 -46h-215q-16 0 -25.5 10.5zM322 54q143 0 216.5 85.5t73.5 244.5q0 267 -265 267h-162l-47 -597h184zM304.5 -171q-12.5 12 -12.5 32
q0 19 12.5 31t31.5 12t31.5 -12t12.5 -31q0 -20 -12.5 -32t-31.5 -12t-31.5 12z" />
    <glyph glyph-name="uni1E0D" unicode="&#x1e0d;" horiz-adv-x="573" 
d="M520 703.5q8 -7.5 7 -20.5l-51 -657q-1 -16 -10.5 -23.5t-22.5 -7.5t-21 7.5t-7 23.5l5 56q-25 -42 -69 -65.5t-95 -23.5q-61 0 -108 29t-73 82t-26 123q0 80 28.5 141.5t80 95t118.5 33.5q59 0 103 -25.5t65 -72.5l22 284q1 14 10.5 21t22.5 7t21 -7.5zM389.5 105.5
q44.5 58.5 44.5 159.5q0 87 -40.5 133t-115.5 46q-77 0 -121 -57.5t-44 -158.5q0 -87 40.5 -134t114.5 -47q77 0 121.5 58.5zM226.5 -171q-12.5 12 -12.5 32q0 19 12.5 31t31.5 12t31.5 -12t12.5 -31q0 -20 -12.5 -32t-31.5 -12t-31.5 12z" />
    <glyph glyph-name="uni1E0E" unicode="&#x1e0e;" horiz-adv-x="731" 
d="M83.5 10.5q-9.5 10.5 -7.5 26.5l49 637q1 14 10.5 22.5t23.5 8.5h190q158 0 243 -84t85 -238q0 -119 -41.5 -205t-120.5 -132t-191 -46h-215q-16 0 -25.5 10.5zM322 54q143 0 216.5 85.5t73.5 244.5q0 267 -265 267h-162l-47 -597h184zM190.5 -158.5q-7.5 6.5 -7.5 18.5
q0 13 9 19.5t24 6.5h243q30 0 30 -25q0 -12 -9 -19t-24 -7h-243q-15 0 -22.5 6.5z" />
    <glyph glyph-name="uni1E0F" unicode="&#x1e0f;" horiz-adv-x="573" 
d="M520 703.5q8 -7.5 7 -20.5l-51 -657q-1 -16 -10.5 -23.5t-22.5 -7.5t-21 7.5t-7 23.5l5 56q-25 -42 -69 -65.5t-95 -23.5q-61 0 -108 29t-73 82t-26 123q0 80 28.5 141.5t80 95t118.5 33.5q59 0 103 -25.5t65 -72.5l22 284q1 14 10.5 21t22.5 7t21 -7.5zM389.5 105.5
q44.5 58.5 44.5 159.5q0 87 -40.5 133t-115.5 46q-77 0 -121 -57.5t-44 -158.5q0 -87 40.5 -134t114.5 -47q77 0 121.5 58.5zM112.5 -158.5q-7.5 6.5 -7.5 18.5q0 13 9 19.5t24 6.5h243q30 0 30 -25q0 -12 -9 -19t-24 -7h-243q-15 0 -22.5 6.5z" />
    <glyph glyph-name="uni1E14" unicode="&#x1e14;" horiz-adv-x="579" 
d="M558.5 697.5q7.5 -7.5 7.5 -18.5q0 -12 -7.5 -19.5t-20.5 -7.5h-353l-21 -267h330q12 0 19.5 -7.5t7.5 -19.5t-7.5 -19.5t-20.5 -7.5h-333l-22 -278h350q12 0 19.5 -7.5t7.5 -18.5q0 -12 -7.5 -19.5t-20.5 -7.5h-382q-16 0 -23.5 8.5t-6.5 24.5l50 642q2 30 33 30h381
q12 0 19.5 -7.5zM224.5 822q-7.5 7 -7.5 19q0 13 9 19.5t24 6.5h243q30 0 30 -26q0 -12 -9 -19t-24 -7h-243q-15 0 -22.5 7zM268 1036q-8 11 -8 22t8 18.5t19 7.5q18 0 29 -19l68 -117q3 -6 3 -11q0 -7 -5 -12t-13 -5q-10 0 -18 9z" />
    <glyph glyph-name="uni1E15" unicode="&#x1e15;" horiz-adv-x="526" 
d="M112 235v-10q0 -84 42 -131t121 -47q41 0 79.5 12.5t67.5 34.5q10 7 19 7q10 0 16.5 -7t6.5 -18q0 -14 -12 -25q-27 -25 -77.5 -41.5t-101.5 -16.5q-104 0 -164 63.5t-60 170.5q0 80 29 141t83 95t126 34q96 0 146 -56.5t50 -167.5q0 -19 -9.5 -28.5t-24.5 -9.5h-337z
M171.5 403.5q-44.5 -43.5 -55.5 -123.5h311q3 82 -34 124.5t-103 42.5q-74 0 -118.5 -43.5zM156 651q0 13 9 19.5t24 6.5h243q30 0 30 -25q0 -13 -9 -19.5t-24 -6.5h-243q-30 0 -30 25zM203 904q-6 11 -6 20q0 13 9 21.5t21 8.5q21 0 31 -23l70 -164q2 -4 2 -10
q0 -8 -5.5 -12.5t-13.5 -4.5q-13 0 -20 11z" />
    <glyph glyph-name="uni1E16" unicode="&#x1e16;" horiz-adv-x="579" 
d="M558.5 697.5q7.5 -7.5 7.5 -18.5q0 -12 -7.5 -19.5t-20.5 -7.5h-353l-21 -267h330q12 0 19.5 -7.5t7.5 -19.5t-7.5 -19.5t-20.5 -7.5h-333l-22 -278h350q12 0 19.5 -7.5t7.5 -18.5q0 -12 -7.5 -19.5t-20.5 -7.5h-382q-16 0 -23.5 8.5t-6.5 24.5l50 642q2 30 33 30h381
q12 0 19.5 -7.5zM224.5 822q-7.5 7 -7.5 19q0 13 9 19.5t24 6.5h243q30 0 30 -26q0 -12 -9 -19t-24 -7h-243q-15 0 -22.5 7zM383 920q-7 0 -11.5 4.5t-4.5 11.5q0 6 5 14l82 114q15 19 31 19q11 0 19 -7.5t8 -18.5q0 -14 -13 -27l-97 -101q-9 -9 -19 -9z" />
    <glyph glyph-name="uni1E17" unicode="&#x1e17;" horiz-adv-x="526" 
d="M112 235v-10q0 -84 42 -131t121 -47q41 0 79.5 12.5t67.5 34.5q10 7 19 7q10 0 16.5 -7t6.5 -18q0 -14 -12 -25q-27 -25 -77.5 -41.5t-101.5 -16.5q-104 0 -164 63.5t-60 170.5q0 80 29 141t83 95t126 34q96 0 146 -56.5t50 -167.5q0 -19 -9.5 -28.5t-24.5 -9.5h-337z
M171.5 403.5q-44.5 -43.5 -55.5 -123.5h311q3 82 -34 124.5t-103 42.5q-74 0 -118.5 -43.5zM156 651q0 13 9 19.5t24 6.5h243q30 0 30 -25q0 -13 -9 -19.5t-24 -6.5h-243q-30 0 -30 25zM320 740q-7 0 -12 5t-5 13t5 14l138 165q12 15 28 15q13 0 23 -9t10 -22t-13 -25
l-159 -149q-7 -7 -15 -7z" />
    <glyph glyph-name="uni1E1C" unicode="&#x1e1c;" horiz-adv-x="579" 
d="M278 800q-37 22 -56 66q-3 8 -3 14q0 10 7.5 16.5t16.5 6.5q17 0 26 -16q17 -32 40.5 -46t57.5 -14t60.5 14t47.5 46q6 8 14 12.5t15 4.5q10 0 16.5 -5.5t6.5 -15.5q0 -9 -5 -17q-25 -44 -66 -66t-91 -22t-87 22zM558.5 697.5q7.5 -7.5 7.5 -18.5q0 -12 -7.5 -19.5
t-20.5 -7.5h-353l-21 -267h330q12 0 19.5 -7.5t7.5 -19.5t-7.5 -19.5t-20.5 -7.5h-333l-22 -278h350q12 0 19.5 -7.5t7.5 -18.5q0 -12 -7.5 -19.5t-20.5 -7.5h-168l-9 -44q12 3 25 3q32 0 51.5 -18t19.5 -49q0 -38 -30.5 -60.5t-82.5 -22.5q-40 0 -72 12q-15 5 -15 20
q0 9 6.5 15t16.5 6q5 0 8 -1q30 -9 57 -9q30 0 45.5 10t15.5 28q0 14 -9 21.5t-26 7.5q-15 0 -29 -5t-18 -5q-8 0 -13.5 6t-4.5 13l14 72h-164q-16 0 -23.5 8.5t-6.5 24.5l50 642q2 30 33 30h381q12 0 19.5 -7.5z" />
    <glyph glyph-name="uni1E1D" unicode="&#x1e1d;" horiz-adv-x="526" 
d="M216 608q-37 25 -55 73q-3 8 -3 13q0 12 8 19.5t18 7.5q17 0 26 -20q13 -34 38.5 -51.5t58.5 -17.5q68 0 107 69q11 20 28 20q9 0 15.5 -6.5t6.5 -16.5q0 -9 -4 -17q-23 -48 -64.5 -73t-92.5 -25q-50 0 -87 25zM112 235v-10q0 -84 42 -131t121 -47q41 0 79.5 12.5
t67.5 34.5q10 7 19 7q10 0 16.5 -7t6.5 -18q0 -14 -12 -25q-26 -23 -72.5 -39.5t-95.5 -18.5l-8 -37q12 3 25 3q32 0 51.5 -18t19.5 -49q0 -38 -30.5 -60.5t-82.5 -22.5q-40 0 -72 12q-15 5 -15 20q0 9 6.5 15t16.5 6q5 0 8 -1q30 -9 57 -9q30 0 45.5 10t15.5 28
q0 14 -9 21.5t-26 7.5q-15 0 -29 -5t-18 -5q-8 0 -13.5 6t-4.5 13l13 68q-87 11 -136 73t-49 158q0 80 29 141t83 95t126 34q96 0 146 -56.5t50 -167.5q0 -19 -9.5 -28.5t-24.5 -9.5h-337zM171.5 403.5q-44.5 -43.5 -55.5 -123.5h311q3 82 -34 124.5t-103 42.5
q-74 0 -118.5 -43.5z" />
    <glyph glyph-name="uni1E20" unicode="&#x1e20;" horiz-adv-x="719" 
d="M265.5 617q-63.5 -41 -97 -118t-33.5 -183q0 -130 64 -200t190 -70q44 0 91.5 8.5t86.5 23.5l18 231h-158q-14 0 -22 7t-8 19t8 19t22 7h182q16 0 25 -10t8 -26l-19 -259q-3 -26 -24 -34q-43 -18 -101 -29t-109 -11q-154 0 -236 84.5t-82 235.5q0 121 42.5 211.5
t120.5 139.5t183 49q147 0 235 -85q13 -10 13 -28q0 -12 -7.5 -20.5t-17.5 -8.5q-9 0 -19 8q-46 42 -94.5 61t-109.5 19q-88 0 -151.5 -41zM290.5 822q-7.5 7 -7.5 19q0 13 9 19.5t24 6.5h243q30 0 30 -26q0 -12 -9 -19t-24 -7h-243q-15 0 -22.5 7z" />
    <glyph glyph-name="uni1E21" unicode="&#x1e21;" horiz-adv-x="577" 
d="M508 487.5q8 -7.5 7 -23.5l-35 -436q-17 -215 -220 -215q-59 0 -108.5 15t-85.5 42q-15 11 -15 27q0 11 7.5 19t17.5 8q8 0 13 -4q42 -28 81 -40.5t90 -12.5q148 0 160 158l7 82q-23 -44 -67.5 -68t-98.5 -24q-96 0 -153.5 61t-57.5 163q0 77 28 135.5t80 90.5t120 32
q61 0 105 -26t65 -73l6 66q1 16 10 23.5t22 7.5q14 0 22 -7.5zM393.5 123.5q44.5 54.5 44.5 150.5q0 81 -41.5 125.5t-115.5 44.5q-79 0 -123 -55t-44 -152q0 -82 40.5 -125t116.5 -43q78 0 122.5 54.5zM170 651q0 13 9 19.5t24 6.5h243q30 0 30 -25q0 -13 -9 -19.5
t-24 -6.5h-243q-30 0 -30 25z" />
    <glyph glyph-name="uni1E24" unicode="&#x1e24;" horiz-adv-x="754" 
d="M689 701.5q9 -8.5 8 -23.5l-52 -654q-1 -13 -9.5 -21t-21.5 -8t-22 8.5t-8 23.5l24 304h-448l-24 -307q-1 -13 -10 -21t-21 -8q-13 0 -22 9t-8 23l51 654q1 13 10 21t21 8q13 0 22 -8.5t8 -23.5l-23 -293h448l24 296q1 13 9.5 21t21.5 8t22 -8.5zM316.5 -171
q-12.5 12 -12.5 32q0 19 12.5 31t31.5 12t31.5 -12t12.5 -31q0 -20 -12.5 -32t-31.5 -12t-31.5 12z" />
    <glyph glyph-name="uni1E25" unicode="&#x1e25;" horiz-adv-x="561" 
d="M445 456q43 -41 43 -122q0 -18 -1 -27l-21 -281q-1 -16 -10.5 -23.5t-22.5 -7.5t-21 7.5t-7 23.5l21 277q1 8 1 23q0 117 -116 117q-74 0 -117.5 -43t-49.5 -119l-20 -255q-2 -16 -11 -23.5t-22 -7.5q-14 0 -22 7.5t-6 23.5l52 657q1 13 10.5 20.5t22.5 7.5t21 -7t7 -21
l-22 -275q25 43 68.5 66t98.5 23q81 0 124 -41zM218.5 -171q-12.5 12 -12.5 32q0 19 12.5 31t31.5 12t31.5 -12t12.5 -31q0 -20 -12.5 -32t-31.5 -12t-31.5 12z" />
    <glyph glyph-name="uni1E2A" unicode="&#x1e2a;" horiz-adv-x="754" 
d="M689 701.5q9 -8.5 8 -23.5l-52 -654q-1 -13 -9.5 -21t-21.5 -8t-22 8.5t-8 23.5l24 304h-448l-24 -307q-1 -13 -10 -21t-21 -8q-13 0 -22 9t-8 23l51 654q1 13 10 21t21 8q13 0 22 -8.5t8 -23.5l-23 -293h448l24 296q1 13 9.5 21t21.5 8t22 -8.5zM256 -182q-37 25 -55 74
q-3 7 -3 13q0 11 8 18.5t18 7.5q18 0 26 -19q27 -69 97 -69t107 69q11 20 28 20q9 0 15.5 -6.5t6.5 -16.5q0 -9 -4 -17q-23 -48 -64.5 -73.5t-92.5 -25.5q-50 0 -87 25z" />
    </font>
</defs>
</svg>
