<?xml version="1.0" standalone="no"?>
<!DOCTYPE svg PUBLIC "-//W3C//DTD SVG 1.1//EN" "http://www.w3.org/Graphics/SVG/1.1/DTD/svg11.dtd" >
<svg xmlns="http://www.w3.org/2000/svg" xmlns:xlink="http://www.w3.org/1999/xlink" version="1.1">
<metadata>
Created by FontForge 20170731 at Wed Nov  9 16:46:44 2016
 By Aleksey,,,
Copyright 2014 The Nunito Project Authors (contact@sansoxygen.com)
</metadata>
<defs>
<font id="Nunito-ExtraBold" horiz-adv-x="600" >
  <font-face 
    font-family="Nunito ExtraBold"
    font-weight="800"
    font-stretch="normal"
    units-per-em="1000"
    panose-1="0 0 9 0 0 0 0 0 0 0"
    ascent="800"
    descent="-200"
    x-height="491"
    cap-height="710"
    bbox="-333 -275 1338 1086"
    underline-thickness="50"
    underline-position="-150"
    unicode-range="U+000D-FB02"
  />
<missing-glyph horiz-adv-x="443" 
d="M363 705v-885h-281v885h281zM295 646h-146v-29h57v-33h-58v-29h147v29h-59v33h59v29zM236 532h-88v-92h147v30h-59v62zM206 501v-31h-29v31h29zM295 416h-147v-30h58v-32h-58v-30h88v62h59v30zM295 363h-29v-59h-118v-30h147v89zM295 255h-89v-50h30v20h30v-41h-89v71
h-29v-100h147v100zM295 101h-147v-100h147v100zM266 72v-41h-89v41h89zM295 -19h-147v-29h62l-62 -42v-29h147v29h-91l62 42h29v29z" />
    <glyph glyph-name="fi" unicode="fi" horiz-adv-x="643" 
d="M447 601.5q-23 20.5 -23 55.5q0 34 23 54.5t62 20.5t62.5 -20.5t23.5 -54.5q0 -35 -23 -55.5t-63 -20.5q-39 0 -62 20.5zM568 476q17 -15 17 -42v-369q0 -35 -21.5 -53t-54.5 -18q-32 0 -53.5 18t-21.5 53v313h-186v-312q0 -35 -21.5 -53t-53.5 -18q-33 0 -54.5 18
t-21.5 53v312h-40q-67 0 -67 56q0 57 67 57h40q1 94 54 149t145 64l21 2q6 1 18 1q62 0 62 -53q0 -26 -14.5 -40.5t-36.5 -16.5l-21 -2q-41 -4 -59 -25.5t-18 -61.5v-17h269q34 0 51 -15z" />
    <glyph glyph-name="fl" unicode="fl" horiz-adv-x="643" 
d="M266 570q-18 -22 -18 -62v-17h70q68 0 68 -57q0 -56 -68 -56h-70v-312q0 -35 -21.5 -53t-53.5 -18q-33 0 -54.5 18t-21.5 53v312h-40q-67 0 -67 56q0 57 67 57h40q0 96 53 151t146 62l26 2l18 1q69 0 69 -53q0 -52 -58 -57l-26 -2q-41 -3 -59 -25zM455.5 12
q-21.5 18 -21.5 53v574q0 35 21.5 53t54.5 18q32 0 53.5 -18t21.5 -53v-574q0 -35 -21.5 -53t-53.5 -18q-33 0 -54.5 18z" />
    <glyph glyph-name=".notdef" horiz-adv-x="443" 
d="M363 705v-885h-281v885h281zM295 646h-146v-29h57v-33h-58v-29h147v29h-59v33h59v29zM236 532h-88v-92h147v30h-59v62zM206 501v-31h-29v31h29zM295 416h-147v-30h58v-32h-58v-30h88v62h59v30zM295 363h-29v-59h-118v-30h147v89zM295 255h-89v-50h30v20h30v-41h-89v71
h-29v-100h147v100zM295 101h-147v-100h147v100zM266 72v-41h-89v41h89zM295 -19h-147v-29h62l-62 -42v-29h147v29h-91l62 42h29v29z" />
    <glyph glyph-name=".null" horiz-adv-x="0" 
 />
    <glyph glyph-name="nonmarkingreturn" unicode="&#xd;" horiz-adv-x="279" 
 />
    <glyph glyph-name="NULL" horiz-adv-x="0" 
 />
    <glyph glyph-name="NULL" horiz-adv-x="0" 
 />
    <glyph glyph-name="space" unicode=" " horiz-adv-x="279" 
 />
    <glyph glyph-name="exclam" unicode="!" horiz-adv-x="260" 
d="M99.5 230q-12.5 12 -15.5 35l-44 350q-1 5 -1 14q0 37 26 59t65 22t65 -22t26 -60q0 -9 -1 -14l-45 -349q-2 -23 -14.5 -35t-30.5 -12t-30.5 12zM69 18.5q-24 24.5 -24 61.5t24 61.5t61 24.5t61 -24.5t24 -61.5t-24 -61.5t-61 -24.5t-61 24.5z" />
    <glyph glyph-name="quotedbl" unicode="&#x22;" horiz-adv-x="469" 
d="M94 414q-13 12 -17 34l-27 161q-2 16 -2 23q0 37 21.5 57.5t58.5 20.5q36 0 57 -20t21 -56q0 -16 -2 -25l-26 -161q-4 -24 -16.5 -35t-33.5 -11t-34 12zM308 414q-13 12 -17 34l-27 161q-2 16 -2 23q0 37 21.5 57.5t58.5 20.5q36 0 57 -20t21 -56q0 -16 -2 -25l-26 -161
q-4 -24 -16.5 -35t-33.5 -11t-34 12z" />
    <glyph glyph-name="numbersign" unicode="#" 
d="M475 454l-38 -195h60q20 0 34 -14t14 -34q0 -19 -14 -32.5t-34 -13.5h-79l-26 -134q-3 -16 -15.5 -26t-30.5 -10q-22 0 -36 13.5t-14 34.5q0 9 1 13l21 109h-108l-27 -134q-3 -16 -15.5 -26t-28.5 -10q-22 0 -36 14t-14 36q0 7 1 11l21 109h-28q-20 0 -34 14t-14 34
q0 19 14 32.5t34 13.5h47l38 195h-65q-20 0 -34 14t-14 34q0 19 14 32.5t34 13.5h84l25 129q3 16 15 26t30 10q22 0 36 -14t14 -35q0 -8 -1 -12l-21 -104h108l25 129q3 16 15.5 26t30.5 10q22 0 36.5 -14t14.5 -36q0 -7 -1 -11l-20 -104h23q20 0 34 -14t14 -34
q0 -19 -14 -32.5t-34 -13.5h-42zM337 259l38 195h-108l-39 -195h109z" />
    <glyph glyph-name="dollar" unicode="$" 
d="M519.5 68.5q-55.5 -55.5 -149.5 -71.5v-57q0 -27 -16.5 -43.5t-43.5 -16.5q-26 0 -43 16.5t-17 43.5v54q-55 5 -106.5 23t-90.5 46q-16 10 -22.5 22.5t-6.5 31.5q0 25 15.5 44t35.5 19q19 0 47 -16q46 -27 87.5 -39.5t86.5 -12.5q60 0 92 22.5t32 63.5q0 25 -18.5 41
t-45.5 25t-78 23q-74 19 -122 38t-82.5 60t-34.5 110q0 81 57.5 139t150.5 74v57q0 27 17 43.5t43 16.5q27 0 43.5 -16.5t16.5 -43.5v-55q90 -12 169 -68q15 -10 21.5 -23t6.5 -31q0 -25 -15.5 -44t-35.5 -19q-11 0 -20.5 3t-26.5 13q-41 26 -73.5 39t-79.5 13
q-54 0 -86.5 -24t-32.5 -64q0 -28 19 -45.5t48 -27.5t81 -23q73 -18 119.5 -36.5t80 -59t33.5 -108.5q0 -81 -55.5 -136.5z" />
    <glyph glyph-name="percent" unicode="%" horiz-adv-x="954" 
d="M292 -19q-21 0 -36.5 15.5t-15.5 38.5q0 19 12 40l354 611q21 38 56 38q22 0 37.5 -15.5t15.5 -38.5q0 -19 -12 -40l-354 -611q-23 -38 -57 -38zM84.5 340.5q-48.5 55.5 -48.5 161.5q0 103 49 158.5t134 55.5q86 0 134.5 -55.5t48.5 -159.5q0 -106 -48.5 -161t-134.5 -55
t-134.5 55.5zM264 407q14 28 14 94q0 63 -14.5 91.5t-44.5 28.5t-44 -28t-14 -92q0 -65 14 -93.5t44 -28.5q31 0 45 28zM600.5 48.5q-48.5 55.5 -48.5 161.5q0 104 48.5 159t134.5 55q85 0 134 -55.5t49 -159.5q0 -105 -48.5 -160.5t-134.5 -55.5t-134.5 55.5zM780 115
q14 28 14 94q0 64 -14.5 92.5t-44.5 28.5t-44.5 -28.5t-14.5 -92.5q0 -66 14 -94t45 -28t45 28z" />
    <glyph glyph-name="ampersand" unicode="&#x26;" horiz-adv-x="691" 
d="M690 52q0 -24 -19 -42t-44 -18t-44 18l-78 72q-48 -43 -106 -66.5t-119 -23.5q-72 0 -129 25t-88.5 69.5t-31.5 102.5q0 64 34 112.5t107 89.5q-36 38 -53 74t-17 74q0 51 26 90.5t72.5 61t106.5 21.5q85 0 135 -43.5t50 -116.5q0 -54 -30 -97t-93 -80l122 -114
q27 56 34 121q3 29 21.5 44.5t42.5 15.5q27 0 45 -18t14 -49q-10 -107 -66 -199l87 -80q21 -20 21 -44zM257 592.5q-20 -19.5 -20 -52.5q0 -21 11.5 -41t40.5 -49q45 24 64 47t19 50q0 29 -17.5 47t-45.5 18q-32 0 -52 -19.5zM420 161l-167 155q-75 -46 -75 -117
q0 -43 29.5 -67.5t79.5 -24.5q71 0 133 54z" />
    <glyph glyph-name="quotesingle" unicode="'" horiz-adv-x="255" 
d="M94 414q-13 12 -17 34l-27 161q-2 16 -2 23q0 37 21.5 57.5t58.5 20.5q36 0 57 -20t21 -56q0 -16 -2 -25l-26 -161q-4 -24 -16.5 -35t-33.5 -11t-34 12z" />
    <glyph glyph-name="parenleft" unicode="(" horiz-adv-x="375" 
d="M99 263q0 222 111 400q14 23 33.5 34.5t38.5 11.5q20 0 33.5 -12.5t13.5 -33.5q0 -13 -6 -30q-36 -91 -52.5 -181t-16.5 -189t16.5 -188t52.5 -180q6 -17 6 -30q0 -21 -13.5 -33.5t-33.5 -12.5q-19 0 -38.5 11.5t-33.5 34.5q-111 178 -111 398z" />
    <glyph glyph-name="parenright" unicode=")" horiz-adv-x="375" 
d="M131.5 -169.5q-19.5 -11.5 -38.5 -11.5q-20 0 -33.5 12.5t-13.5 33.5q0 13 6 30q36 91 52.5 180t16.5 188t-16.5 189t-52.5 181q-6 17 -6 30q0 21 13.5 33.5t33.5 12.5q19 0 38.5 -11.5t33.5 -34.5q110 -176 110 -400q0 -222 -110 -398q-14 -23 -33.5 -34.5z" />
    <glyph glyph-name="asterisk" unicode="*" horiz-adv-x="454" 
d="M421.5 559q12.5 -15 12.5 -35q0 -21 -12.5 -36t-34.5 -14l-83 5l46 -69q8 -13 8 -24q0 -20 -18 -35t-39 -15q-26 0 -37 24l-37 75l-37 -75q-11 -24 -38 -24q-21 0 -38.5 15t-17.5 35q0 11 8 24l46 69l-83 -5q-22 -1 -34.5 14t-12.5 35q0 21 12.5 36t34.5 14l83 -5l-46 69
q-8 11 -8 24q0 20 17.5 34t38.5 14q26 0 38 -23l37 -75l37 75q13 24 39 24q20 0 37.5 -14.5t17.5 -34.5q0 -11 -8 -24l-46 -69l83 5q22 1 34.5 -14z" />
    <glyph glyph-name="plus" unicode="+" 
d="M529 323.5q15 -14.5 15 -36.5t-15 -37t-37 -15h-140v-141q0 -22 -15 -36.5t-37 -14.5t-37 14.5t-15 36.5v141h-140q-22 0 -37 15t-15 37t15 36.5t37 14.5h140v141q0 22 15 37t37 15t37 -15t15 -37v-141h140q22 0 37 -14.5z" />
    <glyph glyph-name="comma" unicode="," horiz-adv-x="260" 
d="M191 137.5q24 -28.5 24 -82.5q0 -104 -75 -182q-15 -15 -32 -15t-29.5 11.5t-12.5 27.5q0 15 11 26q33 34 44 76q-34 3 -55 25t-21 56q0 37 23.5 61.5t58.5 24.5q40 0 64 -28.5z" />
    <glyph glyph-name="hyphen" unicode="-" horiz-adv-x="440" 
d="M51 268q0 59 71 59h196q71 0 71 -59t-71 -59h-196q-71 0 -71 59z" />
    <glyph glyph-name="period" unicode="." horiz-adv-x="260" 
d="M69 18.5q-24 24.5 -24 61.5t24 61.5t61 24.5t61 -24.5t24 -61.5t-24 -61.5t-61 -24.5t-61 24.5z" />
    <glyph glyph-name="slash" unicode="/" horiz-adv-x="331" 
d="M84.5 -64.5q-15.5 -10.5 -34.5 -10.5q-23 0 -41 15.5t-18 39.5q0 10 3 21l229 720q7 21 22.5 31.5t33.5 10.5q24 0 42 -15.5t18 -39.5q0 -10 -3 -21l-230 -720q-6 -21 -21.5 -31.5z" />
    <glyph glyph-name="zero" unicode="0" 
d="M104.5 84q-67.5 93 -67.5 269q0 175 67.5 268t195.5 93t195.5 -93t67.5 -268q0 -176 -67.5 -269t-195.5 -93t-195.5 93zM384.5 168q26.5 58 26.5 185q0 128 -26.5 185t-84.5 57t-84.5 -57.5t-26.5 -184.5t26.5 -185t84.5 -58t84.5 58z" />
    <glyph glyph-name="one" unicode="1" 
d="M579 63q0 -63 -73 -63h-342q-74 0 -74 63q0 62 74 62h93v409l-88 -53q-15 -9 -30 -9q-25 0 -42.5 21t-17.5 47q0 35 31 53l158 95q35 21 70 21q33 0 54 -20.5t21 -55.5v-508h93q73 0 73 -62z" />
    <glyph glyph-name="two" unicode="2" horiz-adv-x="601" 
d="M566 63q0 -63 -74 -63h-372q-31 0 -49.5 18.5t-18.5 46.5q0 36 29 66l220 233q74 78 74 144q0 41 -23 62.5t-67 21.5q-38 0 -70 -13t-74 -38q-17 -10 -26 -14t-21 -4q-21 0 -36 19.5t-15 45.5q0 19 6.5 31.5t21.5 22.5q45 33 103.5 52.5t117.5 19.5q71 0 124.5 -24
t82.5 -68.5t29 -102.5q0 -61 -25.5 -113t-85.5 -116l-157 -165h232q74 0 74 -62z" />
    <glyph glyph-name="three" unicode="3" 
d="M512.5 300.5q33.5 -44.5 33.5 -108.5q0 -61 -31.5 -106t-90.5 -69.5t-137 -24.5q-65 0 -124.5 19t-102.5 53q-15 11 -21.5 24t-6.5 30q0 26 15 44.5t36 18.5q12 0 22 -3.5t25 -12.5q44 -25 76 -38t75 -13q61 0 89 22.5t28 70.5q0 47 -29 68t-93 21h-59q-26 0 -41 18
t-15 43q0 24 15 42t41 18h42q61 0 90.5 21t29.5 65q0 42 -25 65.5t-70 23.5q-37 0 -69 -13t-74 -38q-15 -9 -25 -12.5t-22 -3.5q-21 0 -36 18.5t-15 44.5q0 18 6.5 30.5t21.5 23.5q42 34 100.5 53t119.5 19q71 0 125 -23.5t83 -66.5t29 -100t-29.5 -99.5t-81.5 -61.5
q62 -18 95.5 -62.5z" />
    <glyph glyph-name="four" unicode="4" 
d="M593 189q0 -60 -73 -60h-37v-57q0 -38 -21 -58t-55 -20t-55 20t-21 58v57h-243q-31 0 -49 18.5t-18 46.5t19 56l298 426q12 17 30 25.5t38 8.5q31 0 54 -20.5t23 -56.5v-385h37q73 0 73 -59zM178 248h153v220z" />
    <glyph glyph-name="five" unicode="5" 
d="M459 427.5q51 -28.5 79 -79.5t28 -118q0 -70 -33 -124t-92.5 -84t-137.5 -30q-62 0 -121 19t-102 53q-15 11 -21 23.5t-6 30.5q0 26 14.5 44.5t35.5 18.5q12 0 22 -3.5t26 -12.5q40 -24 73 -37.5t72 -13.5q61 0 92.5 28t31.5 83q0 52 -32.5 82t-87.5 30q-34 0 -62 -8.5
t-61 -28.5q-21 -12 -42 -12q-24 0 -40.5 14.5t-16.5 38.5v291q0 35 19 54t54 19h322q74 0 74 -59q0 -60 -74 -60h-243v-157q48 27 113 27t116 -28.5z" />
    <glyph glyph-name="six" unicode="6" 
d="M461.5 429q48.5 -29 76 -81t27.5 -118q0 -69 -31 -123.5t-86 -85t-124 -30.5q-137 0 -212 91t-75 260q0 113 35 197.5t100.5 129.5t152.5 45q57 0 115 -19t99 -53q14 -11 20.5 -23.5t6.5 -30.5q0 -26 -14.5 -44.5t-35.5 -18.5q-13 0 -22.5 3.5t-25.5 12.5
q-40 24 -71.5 37.5t-64.5 13.5q-62 0 -98.5 -57t-41.5 -160q23 38 65 60.5t94 22.5q62 0 110.5 -29zM390.5 143q28.5 31 28.5 82q0 50 -28.5 81t-75.5 31t-76 -31t-29 -81t29 -81.5t76 -31.5t75.5 31z" />
    <glyph glyph-name="seven" unicode="7" 
d="M550 687q17 -18 17 -46q0 -29 -16 -57l-312 -552q-11 -21 -28.5 -31t-36.5 -10q-29 0 -52 20.5t-23 50.5q0 21 11 40l273 478h-277q-73 0 -73 62q0 63 73 63h396q31 0 48 -18z" />
    <glyph glyph-name="eight" unicode="8" 
d="M538 300.5q33 -44.5 33 -108.5q0 -94 -72 -147t-199 -53t-199 53t-72 147q0 66 33 110t95 61q-52 20 -81 62t-29 98q0 88 68 139.5t185 51.5q118 0 185.5 -51t67.5 -140q0 -57 -29 -100t-80 -60q61 -18 94 -62.5zM193 506q0 -90 107 -90t107 90q0 89 -107 89t-107 -89z
M426 204q0 93 -126 93t-126 -93t126 -93t126 93z" />
    <glyph glyph-name="nine" unicode="9" 
d="M488 623q75 -91 75 -260q0 -113 -35 -197.5t-100.5 -129.5t-152.5 -45q-57 0 -115 19t-99 53q-14 11 -20.5 23.5t-6.5 30.5q0 26 14.5 44.5t35.5 18.5q13 0 22.5 -3.5t25.5 -12.5q40 -24 71.5 -37.5t64.5 -13.5q62 0 98.5 57t41.5 160q-23 -38 -65 -60.5t-94 -22.5
q-62 0 -110.5 29t-76 81t-27.5 118q0 69 31 123.5t86 85t124 30.5q137 0 212 -91zM361 399q29 31 29 81t-29 81.5t-76 31.5t-75.5 -31t-28.5 -82q0 -50 28.5 -81t75.5 -31t76 31z" />
    <glyph glyph-name="colon" unicode=":" horiz-adv-x="260" 
d="M69 353.5q-24 24.5 -24 61.5t24 61.5t61 24.5t61 -24.5t24 -61.5t-24 -61.5t-61 -24.5t-61 24.5zM69 18.5q-24 24.5 -24 61.5t24 61.5t61 24.5t61 -24.5t24 -61.5t-24 -61.5t-61 -24.5t-61 24.5z" />
    <glyph glyph-name="semicolon" unicode=";" horiz-adv-x="260" 
d="M69 353.5q-24 24.5 -24 61.5t24 61.5t61 24.5t61 -24.5t24 -61.5t-24 -61.5t-61 -24.5t-61 24.5zM191 137.5q24 -28.5 24 -82.5q0 -104 -75 -182q-15 -15 -32 -15t-29.5 11.5t-12.5 27.5q0 15 11 26q33 34 44 76q-34 3 -55 25t-21 56q0 37 23.5 61.5t58.5 24.5
q40 0 64 -28.5z" />
    <glyph glyph-name="less" unicode="&#x3c;" 
d="M536.5 138.5q7.5 -11.5 7.5 -25.5q0 -24 -15.5 -39.5t-38.5 -15.5q-13 0 -28 6l-353 144q-25 11 -39 31.5t-14 47.5q0 26 14 47t39 31l353 144q15 6 29 6q23 0 38 -15t15 -39q0 -30 -29 -43l-327 -131l327 -131q14 -6 21.5 -17.5z" />
    <glyph glyph-name="equal" unicode="=" 
d="M77 350q-15 15 -15 37t15 36.5t37 14.5h384q22 0 37 -14.5t15 -36.5t-15 -37t-37 -15h-384q-22 0 -37 15zM77 150q-15 15 -15 37t15 36.5t37 14.5h384q22 0 37 -14.5t15 -36.5t-15 -37t-37 -15h-384q-22 0 -37 15z" />
    <glyph glyph-name="greater" unicode="&#x3e;" 
d="M530 334q14 -21 14 -47q0 -27 -14 -47.5t-39 -31.5l-353 -144q-15 -6 -28 -6q-23 0 -38.5 15.5t-15.5 39.5q0 14 7.5 25.5t21.5 17.5l327 131l-327 131q-29 13 -29 43q0 24 15 39t38 15q14 0 29 -6l353 -144q25 -10 39 -31z" />
    <glyph glyph-name="question" unicode="?" horiz-adv-x="468" 
d="M192.5 233q-12.5 15 -12.5 40q0 51 18.5 85t54.5 75q27 31 39.5 51.5t12.5 46.5q0 28 -20.5 44.5t-55.5 16.5q-32 0 -59.5 -13t-73.5 -40q-29 -16 -48 -16q-21 0 -35.5 18.5t-14.5 44.5q0 18 6.5 30.5t20.5 23.5q44 35 101.5 54.5t115.5 19.5q62 0 111.5 -22t77 -60.5
t27.5 -86.5q0 -37 -14.5 -67.5t-34.5 -53t-54 -55.5q-38 -35 -57 -58.5t-24 -52.5q-4 -19 -16.5 -29.5t-30.5 -10.5q-22 0 -34.5 15zM168 18.5q-24 24.5 -24 61.5t24 61.5t61 24.5q36 0 60 -24.5t24 -61.5t-24 -61.5t-60 -24.5q-37 0 -61 24.5z" />
    <glyph glyph-name="at" unicode="@" horiz-adv-x="939" 
d="M247 -105.5q-99 53.5 -152.5 149.5t-53.5 221q0 139 56.5 240t156.5 154t227 53q131 0 225 -49t143 -133.5t49 -189.5q0 -87 -26.5 -149.5t-73.5 -95t-107 -32.5q-53 0 -86 23t-41 61h-2q-27 -39 -60.5 -61.5t-84.5 -22.5q-74 0 -115.5 49.5t-41.5 131.5q0 71 27 129.5
t74.5 92.5t108.5 34q41 0 72 -17t44 -48h3l2 13q3 20 17.5 30.5t37.5 10.5t36 -13t13 -36q0 -10 -1 -15l-30 -170q-5 -30 -5 -47q0 -29 12 -44t39 -15q20 0 40 19t33.5 62t13.5 110q0 84 -36 147t-107 98t-173 35q-96 0 -171 -41.5t-118 -122t-43 -191.5q0 -100 39.5 -175
t114 -116t177.5 -41q65 0 112.5 13.5t92.5 42.5q16 10 30 10q20 0 33.5 -14t13.5 -33q0 -25 -24 -42q-40 -29 -108 -49t-150 -20q-134 0 -233 53.5zM509.5 173.5q28.5 24.5 43 64t14.5 83.5q0 46 -20.5 69t-57.5 23t-64 -25t-41 -64t-14 -80q0 -43 19 -69t52 -26
q40 0 68.5 24.5z" />
    <glyph glyph-name="A" unicode="A" horiz-adv-x="751" 
d="M735 63q0 -28 -22.5 -47.5t-51.5 -19.5q-19 0 -36 10.5t-26 31.5l-53 118h-339l-53 -118q-9 -21 -25.5 -31.5t-36.5 -10.5q-29 0 -52 19.5t-23 47.5q0 14 8 32l270 567q11 24 33 36.5t47 12.5q26 0 48 -13t34 -36l270 -567q8 -18 8 -32zM260 274h233l-116 260z" />
    <glyph glyph-name="B" unicode="B" horiz-adv-x="689" 
d="M617.5 302.5q33.5 -44.5 33.5 -109.5q0 -89 -65.5 -141t-180.5 -52h-262q-35 0 -54 19t-19 54v559q0 35 19 54t54 19h252q110 0 174.5 -49t64.5 -134q0 -55 -29.5 -96.5t-81.5 -60.5q61 -18 94.5 -62.5zM222 418h147q60 0 88.5 20.5t28.5 62.5q0 44 -28.5 64.5
t-88.5 20.5h-147v-168zM477 140q28 21 28 68t-28 69t-90 22h-165v-180h165q62 0 90 21z" />
    <glyph glyph-name="C" unicode="C" horiz-adv-x="678" 
d="M212 35q-78 44 -120 126t-42 192t42 191.5t120 125.5t182 44q131 0 226 -72q15 -12 21 -24t6 -30q0 -26 -14.5 -44.5t-35.5 -18.5q-14 0 -24.5 3.5t-23.5 12.5q-40 26 -74 37.5t-73 11.5q-96 0 -144.5 -59.5t-48.5 -177.5q0 -238 193 -238q37 0 70 11.5t77 37.5
q15 9 25 12.5t23 3.5q21 0 35.5 -18.5t14.5 -44.5q0 -18 -6.5 -30.5t-20.5 -23.5q-95 -72 -226 -72q-104 0 -182 44z" />
    <glyph glyph-name="D" unicode="D" horiz-adv-x="763" 
d="M89 19q-19 19 -19 54v559q0 35 19 54t54 19h201q115 0 198 -42t127 -121t44 -189t-43.5 -189.5t-126.5 -121.5t-199 -42h-201q-35 0 -54 19zM333 126q225 0 225 227q0 226 -225 226h-107v-453h107z" />
    <glyph glyph-name="E" unicode="E" horiz-adv-x="593" 
d="M89 19q-19 19 -19 54v559q0 35 19 54t54 19h354q74 0 74 -60q0 -61 -74 -61h-275v-165h255q74 0 74 -61q0 -60 -74 -60h-255v-177h275q74 0 74 -61q0 -60 -74 -60h-354q-35 0 -54 19z" />
    <glyph glyph-name="F" unicode="F" horiz-adv-x="572" 
d="M91.5 15.5q-21.5 21.5 -21.5 56.5v560q0 35 19 54t54 19h344q38 0 56 -15t18 -47q0 -31 -18 -46t-56 -15h-263v-162h243q38 0 56 -15t18 -47q0 -31 -18 -46t-56 -15h-243v-225q0 -36 -20.5 -57t-55.5 -21t-56.5 21.5z" />
    <glyph glyph-name="G" unicode="G" horiz-adv-x="738" 
d="M659.5 373.5q16.5 -15.5 16.5 -42.5v-195q0 -40 -6.5 -62t-22.5 -35t-48 -22q-39 -12 -89.5 -19t-95.5 -7q-112 0 -194 43.5t-126 125t-44 193.5q0 110 43.5 191.5t124.5 125.5t189 44q139 0 230 -72q15 -12 21 -24t6 -30q0 -26 -14.5 -44.5t-34.5 -18.5q-13 0 -23.5 4
t-25.5 13q-42 26 -77 37t-77 11q-204 0 -204 -237q0 -122 53 -182t160 -60q58 0 115 15v155h-92q-29 0 -45 14t-16 40t16 40t45 14h171q28 0 44.5 -15.5z" />
    <glyph glyph-name="H" unicode="H" horiz-adv-x="771" 
d="M680 689q21 -21 21 -56v-561q0 -35 -21 -56.5t-56 -21.5t-55.5 21t-20.5 57v224h-325v-224q0 -35 -21 -56.5t-55 -21.5q-35 0 -56 21t-21 57v561q0 35 21 56t56 21t55.5 -21t20.5 -56v-213h325v213q0 35 20.5 56t55.5 21t56 -21z" />
    <glyph glyph-name="I" unicode="I" horiz-adv-x="296" 
d="M91 15q-21 21 -21 57v561q0 35 21 56t57 21t57 -21t21 -56v-561q0 -36 -21 -57t-57 -21t-57 21z" />
    <glyph glyph-name="J" unicode="J" horiz-adv-x="377" 
d="M7.5 8q-23.5 16 -23.5 49q0 30 15 44.5t47 16.5l32 2q72 3 72 85v428q0 35 22 56t57 21t56.5 -21t21.5 -56v-426q0 -198 -198 -211l-32 -2q-46 -2 -69.5 14z" />
    <glyph glyph-name="K" unicode="K" horiz-adv-x="678" 
d="M664 67q0 -28 -21.5 -49t-49.5 -21q-32 0 -57 26l-310 303v-254q0 -36 -21 -57t-57 -21t-57 21t-21 57v561q0 35 21 56t57 21t57 -21t21 -56v-239l302 293q22 22 50 22t49 -20.5t21 -48.5q0 -29 -24 -52l-238 -223l255 -248q23 -23 23 -50z" />
    <glyph glyph-name="L" unicode="L" horiz-adv-x="563" 
d="M89 19q-19 19 -19 54v560q0 35 21 56t57 21t57 -21t21 -56v-506h256q73 0 73 -64q0 -63 -73 -63h-339q-35 0 -54 19z" />
    <glyph glyph-name="M" unicode="M" horiz-adv-x="842" 
d="M749.5 688.5q20.5 -21.5 20.5 -55.5v-568q0 -33 -19 -52t-50 -19q-30 0 -49 19t-19 52v353l-142 -267q-14 -26 -30.5 -38t-39.5 -12q-22 0 -39 12t-31 38l-142 262v-348q0 -32 -19 -51.5t-50 -19.5q-30 0 -49 19t-19 52v568q0 34 20.5 55.5t53.5 21.5q48 0 73 -51
l203 -385l202 385q27 51 72 51q33 0 53.5 -21.5z" />
    <glyph glyph-name="N" unicode="N" horiz-adv-x="752" 
d="M661.5 688.5q20.5 -21.5 20.5 -55.5v-561q0 -35 -20.5 -56.5t-53.5 -21.5q-36 0 -58 26l-335 429v-377q0 -35 -19.5 -56.5t-52.5 -21.5t-53 21.5t-20 56.5v561q0 34 20.5 55.5t53.5 21.5q37 0 57 -26l335 -426v375q0 34 20 55.5t52 21.5q33 0 53.5 -21.5z" />
    <glyph glyph-name="O" unicode="O" horiz-adv-x="787" 
d="M211.5 35.5q-77.5 44.5 -119.5 126t-42 191.5t42 191.5t119.5 125.5t182.5 44t182.5 -44t119.5 -125.5t42 -191.5t-42 -191.5t-119.5 -126t-182.5 -44.5t-182.5 44.5zM532.5 174q50.5 62 50.5 179t-50 178.5t-139 61.5t-138.5 -61.5t-49.5 -178.5t50 -179t138 -62
t138.5 62z" />
    <glyph glyph-name="P" unicode="P" horiz-adv-x="668" 
d="M91 15q-21 21 -21 57v560q0 35 19 54t54 19h251q115 0 179 -58t64 -162t-64 -162t-179 -58h-168v-193q0 -36 -21 -57t-57 -21t-57 21zM374 383q117 0 117 101q0 102 -117 102h-148v-203h148z" />
    <glyph glyph-name="Q" unicode="Q" horiz-adv-x="787" 
d="M670 -80q14 -22 14 -43q0 -27 -22.5 -45t-52.5 -18q-21 0 -39.5 10t-29.5 29l-60 100q-12 20 -32 29t-54 9q-105 0 -182.5 44.5t-119.5 126t-42 191.5t42 191.5t119.5 125.5t182.5 44t182.5 -44t119.5 -125.5t42 -191.5q0 -115 -45.5 -198.5t-129.5 -124.5q49 -15 79 -64
zM532.5 174q50.5 62 50.5 179t-50 178.5t-139 61.5t-138.5 -61.5t-49.5 -178.5t50 -179t138 -62t138.5 62z" />
    <glyph glyph-name="R" unicode="R" horiz-adv-x="701" 
d="M663 56q0 -28 -22.5 -46t-52.5 -18q-19 0 -37 9t-30 28l-132 196q-17 26 -36 37.5t-48 11.5h-81v-202q0 -36 -20.5 -57t-55.5 -21q-36 0 -57 21t-21 57v560q0 35 19 54t54 19h251q124 0 187.5 -54.5t63.5 -157.5q0 -81 -45 -135t-127 -71q30 -6 53.5 -23.5t45.5 -50.5
l76 -114q15 -22 15 -43zM468 415.5q30 23.5 30 73.5q0 51 -30 74t-97 23h-149v-194h149q67 0 97 23.5z" />
    <glyph glyph-name="S" unicode="S" horiz-adv-x="651" 
d="M177 9.5q-68 18.5 -111 52.5q-15 11 -21.5 23.5t-6.5 31.5q0 25 15.5 44t35.5 19q11 0 21.5 -3.5t25.5 -12.5q43 -27 87 -39.5t97 -12.5q66 0 101 22t35 63q0 31 -32.5 50t-115.5 36q-93 19 -148.5 46t-81 67t-25.5 97q0 63 36.5 113.5t101 79t145.5 28.5q142 0 234 -71
q15 -12 21.5 -24.5t6.5 -30.5q0 -25 -15.5 -44t-35.5 -19q-11 0 -20.5 3t-26.5 13q-41 26 -75.5 39t-87.5 13q-61 0 -96 -23.5t-35 -64.5q0 -24 13.5 -39.5t45 -27.5t89.5 -25q136 -30 195.5 -77t59.5 -129q0 -64 -35.5 -113t-100 -76t-149.5 -27q-79 0 -147 18.5z" />
    <glyph glyph-name="T" unicode="T" horiz-adv-x="622" 
d="M254.5 16q-21.5 21 -21.5 56v506h-162q-74 0 -74 64q0 63 74 63h480q74 0 74 -63q0 -64 -74 -64h-162v-506q0 -35 -21 -56t-57 -21q-35 0 -56.5 21z" />
    <glyph glyph-name="U" unicode="U" horiz-adv-x="739" 
d="M143.5 67.5q-77.5 76.5 -77.5 223.5v342q0 35 21 56t56 21t55.5 -21t20.5 -56v-349q0 -84 38.5 -128t111.5 -44t112 44.5t39 127.5v349q0 35 20.5 56t55.5 21t56 -21t21 -56v-342q0 -146 -78 -223t-226 -77t-225.5 76.5z" />
    <glyph glyph-name="V" unicode="V" horiz-adv-x="728" 
d="M606 700.5q17 10.5 38 10.5q30 0 54 -20t24 -49q0 -15 -7 -30l-270 -570q-11 -23 -33 -35.5t-48 -12.5t-48 12.5t-33 35.5l-270 570q-7 14 -7 29q0 30 25 50t56 20q21 0 38.5 -10.5t26.5 -31.5l214 -468l214 468q9 21 26 31.5z" />
    <glyph glyph-name="W" unicode="W" horiz-adv-x="1115" 
d="M971.5 699.5q18.5 12.5 41.5 12.5q29 0 49.5 -18t20.5 -49q0 -15 -6 -33l-208 -569q-9 -24 -31.5 -37.5t-49.5 -13.5t-49 13.5t-31 37.5l-149 421l-153 -421q-9 -24 -31 -37.5t-49 -13.5q-26 0 -48.5 13.5t-31.5 37.5l-208 569q-6 17 -6 32q0 31 22 49.5t52 18.5
q24 0 43.5 -12.5t28.5 -36.5l154 -443l160 441q9 24 28.5 37t41.5 13q23 0 42 -13t28 -38l153 -448l159 451q9 24 27.5 36.5z" />
    <glyph glyph-name="X" unicode="X" horiz-adv-x="675" 
d="M651 66q0 -29 -22.5 -50.5t-51.5 -21.5q-30 0 -51 25l-188 230l-190 -230q-22 -25 -51 -25q-28 0 -50.5 21.5t-22.5 50.5q0 25 18 46l205 244l-198 237q-19 22 -19 46q0 29 22.5 50.5t50.5 21.5q30 0 52 -26l183 -221l181 221q22 26 52 26q28 0 50.5 -21.5t22.5 -50.5
q0 -25 -18 -46l-198 -237l204 -244q19 -22 19 -46z" />
    <glyph glyph-name="Y" unicode="Y" horiz-adv-x="636" 
d="M561 711q28 0 50.5 -21.5t22.5 -49.5q0 -25 -19 -47l-219 -260v-261q0 -38 -22 -58t-55 -20q-35 0 -57 20t-22 58v261l-217 260q-19 20 -19 47q0 28 21.5 49.5t49.5 21.5q30 0 52 -26l191 -233l191 233q22 26 52 26z" />
    <glyph glyph-name="Z" unicode="Z" horiz-adv-x="610" 
d="M572 108q18 -15 18 -46q0 -32 -18 -47t-56 -15h-413q-31 0 -49.5 18.5t-18.5 46.5q0 29 20 56l333 461h-278q-38 0 -56 15t-18 46q0 32 18 47t56 15h398q31 0 49.5 -18.5t18.5 -46.5q0 -30 -19 -56l-334 -461h293q38 0 56 -15z" />
    <glyph glyph-name="bracketleft" unicode="[" horiz-adv-x="373" 
d="M139 -145q-35 35 -35 98v619q0 63 35 98t98 35h79q24 0 40.5 -14.5t16.5 -41.5q0 -28 -16.5 -42.5t-40.5 -14.5h-23q-21 0 -31 -9.5t-10 -33.5v-573q0 -24 10 -33.5t31 -9.5h23q24 0 40.5 -14.5t16.5 -42.5q0 -27 -16.5 -41.5t-40.5 -14.5h-79q-63 0 -98 35z" />
    <glyph glyph-name="backslash" unicode="\" horiz-adv-x="330" 
d="M-6 687q-4 14 -4 21q0 24 18 39.5t42 15.5q19 0 34 -10.5t22 -31.5l230 -720q3 -11 3 -20q0 -25 -18 -40.5t-42 -15.5q-19 0 -34 10.5t-22 31.5z" />
    <glyph glyph-name="bracketright" unicode="]" horiz-adv-x="373" 
d="M16.5 -165.5q-16.5 14.5 -16.5 41.5q0 28 16.5 42.5t39.5 14.5h24q21 0 31 9.5t10 33.5v573q0 24 -10 33.5t-31 9.5h-24q-23 0 -39.5 14.5t-16.5 42.5q0 27 16.5 41.5t39.5 14.5h80q62 0 97 -35t35 -98v-619q0 -63 -35 -98t-97 -35h-80q-23 0 -39.5 14.5z" />
    <glyph glyph-name="asciicircum" unicode="^" 
d="M529 195q0 -23 -17 -37.5t-38 -14.5q-13 0 -24.5 7t-17.5 21l-132 327l-132 -327q-11 -28 -41 -28q-21 0 -38.5 15t-17.5 38q0 13 6 26l145 357q11 24 31.5 38t46.5 14t47 -14t31 -38l145 -357q6 -15 6 -27z" />
    <glyph glyph-name="underscore" unicode="_" horiz-adv-x="500" 
d="M15.5 -75.5q-15.5 11.5 -15.5 31.5t15.5 32t41.5 12h386q26 0 41.5 -12t15.5 -32t-15.5 -31.5t-41.5 -11.5h-386q-26 0 -41.5 11.5z" />
    <glyph glyph-name="grave" unicode="`" horiz-adv-x="300" 
d="M-1 648q-32 24 -32 54q0 25 18.5 42.5t44.5 17.5q36 0 60 -34l86 -115q9 -13 9 -26q0 -16 -11 -27t-27 -11q-13 0 -26 10z" />
    <glyph glyph-name="a" unicode="a" horiz-adv-x="546" 
d="M439 450.5q52 -52.5 52 -160.5v-226q0 -33 -19 -51.5t-53 -18.5q-32 0 -51.5 19.5t-19.5 50.5v7q-15 -37 -50 -58t-82 -21q-50 0 -90.5 20t-64 56t-23.5 80q0 54 27.5 85t88.5 45t167 14h26v18q0 42 -18.5 61t-61.5 19t-124 -30q-23 -11 -39 -11q-22 0 -35 15.5t-13 40.5
q0 20 9 33t29 24q35 19 85.5 30t99.5 11q108 0 160 -52.5zM320 125.5q27 29.5 27 76.5v17h-17q-81 0 -113.5 -13t-32.5 -47q0 -28 18.5 -45.5t46.5 -17.5q44 0 71 29.5z" />
    <glyph glyph-name="b" unicode="b" horiz-adv-x="613" 
d="M475 472q49 -31 76.5 -88.5t27.5 -133.5t-27.5 -134.5t-77 -91t-112.5 -32.5q-51 0 -92 21.5t-63 59.5v-8q0 -32 -20 -51.5t-54 -19.5t-54.5 19.5t-20.5 51.5v576q0 31 21.5 50t56.5 19q33 0 53 -18t20 -48v-219q22 37 62.5 57.5t90.5 20.5q64 0 113 -31zM400 144.5
q29 37.5 29 105.5q0 67 -29 102.5t-82 35.5t-82 -36.5t-29 -103.5q0 -68 29 -104.5t82 -36.5t82 37.5z" />
    <glyph glyph-name="c" unicode="c" horiz-adv-x="494" 
d="M152 23q-57 31 -87.5 88t-30.5 134t32.5 135.5t91.5 90.5t136 32q40 0 80.5 -11t72.5 -31q31 -19 31 -56q0 -26 -12 -42.5t-32 -16.5q-13 0 -24.5 4.5t-30.5 13.5q-21 11 -37.5 17t-37.5 6q-56 0 -85.5 -35.5t-29.5 -103.5t29.5 -104t85.5 -36q21 0 37 5.5t39 17.5
q19 9 30 13.5t24 4.5q19 0 31.5 -17t12.5 -43q0 -37 -31 -55q-32 -20 -74 -31t-88 -11q-76 0 -133 31z" />
    <glyph glyph-name="d" unicode="d" horiz-adv-x="613" 
d="M533.5 691q21.5 -19 21.5 -50v-576q0 -32 -20.5 -51.5t-54.5 -19.5t-54.5 19.5t-20.5 51.5v8q-22 -38 -62.5 -59.5t-91.5 -21.5q-63 0 -112.5 32.5t-77 91t-27.5 134.5t27.5 133.5t76.5 88.5t113 31q50 0 90.5 -21t62.5 -59v221q0 30 20 48t53 18q35 0 56.5 -19z
M376.5 143.5q28.5 36.5 28.5 104.5t-28.5 104t-81.5 36t-82 -35.5t-29 -102.5q0 -68 29 -105.5t82 -37.5t81.5 36.5z" />
    <glyph glyph-name="e" unicode="e" horiz-adv-x="533" 
d="M484.5 130q12.5 -16 12.5 -41q0 -17 -10 -31.5t-28 -24.5q-34 -18 -79 -29.5t-83 -11.5q-80 0 -139.5 31t-91.5 88.5t-32 135.5q0 75 31 133t86 90.5t125 32.5q67 0 117.5 -29.5t78.5 -84t28 -127.5q0 -22 -10.5 -33.5t-29.5 -11.5h-280q7 -59 36 -85.5t83 -26.5
q29 0 52 7t51 19q14 6 27 10.5t23 4.5q20 0 32.5 -16zM211 371.5q-26 -27.5 -31 -79.5h193q-3 53 -26.5 80t-66.5 27t-69 -27.5z" />
    <glyph glyph-name="f" unicode="f" horiz-adv-x="376" 
d="M266 570q-18 -22 -18 -62v-17h70q68 0 68 -57q0 -56 -68 -56h-70v-312q0 -35 -21.5 -53t-53.5 -18q-33 0 -54.5 18t-21.5 53v312h-40q-67 0 -67 56q0 57 67 57h40q0 96 53 151t146 62l26 2l18 1q69 0 69 -53q0 -52 -58 -57l-26 -2q-41 -3 -59 -25z" />
    <glyph glyph-name="g" unicode="g" horiz-adv-x="617" 
d="M538.5 481.5q20.5 -19.5 20.5 -51.5v-377q0 -119 -69 -180t-202 -61q-112 0 -184 40q-18 10 -28 24.5t-10 32.5q0 25 12 41t32 16q11 0 26 -4.5t31 -10.5q32 -12 59 -19t58 -7q64 0 95 29t31 88v54q-21 -38 -63 -60t-94 -22q-64 0 -113.5 30t-77.5 85.5t-28 128.5
t28 128.5t77.5 86t113.5 30.5q51 0 92.5 -21.5t63.5 -59.5v10q0 32 20.5 50.5t54.5 18.5t54.5 -19.5zM379.5 163q29.5 34 29.5 95t-29.5 95.5t-82.5 34.5t-83 -34.5t-30 -95.5t30 -95t83 -34t82.5 34z" />
    <glyph glyph-name="h" unicode="h" horiz-adv-x="595" 
d="M540 296v-231q0 -33 -20.5 -52t-55.5 -19t-55 19t-20 52v233q0 44 -18.5 65.5t-57.5 21.5q-47 0 -75.5 -30t-28.5 -80v-210q0 -33 -20 -52t-55 -19t-55.5 19t-20.5 52v576q0 31 21.5 50t56.5 19q33 0 53 -18t20 -48v-218q26 38 67 57.5t93 19.5q171 0 171 -207z" />
    <glyph glyph-name="i" unicode="i" horiz-adv-x="267" 
d="M79.5 12q-21.5 18 -21.5 53v365q0 35 22 53t54 18t53.5 -18t21.5 -53v-365q0 -35 -21.5 -53t-53.5 -18q-33 0 -54.5 18zM71 601.5q-23 20.5 -23 55.5t23 55t63 20q39 0 62.5 -20.5t23.5 -54.5q0 -35 -23 -55.5t-63 -20.5t-63 20.5z" />
    <glyph glyph-name="j" unicode="j" horiz-adv-x="267" 
d="M-59 -170.5q-24 14.5 -24 44.5q0 49 59 53l28 2q26 2 40 17.5t14 45.5v438q0 35 22 53t54 18t53.5 -18t21.5 -53v-427q0 -170 -174 -183l-28 -2q-42 -3 -66 11.5zM70 601.5q-23 20.5 -23 55.5t23 55t63 20q39 0 62.5 -20.5t23.5 -54.5q0 -35 -23 -55.5t-63 -20.5
t-63 20.5z" />
    <glyph glyph-name="k" unicode="k" horiz-adv-x="558" 
d="M544 67q0 -28 -20.5 -50t-47.5 -22q-26 0 -48 21l-219 203v-153q0 -35 -21.5 -53t-53.5 -18q-33 0 -54.5 18t-21.5 53v573q0 35 21.5 53t54.5 18q32 0 53.5 -18t21.5 -53v-358l200 197q22 22 49 22q28 0 49 -20.5t21 -48.5q0 -26 -23 -49l-133 -127l149 -138
q23 -22 23 -50z" />
    <glyph glyph-name="l" unicode="l" horiz-adv-x="267" 
d="M79.5 12q-21.5 18 -21.5 53v574q0 35 21.5 53t54.5 18q32 0 53.5 -18t21.5 -53v-574q0 -35 -21.5 -53t-53.5 -18q-33 0 -54.5 18z" />
    <glyph glyph-name="m" unicode="m" horiz-adv-x="885" 
d="M786 454.5q43 -48.5 43 -158.5v-231q0 -35 -21 -53t-54 -18q-32 0 -54 18t-22 53v233q0 48 -16.5 67.5t-50.5 19.5q-42 0 -67 -29t-25 -81v-210q0 -35 -21 -53t-54 -18q-32 0 -54 18t-22 53v233q0 48 -16.5 67.5t-50.5 19.5q-42 0 -67 -29t-25 -81v-210q0 -35 -21.5 -53
t-53.5 -18t-54 18t-22 53v367q0 33 22.5 51t54.5 18q30 0 50 -17.5t20 -48.5v-10q24 38 62.5 58t87.5 20q53 0 89.5 -21.5t56.5 -69.5q23 42 65.5 66.5t96.5 24.5q80 0 123 -48.5z" />
    <glyph glyph-name="n" unicode="n" horiz-adv-x="595" 
d="M497 451.5q43 -51.5 43 -155.5v-231q0 -33 -20.5 -52t-55.5 -19t-55 19t-20 52v224q0 50 -18.5 73t-57.5 23q-47 0 -75.5 -30t-28.5 -80v-210q0 -33 -20 -52t-55 -19t-55.5 19t-20.5 52v367q0 31 21.5 50t55.5 19q31 0 50.5 -18.5t19.5 -47.5v-14q26 40 67.5 61t93.5 21
q88 0 131 -51.5z" />
    <glyph glyph-name="o" unicode="o" horiz-adv-x="588" 
d="M157 23.5q-59 31.5 -91 89t-32 135.5t32 135.5t91 88.5t137 31t137 -31t91 -88.5t32 -135.5t-32 -135.5t-91 -89t-137 -31.5t-137 31.5zM404 248q0 71 -28.5 106t-81.5 35q-110 0 -110 -141t110 -141t110 141z" />
    <glyph glyph-name="p" unicode="p" horiz-adv-x="613" 
d="M474.5 470.5q49.5 -32.5 77 -91t27.5 -134.5t-27.5 -133.5t-76.5 -88.5t-113 -31q-50 0 -90.5 20.5t-62.5 57.5v-189q0 -30 -20 -48t-53 -18q-35 0 -56.5 19t-21.5 50v546q0 32 20.5 51.5t54.5 19.5t54 -19.5t20 -51.5v-8q22 38 63 59.5t92 21.5q63 0 112.5 -32.5z
M400 142.5q29 35.5 29 102.5q0 68 -29 105.5t-82 37.5t-82 -36.5t-29 -104.5q0 -67 29 -103.5t82 -36.5t82 35.5z" />
    <glyph glyph-name="q" unicode="q" horiz-adv-x="613" 
d="M534.5 481.5q20.5 -19.5 20.5 -51.5v-546q0 -31 -21.5 -50t-56.5 -19q-33 0 -53 18t-20 48v190q-22 -37 -62.5 -58t-90.5 -21q-64 0 -113 31t-76.5 88.5t-27.5 133.5t27.5 134.5t77 91t112.5 32.5q51 0 91.5 -21.5t62.5 -59.5v8q0 32 20.5 51.5t54.5 19.5t54.5 -19.5z
M376.5 143q28.5 36 28.5 104t-28.5 104.5t-81.5 36.5t-82 -37.5t-29 -105.5q0 -67 29 -102.5t82 -35.5t81.5 36z" />
    <glyph glyph-name="r" unicode="r" horiz-adv-x="401" 
d="M398.5 487.5q17.5 -15.5 17.5 -46.5q0 -33 -16 -49t-57 -20l-30 -3q-55 -6 -79.5 -36t-24.5 -77v-191q0 -35 -21.5 -53t-53.5 -18q-33 0 -54.5 18t-21.5 53v367q0 33 22 51t53 18q30 0 50 -17.5t20 -48.5v-27q18 43 54.5 66t79.5 26l14 1q30 2 47.5 -13.5z" />
    <glyph glyph-name="s" unicode="s" horiz-adv-x="487" 
d="M138 2q-45 10 -79 32q-15 9 -23 24t-8 34q0 23 13 38.5t32 15.5q13 0 26 -4.5t27 -10.5q28 -13 55 -20.5t67 -7.5q35 0 54.5 11t19.5 30q0 14 -8.5 22.5t-31.5 15.5t-73 17q-89 17 -128 51t-39 95q0 45 27.5 81t75.5 56.5t108 20.5q43 0 84 -11t73 -31q31 -19 31 -56
q0 -24 -13 -40t-32 -16q-23 0 -55 18q-25 13 -45.5 19.5t-48.5 6.5q-31 0 -49 -11.5t-18 -31.5q0 -21 21 -32t81 -22q67 -13 105 -31.5t55 -46.5t17 -71q0 -71 -58.5 -113t-156.5 -42q-61 0 -106 10z" />
    <glyph glyph-name="t" unicode="t" horiz-adv-x="387" 
d="M375 89q14 -13 14 -38q0 -29 -23 -44t-66 -12l-28 2q-175 14 -175 183v198h-40q-33 0 -50 14.5t-17 41.5q0 28 17 42.5t50 14.5h40v78q0 33 20.5 52t55.5 19t55 -19t20 -52v-78h70q68 0 68 -57q0 -27 -17 -41.5t-51 -14.5h-70v-209q0 -30 14 -45.5t41 -17.5l28 -2
q30 -2 44 -15z" />
    <glyph glyph-name="u" unicode="u" horiz-adv-x="589" 
d="M510.5 482q20.5 -19 20.5 -52v-367q0 -31 -21.5 -50t-55.5 -19q-32 0 -51 18t-19 48v10q-23 -38 -60.5 -58t-84.5 -20q-93 0 -138.5 51.5t-45.5 155.5v231q0 33 20.5 52t55.5 19t55 -19t20 -52v-234q0 -44 18.5 -65t56.5 -21q44 0 71.5 30t27.5 79v211q0 33 20 52t55 19
t55.5 -19z" />
    <glyph glyph-name="v" unicode="v" horiz-adv-x="534" 
d="M419.5 489.5q16.5 10.5 35.5 10.5q28 0 50 -18.5t22 -44.5q0 -15 -7 -29l-180 -369q-10 -22 -30 -33.5t-43 -11.5t-43 11.5t-31 33.5l-180 369q-6 14 -6 27q0 27 23.5 46t52.5 19q21 0 38 -10.5t27 -31.5l123 -269l122 269q10 21 26.5 31.5z" />
    <glyph glyph-name="w" unicode="w" horiz-adv-x="863" 
d="M743 489q16 11 34 11q28 0 50 -19t22 -47q0 -12 -6 -27l-164 -368q-9 -22 -29 -33.5t-42 -11.5q-23 0 -42.5 11.5t-28.5 33.5l-107 249l-103 -249q-9 -22 -28 -33.5t-43 -11.5q-23 0 -43 11.5t-29 33.5l-163 368q-6 14 -6 27q0 28 23.5 47t53.5 19q20 0 36.5 -11
t25.5 -32l107 -269l109 267q9 21 26.5 32.5t38.5 11.5t39 -11t27 -33l111 -267l106 269q9 21 25 32z" />
    <glyph glyph-name="x" unicode="x" horiz-adv-x="540" 
d="M518 61q0 -27 -20.5 -47.5t-47.5 -20.5t-50 24l-130 140l-129 -140q-23 -24 -50 -24q-28 0 -48.5 20.5t-20.5 48.5q0 26 22 49l135 141l-126 131q-22 23 -22 49q0 28 20.5 48t47.5 20q28 0 51 -24l120 -128l121 128q23 24 51 24q27 0 47.5 -20t20.5 -48q0 -26 -22 -49
l-127 -131l135 -141q22 -23 22 -50z" />
    <glyph glyph-name="y" unicode="y" horiz-adv-x="534" 
d="M418.5 489q16.5 10 35.5 10q29 0 51 -18.5t22 -44.5q0 -14 -7 -28l-269 -552q-10 -21 -27 -31.5t-36 -10.5q-28 0 -49 18t-21 44q0 16 7 30l66 137l-178 365q-6 14 -6 27q0 27 23.5 46t53.5 19q20 0 37 -10.5t27 -31.5l124 -270l121 270q9 21 25.5 31z" />
    <glyph glyph-name="z" unicode="z" horiz-adv-x="514" 
d="M495 56q0 -56 -68 -56h-324q-30 0 -49 19t-19 45q0 30 21 52l234 262h-192q-68 0 -68 56q0 57 68 57h312q31 0 49.5 -19t18.5 -46q0 -30 -21 -52l-233 -261h203q68 0 68 -57z" />
    <glyph glyph-name="braceleft" unicode="{" horiz-adv-x="410" 
d="M393.5 -81.5q16.5 -14.5 16.5 -42.5q0 -27 -16.5 -41.5t-40.5 -14.5h-79q-63 0 -98 35t-35 98v174q0 39 -13.5 56.5t-46.5 20.5q-27 2 -41.5 17.5t-14.5 41.5q0 24 14.5 39.5t41.5 17.5q33 3 46.5 20.5t13.5 56.5v175q0 63 35 98t98 35h79q24 0 40.5 -14.5t16.5 -41.5
q0 -28 -16.5 -42.5t-40.5 -14.5h-23q-21 0 -31 -9.5t-10 -33.5v-170q0 -45 -25 -77t-58 -40q33 -8 58 -40t25 -77v-169q0 -24 10 -33.5t31 -9.5h23q24 0 40.5 -14.5z" />
    <glyph glyph-name="bar" unicode="|" horiz-adv-x="290" 
d="M95 -165.5q-20 19.5 -20 50.5v755q0 31 19.5 50.5t50.5 19.5q30 0 50 -19.5t20 -50.5v-755q0 -31 -19.5 -50.5t-50.5 -19.5q-30 0 -50 19.5z" />
    <glyph glyph-name="braceright" unicode="}" horiz-adv-x="410" 
d="M370.5 302.5q14.5 -15.5 14.5 -39.5q0 -26 -14.5 -41.5t-41.5 -17.5q-33 -3 -46.5 -20.5t-13.5 -56.5l-1 -174q0 -63 -35 -98t-97 -35h-80q-23 0 -39.5 14.5t-16.5 41.5q0 28 16.5 42.5t39.5 14.5h24q21 0 31 9.5t10 33.5v169q0 45 25 77t58 40q-33 8 -58 40t-25 77v170
q0 24 -10 33.5t-31 9.5h-24q-23 0 -39.5 14.5t-16.5 42.5q0 27 16.5 41.5t39.5 14.5h80q62 0 97 -35t35 -98v-175q0 -39 13.5 -56.5t47.5 -20.5q27 -2 41.5 -17.5z" />
    <glyph glyph-name="asciitilde" unicode="~" 
d="M349 214.5q-29 10.5 -66 29.5q-31 15 -48 22t-32 7q-25 0 -46 -19q-24 -24 -45 -24q-11 0 -24 8q-9 6 -14.5 16.5t-5.5 21.5q0 14 7 25q20 33 51.5 51t66.5 18q29 0 58 -10.5t66 -29.5q28 -14 46 -21t34 -7q25 0 46 18q22 24 43 24q13 0 25 -8q10 -7 15.5 -17.5
t5.5 -22.5q0 -13 -7 -24q-21 -32 -52 -50t-66 -18q-29 0 -58 10.5z" />
    <glyph glyph-name="uni00A0" unicode="&#xa0;" horiz-adv-x="279" 
 />
    <glyph glyph-name="exclamdown" unicode="&#xa1;" horiz-adv-x="260" 
d="M69 353.5q-24 24.5 -24 61.5t24 61.5t61 24.5t61 -24.5t24 -61.5t-24 -61.5t-61 -24.5t-61 24.5zM66.5 -164.5q-24.5 21.5 -24.5 58.5q0 10 1 16l41 320q3 23 15.5 35t30.5 12t30.5 -12t14.5 -35l42 -321q1 -6 1 -16q0 -37 -24.5 -58t-63.5 -21t-63.5 21.5z" />
    <glyph glyph-name="cent" unicode="&#xa2;" 
d="M509.5 132q12.5 -17 12.5 -43q0 -36 -32 -55q-47 -30 -115 -39v-55q0 -27 -16.5 -43.5t-43.5 -16.5q-26 0 -43 16.5t-17 43.5v60q-84 20 -131 84.5t-47 160.5q0 94 47.5 159t130.5 88v62q0 27 17 44t43 17q27 0 43.5 -17t16.5 -44v-54q67 -8 115 -39q31 -18 31 -56
q0 -26 -12 -42.5t-32 -16.5q-13 0 -24 4.5t-30 13.5q-23 12 -39 17.5t-37 5.5q-56 0 -85.5 -35.5t-29.5 -103.5t29.5 -104t85.5 -36q21 0 37 5.5t39 17.5q19 9 30 13.5t24 4.5q20 0 32.5 -17z" />
    <glyph glyph-name="sterling" unicode="&#xa3;" 
d="M584 63q0 -32 -18 -47.5t-56 -15.5h-410q-73 0 -73 63q0 62 73 62h14v182h-39q-21 0 -34.5 13t-13.5 33t13.5 33t34.5 13h39v115q0 59 28 104.5t79.5 70.5t119.5 25q58 0 116.5 -19.5t99.5 -52.5q15 -12 21 -24t6 -30q0 -26 -14.5 -44.5t-35.5 -18.5q-13 0 -23 3.5
t-25 12.5q-42 25 -73 38t-65 13q-38 0 -59 -23t-21 -65v-105h128q21 0 34.5 -13t13.5 -33t-13.5 -33t-34.5 -13h-128v-182h242q74 0 74 -62z" />
    <glyph glyph-name="currency" unicode="&#xa4;" 
d="M88 40q-8 12 -8 27q1 11 10 18l39 39q-42 52 -42 126q0 69 40 124l-31 30q-9 9 -12.5 16.5t-3.5 17.5q0 12 10.5 22t23.5 10q6 0 12.5 -4.5t10 -8.5t5.5 -6l33 -30q53 34 125 34q73 0 126 -34l32 30q17 17 31 17q11 0 21 -9t11 -21q0 -11 -4 -18t-12 -16l-32 -30
q20 -26 30.5 -58t10.5 -66q0 -71 -43 -126l30 -27q11 -13 15 -20.5t5 -19.5q-2 -15 -12.5 -22.5t-25.5 -7.5q-10 2 -25 19l-36 33q-49 -31 -122 -31t-122 31l-32 -29q-11 -13 -18 -18t-17 -5q-15 1 -23 13zM403 149q38 41 38 101q0 37 -16.5 69.5t-48.5 53t-76 20.5
q-45 0 -76.5 -20.5t-47.5 -53.5t-16 -69q0 -37 16.5 -69.5t48 -52.5t75.5 -20q65 0 103 41z" />
    <glyph glyph-name="yen" unicode="&#xa5;" 
d="M519 711q28 0 50 -21.5t22 -50.5q0 -25 -18 -46l-159 -190h87q20 0 34 -13t14 -33t-14 -33t-34 -13h-124v-62h124q20 0 34 -13t14 -33t-14 -33t-34 -13h-124v-85q0 -38 -21.5 -58t-55.5 -20q-35 0 -56.5 20t-21.5 58v85h-123q-20 0 -34 13t-14 33t14 33t34 13h123v62
h-123q-20 0 -34 13t-14 33t14 33t34 13h86l-158 191q-19 23 -19 48q0 28 22 49t49 21q30 0 52 -26l169 -208l168 207q22 26 51 26z" />
    <glyph glyph-name="brokenbar" unicode="&#xa6;" horiz-adv-x="290" 
d="M95 385.5q-20 19.5 -20 50.5v204q0 31 20 50.5t50 19.5t50 -19.5t20 -50.5v-204q0 -31 -19.5 -50.5t-50.5 -19.5q-30 0 -50 19.5zM95 -165.5q-20 19.5 -20 50.5v204q0 31 19.5 50.5t50.5 19.5q30 0 50 -19.5t20 -50.5v-204q0 -31 -20 -50.5t-50 -19.5t-50 19.5z" />
    <glyph glyph-name="section" unicode="&#xa7;" horiz-adv-x="580" 
d="M484 86q25 -41 25 -82q0 -91 -60.5 -141t-171.5 -50q-63 0 -109 10t-81 32q-15 9 -23 24t-8 34q0 23 13 38.5t32 15.5q12 0 25.5 -4.5t27.5 -10.5q31 -13 58.5 -20.5t69.5 -7.5q37 0 58.5 18t21.5 49q0 24 -14.5 40.5t-48.5 32.5l-131 59q-71 32 -104 74t-33 103
q0 41 17 77t49 63q-26 38 -26 81q0 88 62.5 139.5t169.5 51.5q94 0 162 -42q31 -19 31 -55q0 -24 -13 -40.5t-32 -16.5q-12 0 -22.5 3.5t-20 8t-12.5 6.5q-24 12 -43.5 19t-46.5 7q-41 0 -64.5 -17t-23.5 -48q0 -25 15 -43t48 -33l130 -59q71 -32 104.5 -75t33.5 -101
q0 -84 -65 -140zM378 172q9 -4 27 -14q10 20 10 35q0 59 -80 98l-133 65q-5 3 -12 6.5t-14 7.5q-12 -19 -12 -38q0 -58 80 -97z" />
    <glyph glyph-name="dieresis" unicode="&#xa8;" horiz-adv-x="300" 
d="M1 605q-21 20 -21 52t21 51t54 19t54 -19t21 -51t-20.5 -52t-54.5 -20q-33 0 -54 20zM191.5 605q-20.5 20 -20.5 52t20.5 51t53.5 19t54 -19t21 -51t-21 -52t-54 -20t-53.5 20z" />
    <glyph glyph-name="copyright" unicode="&#xa9;" horiz-adv-x="815" 
d="M226 42.5q-82 47.5 -129 129t-47 181.5t47 181.5t129 128.5t182 47t181.5 -47t128.5 -128.5t47 -181.5t-47 -181.5t-129 -129t-181 -47.5q-100 0 -182 47.5zM557.5 95.5q66.5 38.5 104 106t37.5 151.5t-37.5 151t-104 105.5t-149.5 38.5q-84 0 -150.5 -38.5t-104 -105.5
t-37.5 -151t37.5 -151.5t104 -106t150.5 -38.5q83 0 149.5 38.5zM306.5 163.5q-48.5 26.5 -75 75.5t-26.5 114q0 64 26.5 113t75 75.5t112.5 26.5q84 0 129 -36q13 -9 17.5 -19t4.5 -25q0 -20 -11.5 -37t-32.5 -17q-12 0 -23.5 5t-15.5 7q-34 17 -60 17q-43 0 -64.5 -26
t-21.5 -84q0 -59 21.5 -85t64.5 -26q26 0 60 17q4 2 15.5 7t23.5 5q21 0 32.5 -17t11.5 -37q0 -16 -4.5 -26t-17.5 -18q-28 -17 -58.5 -26.5t-70.5 -9.5q-64 0 -112.5 26.5z" />
    <glyph glyph-name="ordfeminine" unicode="&#xaa;" horiz-adv-x="339" 
d="M282.5 676q35.5 -34 35.5 -105v-109q0 -31 -16.5 -46t-43.5 -15q-22 0 -38.5 13t-18.5 41q-10 -26 -32 -40t-51 -14q-44 0 -73 29t-29 67q0 44 36.5 64.5t124.5 20.5h22v12q0 15 -8 21t-30 6q-24 0 -67 -15q-9 -3 -24 -3q-19 0 -29.5 13.5t-10.5 29.5q0 27 25 39
q21 10 53.5 17.5t65.5 7.5q73 0 108.5 -34zM187 490.5q12 10.5 12 30.5v6h-9q-37 0 -50 -6.5t-13 -18.5q0 -9 7.5 -15.5t21.5 -6.5q19 0 31 10.5z" />
    <glyph glyph-name="guillemotleft" unicode="&#xab;" horiz-adv-x="525" 
d="M67 221q-15 24 -15 45q0 23 15 45l75 120q20 32 54 32q23 0 39.5 -15t16.5 -39q0 -14 -7 -29l-53 -114l53 -114q7 -14 7 -29q0 -23 -16.5 -38t-39.5 -15q-33 0 -53 31zM289 221q-15 24 -15 45q0 23 15 45l75 120q20 32 54 32q23 0 39.5 -15t16.5 -39q0 -14 -7 -29
l-53 -114l53 -114q7 -14 7 -29q0 -23 -16.5 -38t-39.5 -15q-33 0 -53 31z" />
    <glyph glyph-name="logicalnot" unicode="&#xac;" 
d="M452.5 150q-14.5 15 -14.5 37v149h-330q-22 0 -37 14.5t-15 36.5t15 37t37 15h384q22 0 37 -15t15 -37v-200q0 -23 -15 -37.5t-38 -14.5q-24 0 -38.5 15z" />
    <glyph glyph-name="uni00AD" unicode="&#xad;" horiz-adv-x="440" 
d="M51 268q0 59 71 59h196q71 0 71 -59t-71 -59h-196q-71 0 -71 59z" />
    <glyph glyph-name="registered" unicode="&#xae;" horiz-adv-x="815" 
d="M589.5 663q81.5 -47 128.5 -128.5t47 -181.5t-47 -181.5t-129 -129t-181 -47.5q-100 0 -182 47.5t-129 129t-47 181.5t47 181.5t129 128.5t182 47t181.5 -47zM557.5 95.5q66.5 38.5 104 106t37.5 151.5t-37.5 151t-104 105.5t-149.5 38.5q-84 0 -150.5 -38.5t-104 -105.5
t-37.5 -151t37.5 -151.5t104 -106t150.5 -38.5q83 0 149.5 38.5zM592 229q15 -18 15 -36q0 -23 -21.5 -39.5t-48.5 -16.5q-16 0 -30.5 7t-24.5 21l-79 113q-11 15 -24 15h-13v-89q0 -33 -18 -50t-46 -17q-30 0 -49 17t-19 50v299q0 30 15.5 46t45.5 16h141q77 0 118.5 -36
t41.5 -98q0 -47 -25.5 -81t-72.5 -47q20 -3 36 -13t33 -31zM419 389q29 0 40 8t11 29q0 22 -11 30.5t-40 8.5h-54v-76h54z" />
    <glyph glyph-name="macron" unicode="&#xaf;" horiz-adv-x="300" 
d="M-7 621.5q-14 12.5 -14 34.5t14 34.5t36 12.5h242q22 0 36 -12.5t14 -34.5t-14 -34.5t-36 -12.5h-242q-22 0 -36 12.5z" />
    <glyph glyph-name="degree" unicode="&#xb0;" horiz-adv-x="368" 
d="M106 428.5q-35 19.5 -55.5 54t-20.5 76.5q0 43 20.5 77.5t55.5 54t78 19.5t78 -19.5t55 -54t20 -77.5q0 -42 -20 -76.5t-55 -54t-78 -19.5t-78 19.5zM234.5 506q20.5 21 20.5 53q0 33 -20.5 54t-50.5 21t-50.5 -21t-20.5 -54q0 -32 20.5 -53t50.5 -21t50.5 21z" />
    <glyph glyph-name="plusminus" unicode="&#xb1;" 
d="M71 299.5q-15 14.5 -15 36.5q0 23 15 38t37 15h140v90q0 22 15 37t37 15t37 -15t15 -37v-90h140q22 0 37 -15t15 -37t-14.5 -37t-37.5 -15h-140v-91q0 -22 -15 -36.5t-37 -14.5t-37 14.5t-15 36.5v91h-140q-22 0 -37 14.5zM535 88.5q15 -14.5 15 -36.5t-15 -37t-37 -15
h-384q-22 0 -37 15t-15 37t15 36.5t37 14.5h384q22 0 37 -14.5z" />
    <glyph glyph-name="uni00B2" unicode="&#xb2;" horiz-adv-x="380" 
d="M349 371q15 -12 15 -38q0 -51 -63 -51h-213q-26 0 -42 14.5t-16 36.5q0 29 26 56l120 126q35 37 35 64q0 16 -9.5 24.5t-27.5 8.5q-22 0 -41 -9.5t-22 -10.5q-14 -7 -21.5 -9.5t-18.5 -2.5q-20 0 -31.5 16.5t-11.5 32.5t4.5 26t18.5 18q28 18 63 27t70 9
q70 0 113.5 -33.5t43.5 -88.5q0 -36 -14.5 -63.5t-53.5 -65.5l-78 -75h106q33 0 48 -12z" />
    <glyph glyph-name="uni00B3" unicode="&#xb3;" horiz-adv-x="380" 
d="M331.5 463q20.5 -26 20.5 -64q0 -53 -44 -87.5t-126 -34.5q-39 0 -76.5 9.5t-62.5 28.5q-12 9 -16.5 19.5t-4.5 24.5q0 17 11.5 33.5t31.5 16.5q11 0 22.5 -6t16.5 -9q3 -1 15.5 -7t27.5 -9.5t30 -3.5q55 0 55 36t-55 36h-40q-21 0 -33.5 15t-12.5 34q0 20 12.5 34.5
t33.5 14.5h28q29 0 41.5 8t12.5 27q0 15 -11.5 24t-31.5 9q-21 0 -41.5 -9.5t-23.5 -10.5q-14 -7 -21.5 -9.5t-19.5 -2.5q-19 0 -30.5 17t-11.5 36q0 13 5 22.5t18 17.5q26 18 62 27t70 9q74 0 116 -34t42 -85q0 -32 -17.5 -55.5t-49.5 -34.5q37 -11 57.5 -37z" />
    <glyph glyph-name="acute" unicode="&#xb4;" horiz-adv-x="300" 
d="M153 550q-16 0 -27 11t-11 26q0 13 9 26l86 115q25 34 60 34q25 0 44 -18t19 -42q0 -30 -32 -54l-122 -89q-12 -9 -26 -9z" />
    <glyph glyph-name="uni00B5" unicode="&#xb5;" horiz-adv-x="589" 
d="M510.5 482q20.5 -19 20.5 -52v-367q0 -31 -21.5 -50t-55.5 -19q-32 0 -51 18t-19 48v10q-23 -38 -60.5 -58t-84.5 -20q-13 0 -33 2v-110q0 -31 -21.5 -50t-55.5 -19t-54 18t-20 48v549q0 33 20.5 52t55.5 19t55 -19t20 -52v-234q0 -44 18.5 -65t56.5 -21q44 0 71.5 30
t27.5 79v211q0 33 20 52t55 19t55.5 -19z" />
    <glyph glyph-name="paragraph" unicode="&#xb6;" horiz-adv-x="630" 
d="M265.5 -170.5q-14.5 14.5 -14.5 36.5v399q-65 0 -115 27.5t-77.5 78t-27.5 115.5t27.5 114.5t78 77t117.5 27.5h255q22 0 36 -14.5t14 -36.5v-788q0 -22 -14 -36.5t-35 -14.5q-22 0 -36.5 14.5t-14.5 36.5v749h-107v-749q0 -22 -14 -36.5t-36 -14.5t-36.5 14.5z" />
    <glyph glyph-name="periodcentered" unicode="&#xb7;" horiz-adv-x="260" 
d="M69 206.5q-24 24.5 -24 61.5t24 61.5t61 24.5t61 -24.5t24 -61.5t-24 -61.5t-61 -24.5t-61 24.5z" />
    <glyph glyph-name="cedilla" unicode="&#xb8;" horiz-adv-x="300" 
d="M249.5 -59q21.5 -19 21.5 -50q0 -39 -35 -63.5t-100 -24.5q-42 0 -71 10q-20 7 -20 30q0 14 9 24t22 6q34 -8 56 -8q46 0 46 26q0 9 -6.5 14t-17.5 5q-9 0 -23 -3t-21 -3q-10 0 -15.5 5.5t-4.5 15.5l12 95h81l-8 -62q16 2 22 2q31 0 52.5 -19z" />
    <glyph glyph-name="uni00B9" unicode="&#xb9;" horiz-adv-x="380" 
d="M351.5 370.5q15.5 -12.5 15.5 -37.5q0 -51 -64 -51h-173q-63 0 -63 51q0 50 63 50h22v186l-28 -15q-13 -7 -26 -7q-20 0 -34.5 16.5t-14.5 36.5q0 29 27 43l82 45q34 18 62 18q29 0 45.5 -17t16.5 -46v-260h21q33 0 48.5 -12.5z" />
    <glyph glyph-name="ordmasculine" unicode="&#xba;" horiz-adv-x="374" 
d="M59 445.5q-44 44.5 -44 110.5t44 110t128 44t127.5 -44t43.5 -110t-43.5 -110.5t-127.5 -44.5t-128 44.5zM224.5 513.5q13.5 15.5 13.5 42.5q0 29 -13.5 43.5t-37.5 14.5q-49 0 -49 -58q0 -28 13 -43t36 -15q24 0 37.5 15.5z" />
    <glyph glyph-name="guillemotright" unicode="&#xbb;" horiz-adv-x="519" 
d="M138 77q-14 -8 -30 -8q-22 0 -39 15.5t-17 38.5q0 15 7 29l54 114l-54 114q-8 18 -8 31q0 23 17 37.5t40 14.5q15 0 29.5 -8t23.5 -24l70 -120q14 -21 14 -45q0 -23 -14 -45l-70 -120q-9 -16 -23 -24zM360 77q-14 -8 -30 -8q-22 0 -39 15.5t-17 38.5q0 15 7 29l54 114
l-54 114q-8 18 -8 31q0 23 17 37.5t40 14.5q15 0 29.5 -8t23.5 -24l70 -120q14 -21 14 -45q0 -23 -14 -45l-70 -120q-9 -16 -23 -24z" />
    <glyph glyph-name="onequarter" unicode="&#xbc;" horiz-adv-x="960" 
d="M351.5 370.5q15.5 -12.5 15.5 -37.5q0 -51 -64 -51h-173q-63 0 -63 51q0 50 63 50h22v186l-28 -15q-13 -7 -26 -7q-20 0 -34.5 16.5t-14.5 36.5q0 29 27 43l82 45q34 18 62 18q29 0 45.5 -17t16.5 -46v-260h21q33 0 48.5 -12.5zM295 -19q-22 0 -37.5 15.5t-15.5 38.5
q0 19 12 40l354 611q23 38 57 38q22 0 37.5 -15.5t15.5 -38.5q0 -19 -12 -40l-354 -611q-23 -38 -57 -38zM943.5 144q14.5 -12 14.5 -34t-14.5 -34.5t-41.5 -12.5h-8v-11q0 -27 -16 -42t-42 -15q-25 0 -40.5 15t-15.5 42v11h-134q-27 0 -42 16.5t-15 40.5q0 25 16 47
l168 230q10 14 25.5 21.5t32.5 7.5q26 0 44.5 -17t18.5 -48v-205h8q27 0 41.5 -12zM697 156h83v111z" />
    <glyph glyph-name="onehalf" unicode="&#xbd;" horiz-adv-x="960" 
d="M351.5 370.5q15.5 -12.5 15.5 -37.5q0 -51 -64 -51h-173q-63 0 -63 51q0 50 63 50h22v186l-28 -15q-13 -7 -26 -7q-20 0 -34.5 16.5t-14.5 36.5q0 29 27 43l82 45q34 18 62 18q29 0 45.5 -17t16.5 -46v-260h21q33 0 48.5 -12.5zM295 -19q-22 0 -37.5 15.5t-15.5 38.5
q0 19 12 40l354 611q23 38 57 38q22 0 37.5 -15.5t15.5 -38.5q0 -19 -12 -40l-354 -611q-23 -38 -57 -38zM929 89q15 -12 15 -38q0 -51 -63 -51h-213q-26 0 -42 14.5t-16 36.5q0 29 26 56l120 126q35 37 35 64q0 16 -9.5 24.5t-27.5 8.5q-22 0 -41 -9.5t-22 -10.5
q-14 -7 -21.5 -9.5t-18.5 -2.5q-20 0 -31.5 16.5t-11.5 32.5t4.5 26t18.5 18q28 18 63 27t70 9q70 0 113.5 -33.5t43.5 -88.5q0 -36 -14.5 -63.5t-53.5 -65.5l-78 -75h106q33 0 48 -12z" />
    <glyph glyph-name="threequarters" unicode="&#xbe;" horiz-adv-x="960" 
d="M331.5 463q20.5 -26 20.5 -64q0 -53 -44 -87.5t-126 -34.5q-39 0 -76.5 9.5t-62.5 28.5q-12 9 -16.5 19.5t-4.5 24.5q0 17 11.5 33.5t31.5 16.5q11 0 22.5 -6t16.5 -9q3 -1 15.5 -7t27.5 -9.5t30 -3.5q55 0 55 36t-55 36h-40q-21 0 -33.5 15t-12.5 34q0 20 12.5 34.5
t33.5 14.5h28q29 0 41.5 8t12.5 27q0 15 -11.5 24t-31.5 9q-21 0 -41.5 -9.5t-23.5 -10.5q-14 -7 -21.5 -9.5t-19.5 -2.5q-19 0 -30.5 17t-11.5 36q0 13 5 22.5t18 17.5q26 18 62 27t70 9q74 0 116 -34t42 -85q0 -32 -17.5 -55.5t-49.5 -34.5q37 -11 57.5 -37zM295 -19
q-22 0 -37.5 15.5t-15.5 38.5q0 19 12 40l354 611q23 38 57 38q22 0 37.5 -15.5t15.5 -38.5q0 -19 -12 -40l-354 -611q-23 -38 -57 -38zM943.5 144q14.5 -12 14.5 -34t-14.5 -34.5t-41.5 -12.5h-8v-11q0 -27 -16 -42t-42 -15q-25 0 -40.5 15t-15.5 42v11h-134
q-27 0 -42 16.5t-15 40.5q0 25 16 47l168 230q10 14 25.5 21.5t32.5 7.5q26 0 44.5 -17t18.5 -48v-205h8q27 0 41.5 -12zM697 156h83v111z" />
    <glyph glyph-name="questiondown" unicode="&#xbf;" horiz-adv-x="468" 
d="M179 353.5q-24 24.5 -24 61.5t24 61.5t61 24.5q36 0 60.5 -24.5t24.5 -61.5t-24.5 -61.5t-60.5 -24.5q-37 0 -61 24.5zM114 -166.5q-49 21.5 -76.5 59.5t-27.5 86q0 34 14 61.5t34 47t53 45.5q38 31 58 53t25 51q4 19 16.5 29.5t31.5 10.5q22 0 34 -15t12 -41
q0 -52 -19.5 -83t-55.5 -64q-26 -24 -38 -41t-12 -41q0 -27 20 -42.5t56 -15.5q32 0 61.5 13t71.5 38q29 16 48 16q21 0 35.5 -18.5t14.5 -44.5q0 -18 -6 -30.5t-21 -23.5q-42 -34 -99.5 -53t-117.5 -19q-63 0 -112 21.5z" />
    <glyph glyph-name="Agrave" unicode="&#xc0;" horiz-adv-x="751" 
d="M735 63q0 -28 -22.5 -47.5t-51.5 -19.5q-19 0 -36 10.5t-26 31.5l-53 118h-339l-53 -118q-9 -21 -25.5 -31.5t-36.5 -10.5q-29 0 -52 19.5t-23 47.5q0 14 8 32l270 567q11 24 33 36.5t47 12.5q26 0 48 -13t34 -36l270 -567q8 -18 8 -32zM260 274h233l-116 260zM248 818
q-40 19 -40 54q0 21 16 37.5t39 16.5q26 0 49 -23l86 -85q12 -11 12 -26q0 -14 -10 -23t-25 -9q-10 0 -18 4z" />
    <glyph glyph-name="Aacute" unicode="&#xc1;" horiz-adv-x="751" 
d="M735 63q0 -28 -22.5 -47.5t-51.5 -19.5q-19 0 -36 10.5t-26 31.5l-53 118h-339l-53 -118q-9 -21 -25.5 -31.5t-36.5 -10.5q-29 0 -52 19.5t-23 47.5q0 14 8 32l270 567q11 24 33 36.5t47 12.5q26 0 48 -13t34 -36l270 -567q8 -18 8 -32zM260 274h233l-116 260zM374 760
q-14 0 -24.5 9.5t-10.5 22.5t13 26l86 85q23 23 49 23q22 0 38.5 -16.5t16.5 -38.5q0 -15 -10 -29t-30 -24l-109 -54q-8 -4 -19 -4z" />
    <glyph glyph-name="Acircumflex" unicode="&#xc2;" horiz-adv-x="751" 
d="M735 63q0 -28 -22.5 -47.5t-51.5 -19.5q-19 0 -36 10.5t-26 31.5l-53 118h-339l-53 -118q-9 -21 -25.5 -31.5t-36.5 -10.5q-29 0 -52 19.5t-23 47.5q0 14 8 32l270 567q11 24 33 36.5t47 12.5q26 0 48 -13t34 -36l270 -567q8 -18 8 -32zM260 274h233l-116 260zM271 761
q-19 0 -32 12.5t-13 29.5q0 19 18 34l80 68q23 20 51 20t51 -20l80 -68q18 -15 18 -34q0 -17 -13 -29.5t-31 -12.5q-20 0 -36 15l-69 67l-69 -67q-15 -15 -35 -15z" />
    <glyph glyph-name="Atilde" unicode="&#xc3;" horiz-adv-x="751" 
d="M735 63q0 -28 -22.5 -47.5t-51.5 -19.5q-19 0 -36 10.5t-26 31.5l-53 118h-339l-53 -118q-9 -21 -25.5 -31.5t-36.5 -10.5q-29 0 -52 19.5t-23 47.5q0 14 8 32l270 567q11 24 33 36.5t47 12.5q26 0 48 -13t34 -36l270 -567q8 -18 8 -32zM260 274h233l-116 260zM401.5 788
q-25.5 7 -29.5 8q-45 15 -71 15q-11 0 -18 -4t-15 -12q-9 -9 -15.5 -13t-17.5 -4q-14 0 -22.5 9.5t-8.5 25.5q0 21 12.5 43t34.5 36.5t49 14.5q23 0 48.5 -7t29.5 -8q45 -15 71 -15q11 0 17.5 4t15.5 12q8 8 15 12t18 4q15 0 23 -9t8 -25q0 -21 -12.5 -43t-34.5 -36.5
t-49 -14.5q-23 0 -48.5 7z" />
    <glyph glyph-name="Adieresis" unicode="&#xc4;" horiz-adv-x="751" 
d="M735 63q0 -28 -22.5 -47.5t-51.5 -19.5q-19 0 -36 10.5t-26 31.5l-53 118h-339l-53 -118q-9 -21 -25.5 -31.5t-36.5 -10.5q-29 0 -52 19.5t-23 47.5q0 14 8 32l270 567q11 24 33 36.5t47 12.5q26 0 48 -13t34 -36l270 -567q8 -18 8 -32zM260 274h233l-116 260zM226 792.5
q-21 19.5 -21 51.5t21 51t54 19t54 -19t21 -51t-20.5 -51.5t-54.5 -19.5q-33 0 -54 19.5zM416.5 792.5q-20.5 19.5 -20.5 51.5t20.5 51t53.5 19t54 -19t21 -51t-21 -51.5t-54 -19.5t-53.5 19.5z" />
    <glyph glyph-name="Aring" unicode="&#xc5;" horiz-adv-x="751" 
d="M735 63q0 -28 -22.5 -47.5t-51.5 -19.5q-19 0 -36 10.5t-26 31.5l-53 118h-339l-53 -118q-9 -21 -26 -31.5t-36 -10.5q-29 0 -52 19t-23 48q0 14 8 32l284 597q-20 14 -31 36.5t-11 49.5q0 45 31.5 76t77.5 31t78 -31t32 -76q0 -26 -11.5 -48.5t-31.5 -37.5l284 -597
q8 -18 8 -32zM345 810q-12 -13 -12 -32q0 -20 12 -33t31 -13t31 13t12 33q0 19 -12 32t-31 13t-31 -13zM260 274h233l-116 260z" />
    <glyph glyph-name="AE" unicode="&#xc6;" horiz-adv-x="1000" 
d="M978 60q0 -60 -73 -60h-282q-27 0 -45.5 12t-23.5 32l-25 112h-311l-73 -118q-14 -22 -33 -33t-40 -11q-28 0 -48 16.5t-20 42.5q0 21 14 42l367 567q13 20 36 31.5t51 11.5h433q73 0 73 -60q0 -30 -19 -45.5t-54 -15.5h-329l37 -165h272q73 0 73 -61q0 -60 -73 -60h-245
l39 -177h226q73 0 73 -61zM292 274h211l-55 252z" />
    <glyph glyph-name="Ccedilla" unicode="&#xc7;" horiz-adv-x="678" 
d="M632.5 161.5q14.5 -18.5 14.5 -44.5q0 -18 -6.5 -30.5t-20.5 -23.5q-83 -64 -197 -71l-4 -34q16 2 22 2q31 0 52.5 -19t21.5 -50q0 -39 -35 -63.5t-100 -24.5q-42 0 -71 10q-20 7 -20 30q0 14 9 24t22 6q34 -8 56 -8q46 0 46 26q0 9 -6.5 14t-17.5 5q-9 0 -23 -3t-21 -3
q-10 0 -15.5 5.5t-4.5 15.5l9 69q-90 10 -156 57t-101.5 124t-35.5 178q0 110 42 191.5t120 125.5t182 44q131 0 226 -72q15 -12 21 -24t6 -30q0 -26 -14.5 -44.5t-35.5 -18.5q-14 0 -24.5 3.5t-23.5 12.5q-40 26 -74 37.5t-73 11.5q-96 0 -144.5 -59.5t-48.5 -177.5
q0 -238 193 -238q37 0 70 11.5t77 37.5q15 9 25 12.5t23 3.5q21 0 35.5 -18.5z" />
    <glyph glyph-name="Egrave" unicode="&#xc8;" horiz-adv-x="593" 
d="M89 19q-19 19 -19 54v559q0 35 19 54t54 19h354q74 0 74 -60q0 -61 -74 -61h-275v-165h255q74 0 74 -61q0 -60 -74 -60h-255v-177h275q74 0 74 -61q0 -60 -74 -60h-354q-35 0 -54 19zM204 818q-40 19 -40 54q0 21 16 37.5t39 16.5q26 0 49 -23l86 -85q12 -11 12 -26
q0 -14 -10 -23t-25 -9q-10 0 -18 4z" />
    <glyph glyph-name="Eacute" unicode="&#xc9;" horiz-adv-x="593" 
d="M89 19q-19 19 -19 54v559q0 35 19 54t54 19h354q74 0 74 -60q0 -61 -74 -61h-275v-165h255q74 0 74 -61q0 -60 -74 -60h-255v-177h275q74 0 74 -61q0 -60 -74 -60h-354q-35 0 -54 19zM330 760q-14 0 -24.5 9.5t-10.5 22.5t13 26l86 85q23 23 49 23q22 0 38.5 -16.5
t16.5 -38.5q0 -15 -10 -29t-30 -24l-109 -54q-8 -4 -19 -4z" />
    <glyph glyph-name="Ecircumflex" unicode="&#xca;" horiz-adv-x="593" 
d="M89 19q-19 19 -19 54v559q0 35 19 54t54 19h354q74 0 74 -60q0 -61 -74 -61h-275v-165h255q74 0 74 -61q0 -60 -74 -60h-255v-177h275q74 0 74 -61q0 -60 -74 -60h-354q-35 0 -54 19zM227 761q-19 0 -32 12.5t-13 29.5q0 19 18 34l80 68q23 20 51 20t51 -20l80 -68
q18 -15 18 -34q0 -17 -13 -29.5t-31 -12.5q-20 0 -36 15l-69 67l-69 -67q-15 -15 -35 -15z" />
    <glyph glyph-name="Edieresis" unicode="&#xcb;" horiz-adv-x="593" 
d="M89 19q-19 19 -19 54v559q0 35 19 54t54 19h354q74 0 74 -60q0 -61 -74 -61h-275v-165h255q74 0 74 -61q0 -60 -74 -60h-255v-177h275q74 0 74 -61q0 -60 -74 -60h-354q-35 0 -54 19zM182 792.5q-21 19.5 -21 51.5t21 51t54 19t54 -19t21 -51t-20.5 -51.5t-54.5 -19.5
q-33 0 -54 19.5zM372.5 792.5q-20.5 19.5 -20.5 51.5t20.5 51t53.5 19t54 -19t21 -51t-21 -51.5t-54 -19.5t-53.5 19.5z" />
    <glyph glyph-name="Igrave" unicode="&#xcc;" horiz-adv-x="296" 
d="M91 15q-21 21 -21 57v561q0 35 21 56t57 21t57 -21t21 -56v-561q0 -36 -21 -57t-57 -21t-57 21zM21 818q-40 19 -40 54q0 21 16 37.5t39 16.5q26 0 49 -23l86 -85q12 -11 12 -26q0 -14 -10 -23t-25 -9q-10 0 -18 4z" />
    <glyph glyph-name="Iacute" unicode="&#xcd;" horiz-adv-x="296" 
d="M91 15q-21 21 -21 57v561q0 35 21 56t57 21t57 -21t21 -56v-561q0 -36 -21 -57t-57 -21t-57 21zM147 760q-14 0 -24.5 9.5t-10.5 22.5t13 26l86 85q23 23 49 23q22 0 38.5 -16.5t16.5 -38.5q0 -15 -10 -29t-30 -24l-109 -54q-8 -4 -19 -4z" />
    <glyph glyph-name="Icircumflex" unicode="&#xce;" horiz-adv-x="296" 
d="M91 15q-21 21 -21 57v561q0 35 21 56t57 21t57 -21t21 -56v-561q0 -36 -21 -57t-57 -21t-57 21zM44 761q-19 0 -32 12.5t-13 29.5q0 19 18 34l80 68q23 20 51 20t51 -20l80 -68q18 -15 18 -34q0 -17 -13 -29.5t-31 -12.5q-20 0 -36 15l-69 67l-69 -67q-15 -15 -35 -15z
" />
    <glyph glyph-name="Idieresis" unicode="&#xcf;" horiz-adv-x="296" 
d="M91 15q-21 21 -21 57v561q0 35 21 56t57 21t57 -21t21 -56v-561q0 -36 -21 -57t-57 -21t-57 21zM-1 792.5q-21 19.5 -21 51.5t21 51t54 19t54 -19t21 -51t-20.5 -51.5t-54.5 -19.5q-33 0 -54 19.5zM189.5 792.5q-20.5 19.5 -20.5 51.5t20.5 51t53.5 19t54 -19t21 -51
t-21 -51.5t-54 -19.5t-53.5 19.5z" />
    <glyph glyph-name="Eth" unicode="&#xd0;" horiz-adv-x="793" 
d="M572 663q83 -42 127 -121t44 -189t-43.5 -189.5t-127 -121.5t-199.5 -42h-200q-35 0 -54 19t-19 54v224h-30q-34 0 -52 15.5t-18 43.5t18 43.5t52 15.5h30v217q0 35 19 54t54 19h200q116 0 199 -42zM587 353q0 114 -55.5 170t-168.5 56h-107v-164h130q34 0 52 -15.5
t18 -43.5t-18 -43.5t-52 -15.5h-130v-171h107q224 0 224 227z" />
    <glyph glyph-name="Ntilde" unicode="&#xd1;" horiz-adv-x="752" 
d="M661.5 688.5q20.5 -21.5 20.5 -55.5v-561q0 -35 -20.5 -56.5t-53.5 -21.5q-36 0 -58 26l-335 429v-377q0 -35 -19.5 -56.5t-52.5 -21.5t-53 21.5t-20 56.5v561q0 34 20.5 55.5t53.5 21.5q37 0 57 -26l335 -426v375q0 34 20 55.5t52 21.5q33 0 53.5 -21.5zM402.5 788
q-25.5 7 -29.5 8q-45 15 -71 15q-11 0 -18 -4t-15 -12q-9 -9 -15.5 -13t-17.5 -4q-14 0 -22.5 9.5t-8.5 25.5q0 21 12.5 43t34.5 36.5t49 14.5q23 0 48.5 -7t29.5 -8q45 -15 71 -15q11 0 17.5 4t15.5 12q8 8 15 12t18 4q15 0 23 -9t8 -25q0 -21 -12.5 -43t-34.5 -36.5
t-49 -14.5q-23 0 -48.5 7z" />
    <glyph glyph-name="Ograve" unicode="&#xd2;" horiz-adv-x="787" 
d="M211.5 35.5q-77.5 44.5 -119.5 126t-42 191.5t42 191.5t119.5 125.5t182.5 44t182.5 -44t119.5 -125.5t42 -191.5t-42 -191.5t-119.5 -126t-182.5 -44.5t-182.5 44.5zM532.5 174q50.5 62 50.5 179t-50 178.5t-139 61.5t-138.5 -61.5t-49.5 -178.5t50 -179t138 -62
t138.5 62zM266 818q-40 19 -40 54q0 21 16 37.5t39 16.5q26 0 49 -23l86 -85q12 -11 12 -26q0 -14 -10 -23t-25 -9q-10 0 -18 4z" />
    <glyph glyph-name="Oacute" unicode="&#xd3;" horiz-adv-x="787" 
d="M211.5 35.5q-77.5 44.5 -119.5 126t-42 191.5t42 191.5t119.5 125.5t182.5 44t182.5 -44t119.5 -125.5t42 -191.5t-42 -191.5t-119.5 -126t-182.5 -44.5t-182.5 44.5zM532.5 174q50.5 62 50.5 179t-50 178.5t-139 61.5t-138.5 -61.5t-49.5 -178.5t50 -179t138 -62
t138.5 62zM392 760q-14 0 -24.5 9.5t-10.5 22.5t13 26l86 85q23 23 49 23q22 0 38.5 -16.5t16.5 -38.5q0 -15 -10 -29t-30 -24l-109 -54q-8 -4 -19 -4z" />
    <glyph glyph-name="Ocircumflex" unicode="&#xd4;" horiz-adv-x="787" 
d="M211.5 35.5q-77.5 44.5 -119.5 126t-42 191.5t42 191.5t119.5 125.5t182.5 44t182.5 -44t119.5 -125.5t42 -191.5t-42 -191.5t-119.5 -126t-182.5 -44.5t-182.5 44.5zM532.5 174q50.5 62 50.5 179t-50 178.5t-139 61.5t-138.5 -61.5t-49.5 -178.5t50 -179t138 -62
t138.5 62zM289 761q-19 0 -32 12.5t-13 29.5q0 19 18 34l80 68q23 20 51 20t51 -20l80 -68q18 -15 18 -34q0 -17 -13 -29.5t-31 -12.5q-20 0 -36 15l-69 67l-69 -67q-15 -15 -35 -15z" />
    <glyph glyph-name="Otilde" unicode="&#xd5;" horiz-adv-x="787" 
d="M211.5 35.5q-77.5 44.5 -119.5 126t-42 191.5t42 191.5t119.5 125.5t182.5 44t182.5 -44t119.5 -125.5t42 -191.5t-42 -191.5t-119.5 -126t-182.5 -44.5t-182.5 44.5zM532.5 174q50.5 62 50.5 179t-50 178.5t-139 61.5t-138.5 -61.5t-49.5 -178.5t50 -179t138 -62
t138.5 62zM419.5 788q-25.5 7 -29.5 8q-45 15 -71 15q-11 0 -18 -4t-15 -12q-9 -9 -15.5 -13t-17.5 -4q-14 0 -22.5 9.5t-8.5 25.5q0 21 12.5 43t34.5 36.5t49 14.5q23 0 48.5 -7t29.5 -8q45 -15 71 -15q11 0 17.5 4t15.5 12q8 8 15 12t18 4q15 0 23 -9t8 -25
q0 -21 -12.5 -43t-34.5 -36.5t-49 -14.5q-23 0 -48.5 7z" />
    <glyph glyph-name="Odieresis" unicode="&#xd6;" horiz-adv-x="787" 
d="M211.5 35.5q-77.5 44.5 -119.5 126t-42 191.5t42 191.5t119.5 125.5t182.5 44t182.5 -44t119.5 -125.5t42 -191.5t-42 -191.5t-119.5 -126t-182.5 -44.5t-182.5 44.5zM532.5 174q50.5 62 50.5 179t-50 178.5t-139 61.5t-138.5 -61.5t-49.5 -178.5t50 -179t138 -62
t138.5 62zM244 792.5q-21 19.5 -21 51.5t21 51t54 19t54 -19t21 -51t-20.5 -51.5t-54.5 -19.5q-33 0 -54 19.5zM434.5 792.5q-20.5 19.5 -20.5 51.5t20.5 51t53.5 19t54 -19t21 -51t-21 -51.5t-54 -19.5t-53.5 19.5z" />
    <glyph glyph-name="multiply" unicode="&#xd7;" 
d="M497 163q15 -15 15 -37t-15 -37t-35 -15q-22 0 -38 16l-124 124l-124 -124q-16 -16 -37 -16t-37 16q-15 15 -15 35t16 38l124 124l-124 124q-15 15 -15 37t15 37t36 15t37 -16l124 -124l124 124q17 15 37 15q22 0 37 -15t15 -36t-16 -37l-124 -124z" />
    <glyph glyph-name="Oslash" unicode="&#xd8;" horiz-adv-x="787" 
d="M709 516q29 -72 29 -163q0 -110 -42 -191.5t-119.5 -126t-182.5 -44.5q-72 0 -132 21l-16 -28q-22 -39 -59 -39q-22 0 -37.5 15.5t-15.5 39.5q0 21 12 41l17 29q-55 48 -84 120t-29 163q0 110 42 191.5t119.5 125.5t182.5 44q73 0 131 -21l16 28q11 20 27 29.5t32 9.5
q22 0 38 -15.5t16 -38.5q0 -20 -13 -42l-16 -28q55 -48 84 -120zM238 200l223 383q-35 10 -67 10q-89 0 -138.5 -61.5t-49.5 -178.5q0 -94 32 -153zM532.5 174q50.5 62 50.5 179q0 93 -33 154l-223 -384q31 -11 67 -11q88 0 138.5 62z" />
    <glyph glyph-name="Ugrave" unicode="&#xd9;" horiz-adv-x="739" 
d="M143.5 67.5q-77.5 76.5 -77.5 223.5v342q0 35 21 56t56 21t55.5 -21t20.5 -56v-349q0 -84 38.5 -128t111.5 -44t112 44.5t39 127.5v349q0 35 20.5 56t55.5 21t56 -21t21 -56v-342q0 -146 -78 -223t-226 -77t-225.5 76.5zM242 818q-40 19 -40 54q0 21 16 37.5t39 16.5
q26 0 49 -23l86 -85q12 -11 12 -26q0 -14 -10 -23t-25 -9q-10 0 -18 4z" />
    <glyph glyph-name="Uacute" unicode="&#xda;" horiz-adv-x="739" 
d="M143.5 67.5q-77.5 76.5 -77.5 223.5v342q0 35 21 56t56 21t55.5 -21t20.5 -56v-349q0 -84 38.5 -128t111.5 -44t112 44.5t39 127.5v349q0 35 20.5 56t55.5 21t56 -21t21 -56v-342q0 -146 -78 -223t-226 -77t-225.5 76.5zM368 760q-14 0 -24.5 9.5t-10.5 22.5t13 26l86 85
q23 23 49 23q22 0 38.5 -16.5t16.5 -38.5q0 -15 -10 -29t-30 -24l-109 -54q-8 -4 -19 -4z" />
    <glyph glyph-name="Ucircumflex" unicode="&#xdb;" horiz-adv-x="739" 
d="M143.5 67.5q-77.5 76.5 -77.5 223.5v342q0 35 21 56t56 21t55.5 -21t20.5 -56v-349q0 -84 38.5 -128t111.5 -44t112 44.5t39 127.5v349q0 35 20.5 56t55.5 21t56 -21t21 -56v-342q0 -146 -78 -223t-226 -77t-225.5 76.5zM265 761q-19 0 -32 12.5t-13 29.5q0 19 18 34
l80 68q23 20 51 20t51 -20l80 -68q18 -15 18 -34q0 -17 -13 -29.5t-31 -12.5q-20 0 -36 15l-69 67l-69 -67q-15 -15 -35 -15z" />
    <glyph glyph-name="Udieresis" unicode="&#xdc;" horiz-adv-x="739" 
d="M143.5 67.5q-77.5 76.5 -77.5 223.5v342q0 35 21 56t56 21t55.5 -21t20.5 -56v-349q0 -84 38.5 -128t111.5 -44t112 44.5t39 127.5v349q0 35 20.5 56t55.5 21t56 -21t21 -56v-342q0 -146 -78 -223t-226 -77t-225.5 76.5zM220 792.5q-21 19.5 -21 51.5t21 51t54 19t54 -19
t21 -51t-20.5 -51.5t-54.5 -19.5q-33 0 -54 19.5zM410.5 792.5q-20.5 19.5 -20.5 51.5t20.5 51t53.5 19t54 -19t21 -51t-21 -51.5t-54 -19.5t-53.5 19.5z" />
    <glyph glyph-name="Yacute" unicode="&#xdd;" horiz-adv-x="636" 
d="M561 711q28 0 50.5 -21.5t22.5 -49.5q0 -25 -19 -47l-219 -260v-261q0 -38 -22 -58t-55 -20q-35 0 -57 20t-22 58v261l-217 260q-19 20 -19 47q0 28 21.5 49.5t49.5 21.5q30 0 52 -26l191 -233l191 233q22 26 52 26zM317 760q-14 0 -24.5 9.5t-10.5 22.5t13 26l86 85
q23 23 49 23q22 0 38.5 -16.5t16.5 -38.5q0 -15 -10 -29t-30 -24l-109 -54q-8 -4 -19 -4z" />
    <glyph glyph-name="Thorn" unicode="&#xde;" horiz-adv-x="669" 
d="M573.5 509q63.5 -54 63.5 -151q0 -95 -64.5 -150t-177.5 -55h-172v-81q0 -35 -21 -56.5t-55 -21.5q-35 0 -56 21t-21 57v561q0 35 21 56t56 21t55.5 -21t20.5 -56v-70h172q115 0 178.5 -54zM462 292.5q29 20.5 29 65.5t-29 65.5t-92 20.5h-147v-172h147q63 0 92 20.5z
" />
    <glyph glyph-name="germandbls" unicode="&#xdf;" horiz-adv-x="679" 
d="M362.5 3q-42.5 11 -74.5 31q-32 18 -32 58q0 23 13 38.5t32 15.5q13 0 24.5 -4t30.5 -13q28 -13 49.5 -19.5t51.5 -6.5q31 0 47.5 10.5t16.5 30.5q0 22 -20.5 34t-64.5 26q-46 15 -74.5 29.5t-49.5 42t-21 71.5q0 37 16.5 65t48.5 64q23 24 34 41t11 35q0 26 -19 39.5
t-55 13.5q-56 0 -87 -36t-31 -102v-402q0 -33 -20 -52t-55 -19t-55.5 19t-20.5 52v379q0 130 71.5 199.5t204.5 69.5q98 0 153 -39t55 -109q0 -39 -18 -67.5t-51 -62.5q-23 -24 -34 -39.5t-11 -32.5q0 -20 19.5 -31t60.5 -24q47 -15 76.5 -30t51.5 -44.5t22 -76.5
q0 -76 -56 -120.5t-150 -44.5q-47 0 -89.5 11z" />
    <glyph glyph-name="agrave" unicode="&#xe0;" horiz-adv-x="546" 
d="M439 450.5q52 -52.5 52 -160.5v-226q0 -33 -19 -51.5t-53 -18.5q-32 0 -51.5 19.5t-19.5 50.5v7q-15 -37 -50 -58t-82 -21q-50 0 -90.5 20t-64 56t-23.5 80q0 54 27.5 85t88.5 45t167 14h26v18q0 42 -18.5 61t-61.5 19t-124 -30q-23 -11 -39 -11q-22 0 -35 15.5t-13 40.5
q0 20 9 33t29 24q35 19 85.5 30t99.5 11q108 0 160 -52.5zM320 125.5q27 29.5 27 76.5v17h-17q-81 0 -113.5 -13t-32.5 -47q0 -28 18.5 -45.5t46.5 -17.5q44 0 71 29.5zM128 648q-32 24 -32 54q0 25 18.5 42.5t44.5 17.5q36 0 60 -34l86 -115q9 -13 9 -26q0 -16 -11 -27
t-27 -11q-13 0 -26 10z" />
    <glyph glyph-name="aacute" unicode="&#xe1;" horiz-adv-x="546" 
d="M439 450.5q52 -52.5 52 -160.5v-226q0 -33 -19 -51.5t-53 -18.5q-32 0 -51.5 19.5t-19.5 50.5v7q-15 -37 -50 -58t-82 -21q-50 0 -90.5 20t-64 56t-23.5 80q0 54 27.5 85t88.5 45t167 14h26v18q0 42 -18.5 61t-61.5 19t-124 -30q-23 -11 -39 -11q-22 0 -35 15.5t-13 40.5
q0 20 9 33t29 24q35 19 85.5 30t99.5 11q108 0 160 -52.5zM320 125.5q27 29.5 27 76.5v17h-17q-81 0 -113.5 -13t-32.5 -47q0 -28 18.5 -45.5t46.5 -17.5q44 0 71 29.5zM282 550q-16 0 -27 11t-11 26q0 13 9 26l86 115q25 34 60 34q25 0 44 -18t19 -42q0 -30 -32 -54
l-122 -89q-12 -9 -26 -9z" />
    <glyph glyph-name="acircumflex" unicode="&#xe2;" horiz-adv-x="546" 
d="M439 450.5q52 -52.5 52 -160.5v-226q0 -33 -19 -51.5t-53 -18.5q-32 0 -51.5 19.5t-19.5 50.5v7q-15 -37 -50 -58t-82 -21q-50 0 -90.5 20t-64 56t-23.5 80q0 54 27.5 85t88.5 45t167 14h26v18q0 42 -18.5 61t-61.5 19t-124 -30q-23 -11 -39 -11q-22 0 -35 15.5t-13 40.5
q0 20 9 33t29 24q35 19 85.5 30t99.5 11q108 0 160 -52.5zM320 125.5q27 29.5 27 76.5v17h-17q-81 0 -113.5 -13t-32.5 -47q0 -28 18.5 -45.5t46.5 -17.5q44 0 71 29.5zM173 550q-19 0 -33 13t-14 31q0 16 11 30l84 108q14 17 26.5 24.5t31.5 7.5t31.5 -7.5t26.5 -25.5
l84 -107q11 -14 11 -29q0 -18 -14.5 -31.5t-32.5 -13.5q-24 0 -40 23l-66 98l-66 -98q-16 -23 -40 -23z" />
    <glyph glyph-name="atilde" unicode="&#xe3;" horiz-adv-x="546" 
d="M439 450.5q52 -52.5 52 -160.5v-226q0 -33 -19 -51.5t-53 -18.5q-32 0 -51.5 19.5t-19.5 50.5v7q-15 -37 -50 -58t-82 -21q-50 0 -90.5 20t-64 56t-23.5 80q0 54 27.5 85t88.5 45t167 14h26v18q0 42 -18.5 61t-61.5 19t-124 -30q-23 -11 -39 -11q-22 0 -35 15.5t-13 40.5
q0 20 9 33t29 24q35 19 85.5 30t99.5 11q108 0 160 -52.5zM320 125.5q27 29.5 27 76.5v17h-17q-81 0 -113.5 -13t-32.5 -47q0 -28 18.5 -45.5t46.5 -17.5q44 0 71 29.5zM316.5 589q-18.5 8 -42.5 22q-22 12 -35 17.5t-24 5.5q-15 0 -24 -7t-21 -22q-9 -12 -15.5 -17.5
t-17.5 -5.5q-13 0 -21 11t-8 28q0 21 12.5 47t34.5 44.5t49 18.5q18 0 35.5 -7.5t44.5 -22.5q20 -12 33.5 -18t25.5 -6q15 0 24 7t21 22q9 13 15.5 18.5t17.5 5.5q13 0 21 -11t8 -28q0 -21 -12.5 -47t-34.5 -44.5t-49 -18.5q-19 0 -37.5 8z" />
    <glyph glyph-name="adieresis" unicode="&#xe4;" horiz-adv-x="546" 
d="M439 450.5q52 -52.5 52 -160.5v-226q0 -33 -19 -51.5t-53 -18.5q-32 0 -51.5 19.5t-19.5 50.5v7q-15 -37 -50 -58t-82 -21q-50 0 -90.5 20t-64 56t-23.5 80q0 54 27.5 85t88.5 45t167 14h26v18q0 42 -18.5 61t-61.5 19t-124 -30q-23 -11 -39 -11q-22 0 -35 15.5t-13 40.5
q0 20 9 33t29 24q35 19 85.5 30t99.5 11q108 0 160 -52.5zM320 125.5q27 29.5 27 76.5v17h-17q-81 0 -113.5 -13t-32.5 -47q0 -28 18.5 -45.5t46.5 -17.5q44 0 71 29.5zM130 605q-21 20 -21 52t21 51t54 19t54 -19t21 -51t-20.5 -52t-54.5 -20q-33 0 -54 20zM320.5 605
q-20.5 20 -20.5 52t20.5 51t53.5 19t54 -19t21 -51t-21 -52t-54 -20t-53.5 20z" />
    <glyph glyph-name="aring" unicode="&#xe5;" horiz-adv-x="546" 
d="M439 450.5q52 -52.5 52 -160.5v-226q0 -33 -19 -51.5t-53 -18.5q-32 0 -51.5 19.5t-19.5 50.5v7q-15 -37 -50 -58t-82 -21q-50 0 -90.5 20t-64 56t-23.5 80q0 54 27.5 85t88.5 45t167 14h26v18q0 42 -18.5 61t-61.5 19t-124 -30q-23 -11 -39 -11q-22 0 -35 15.5t-13 40.5
q0 20 9 33t29 24q35 19 85.5 30t99.5 11q108 0 160 -52.5zM320 125.5q27 29.5 27 76.5v17h-17q-81 0 -113.5 -13t-32.5 -47q0 -28 18.5 -45.5t46.5 -17.5q44 0 71 29.5zM201.5 581q-31.5 31 -31.5 77q0 45 31.5 76t77.5 31t77.5 -31t31.5 -76q0 -46 -31.5 -77t-77.5 -31
t-77.5 31zM310 625q12 13 12 33q0 19 -12 32t-31 13t-31 -13t-12 -32q0 -20 12 -33t31 -13t31 13z" />
    <glyph glyph-name="ae" unicode="&#xe6;" horiz-adv-x="837" 
d="M789 130q12 -16 12 -41q0 -17 -10 -31.5t-28 -24.5q-33 -18 -77.5 -29.5t-81.5 -11.5q-69 0 -120 25t-80 72q-23 -47 -67.5 -72t-102.5 -25q-56 0 -100.5 20t-70 55.5t-25.5 80.5q0 54 27.5 85t88.5 45t166 14h26v18q0 42 -19 61t-60 19q-36 0 -63 -7.5t-55 -19.5
q-31 -14 -48 -14q-20 0 -32.5 15.5t-12.5 40.5q0 36 38 57q35 20 82.5 30.5t98.5 10.5q113 0 160 -63q30 30 70 46.5t88 16.5q62 0 110 -30t74.5 -85t26.5 -126q0 -45 -39 -45h-274q8 -58 35.5 -85t80.5 -27q27 0 47.5 6t51.5 19q34 16 51 16q20 0 32 -16zM521.5 371.5
q-25.5 -27.5 -30.5 -79.5h186q-2 51 -25 79t-62 28q-43 0 -68.5 -27.5zM319.5 126.5q26.5 30.5 26.5 75.5v17h-18q-80 0 -112 -13t-32 -47q0 -28 19.5 -45.5t50.5 -17.5q39 0 65.5 30.5z" />
    <glyph glyph-name="ccedilla" unicode="&#xe7;" horiz-adv-x="494" 
d="M465.5 132q12.5 -17 12.5 -43q0 -37 -31 -55q-54 -35 -133 -41l-4 -35q16 2 22 2q31 0 52.5 -19t21.5 -50q0 -39 -35 -63.5t-100 -24.5q-42 0 -71 10q-20 7 -20 30q0 14 9 24t22 6q34 -8 56 -8q46 0 46 26q0 9 -6.5 14t-17.5 5q-9 0 -23 -3t-21 -3q-10 0 -15.5 5.5
t-4.5 15.5l9 71q-93 14 -146.5 80.5t-53.5 168.5q0 77 32.5 135.5t91.5 90.5t136 32q40 0 80.5 -11t72.5 -31q31 -19 31 -56q0 -26 -12 -42.5t-32 -16.5q-13 0 -24.5 4.5t-30.5 13.5q-21 11 -37.5 17t-37.5 6q-56 0 -85.5 -35.5t-29.5 -103.5t29.5 -104t85.5 -36
q21 0 37 5.5t39 17.5q19 9 30 13.5t24 4.5q19 0 31.5 -17z" />
    <glyph glyph-name="egrave" unicode="&#xe8;" horiz-adv-x="533" 
d="M484.5 130q12.5 -16 12.5 -41q0 -17 -10 -31.5t-28 -24.5q-34 -18 -79 -29.5t-83 -11.5q-80 0 -139.5 31t-91.5 88.5t-32 135.5q0 75 31 133t86 90.5t125 32.5q67 0 117.5 -29.5t78.5 -84t28 -127.5q0 -22 -10.5 -33.5t-29.5 -11.5h-280q7 -59 36 -85.5t83 -26.5
q29 0 52 7t51 19q14 6 27 10.5t23 4.5q20 0 32.5 -16zM211 371.5q-26 -27.5 -31 -79.5h193q-3 53 -26.5 80t-66.5 27t-69 -27.5zM125 648q-32 24 -32 54q0 25 18.5 42.5t44.5 17.5q36 0 60 -34l86 -115q9 -13 9 -26q0 -16 -11 -27t-27 -11q-13 0 -26 10z" />
    <glyph glyph-name="eacute" unicode="&#xe9;" horiz-adv-x="533" 
d="M484.5 130q12.5 -16 12.5 -41q0 -17 -10 -31.5t-28 -24.5q-34 -18 -79 -29.5t-83 -11.5q-80 0 -139.5 31t-91.5 88.5t-32 135.5q0 75 31 133t86 90.5t125 32.5q67 0 117.5 -29.5t78.5 -84t28 -127.5q0 -22 -10.5 -33.5t-29.5 -11.5h-280q7 -59 36 -85.5t83 -26.5
q29 0 52 7t51 19q14 6 27 10.5t23 4.5q20 0 32.5 -16zM211 371.5q-26 -27.5 -31 -79.5h193q-3 53 -26.5 80t-66.5 27t-69 -27.5zM279 550q-16 0 -27 11t-11 26q0 13 9 26l86 115q25 34 60 34q25 0 44 -18t19 -42q0 -30 -32 -54l-122 -89q-12 -9 -26 -9z" />
    <glyph glyph-name="ecircumflex" unicode="&#xea;" horiz-adv-x="533" 
d="M484.5 130q12.5 -16 12.5 -41q0 -17 -10 -31.5t-28 -24.5q-34 -18 -79 -29.5t-83 -11.5q-80 0 -139.5 31t-91.5 88.5t-32 135.5q0 75 31 133t86 90.5t125 32.5q67 0 117.5 -29.5t78.5 -84t28 -127.5q0 -22 -10.5 -33.5t-29.5 -11.5h-280q7 -59 36 -85.5t83 -26.5
q29 0 52 7t51 19q14 6 27 10.5t23 4.5q20 0 32.5 -16zM211 371.5q-26 -27.5 -31 -79.5h193q-3 53 -26.5 80t-66.5 27t-69 -27.5zM170 550q-19 0 -33 13t-14 31q0 16 11 30l84 108q14 17 26.5 24.5t31.5 7.5t31.5 -7.5t26.5 -25.5l84 -107q11 -14 11 -29q0 -18 -14.5 -31.5
t-32.5 -13.5q-24 0 -40 23l-66 98l-66 -98q-16 -23 -40 -23z" />
    <glyph glyph-name="edieresis" unicode="&#xeb;" horiz-adv-x="533" 
d="M484.5 130q12.5 -16 12.5 -41q0 -17 -10 -31.5t-28 -24.5q-34 -18 -79 -29.5t-83 -11.5q-80 0 -139.5 31t-91.5 88.5t-32 135.5q0 75 31 133t86 90.5t125 32.5q67 0 117.5 -29.5t78.5 -84t28 -127.5q0 -22 -10.5 -33.5t-29.5 -11.5h-280q7 -59 36 -85.5t83 -26.5
q29 0 52 7t51 19q14 6 27 10.5t23 4.5q20 0 32.5 -16zM211 371.5q-26 -27.5 -31 -79.5h193q-3 53 -26.5 80t-66.5 27t-69 -27.5zM127 605q-21 20 -21 52t21 51t54 19t54 -19t21 -51t-20.5 -52t-54.5 -20q-33 0 -54 20zM317.5 605q-20.5 20 -20.5 52t20.5 51t53.5 19t54 -19
t21 -51t-21 -52t-54 -20t-53.5 20z" />
    <glyph glyph-name="igrave" unicode="&#xec;" horiz-adv-x="267" 
d="M79.5 12q-21.5 18 -21.5 53v365q0 35 22 53t54 18t53.5 -18t21.5 -53v-365q0 -35 -21.5 -53t-53.5 -18q-33 0 -54.5 18zM-17 648q-32 24 -32 54q0 25 18.5 42.5t44.5 17.5q36 0 60 -34l86 -115q9 -13 9 -26q0 -16 -11 -27t-27 -11q-13 0 -26 10z" />
    <glyph glyph-name="iacute" unicode="&#xed;" horiz-adv-x="267" 
d="M79.5 12q-21.5 18 -21.5 53v365q0 35 22 53t54 18t53.5 -18t21.5 -53v-365q0 -35 -21.5 -53t-53.5 -18q-33 0 -54.5 18zM137 550q-16 0 -27 11t-11 26q0 13 9 26l86 115q25 34 60 34q25 0 44 -18t19 -42q0 -30 -32 -54l-122 -89q-12 -9 -26 -9z" />
    <glyph glyph-name="icircumflex" unicode="&#xee;" horiz-adv-x="267" 
d="M79.5 12q-21.5 18 -21.5 53v365q0 35 22 53t54 18t53.5 -18t21.5 -53v-365q0 -35 -21.5 -53t-53.5 -18q-33 0 -54.5 18zM28 550q-19 0 -33 13t-14 31q0 16 11 30l84 108q14 17 26.5 24.5t31.5 7.5t31.5 -7.5t26.5 -25.5l84 -107q11 -14 11 -29q0 -18 -14.5 -31.5
t-32.5 -13.5q-24 0 -40 23l-66 98l-66 -98q-16 -23 -40 -23z" />
    <glyph glyph-name="idieresis" unicode="&#xef;" horiz-adv-x="267" 
d="M79.5 12q-21.5 18 -21.5 53v365q0 35 22 53t54 18t53.5 -18t21.5 -53v-365q0 -35 -21.5 -53t-53.5 -18q-33 0 -54.5 18zM-15 605q-21 20 -21 52t21 51t54 19t54 -19t21 -51t-20.5 -52t-54.5 -20q-33 0 -54 20zM175.5 605q-20.5 20 -20.5 52t20.5 51t53.5 19t54 -19
t21 -51t-21 -52t-54 -20t-53.5 20z" />
    <glyph glyph-name="eth" unicode="&#xf0;" horiz-adv-x="594" 
d="M534.5 424.5q26.5 -66.5 26.5 -135.5q0 -141 -71.5 -219t-201.5 -78q-75 0 -132.5 29t-89.5 82t-32 122q0 67 30.5 119t85 81.5t124.5 29.5q78 0 124 -36q-22 49 -69 93l-126 -34q-10 -2 -15 -2q-18 0 -29 11.5t-11 26.5q0 14 9 25t26 16l65 18q-21 13 -61 32
q-19 9 -28.5 22.5t-9.5 28.5q0 23 17.5 39.5t44.5 16.5q16 0 32 -6q83 -30 155 -93l103 28q10 2 15 2q17 0 28 -11.5t11 -26.5q0 -14 -9 -25t-26 -16l-59 -16q47 -57 73.5 -123.5zM375.5 137.5q28.5 30.5 28.5 87.5q0 58 -28 88t-82 30t-82 -30t-28 -88t28 -88t82 -30
q53 0 81.5 30.5z" />
    <glyph glyph-name="ntilde" unicode="&#xf1;" horiz-adv-x="595" 
d="M497 451.5q43 -51.5 43 -155.5v-231q0 -33 -20.5 -52t-55.5 -19t-55 19t-20 52v224q0 50 -18.5 73t-57.5 23q-47 0 -75.5 -30t-28.5 -80v-210q0 -33 -20 -52t-55 -19t-55.5 19t-20.5 52v367q0 31 21.5 50t55.5 19q31 0 50.5 -18.5t19.5 -47.5v-14q26 40 67.5 61t93.5 21
q88 0 131 -51.5zM336.5 589q-18.5 8 -42.5 22q-22 12 -35 17.5t-24 5.5q-15 0 -24 -7t-21 -22q-9 -12 -15.5 -17.5t-17.5 -5.5q-13 0 -21 11t-8 28q0 21 12.5 47t34.5 44.5t49 18.5q18 0 35.5 -7.5t44.5 -22.5q20 -12 33.5 -18t25.5 -6q15 0 24 7t21 22q9 13 15.5 18.5
t17.5 5.5q13 0 21 -11t8 -28q0 -21 -12.5 -47t-34.5 -44.5t-49 -18.5q-19 0 -37.5 8z" />
    <glyph glyph-name="ograve" unicode="&#xf2;" horiz-adv-x="588" 
d="M157 23.5q-59 31.5 -91 89t-32 135.5t32 135.5t91 88.5t137 31t137 -31t91 -88.5t32 -135.5t-32 -135.5t-91 -89t-137 -31.5t-137 31.5zM404 248q0 71 -28.5 106t-81.5 35q-110 0 -110 -141t110 -141t110 141zM143 648q-32 24 -32 54q0 25 18.5 42.5t44.5 17.5
q36 0 60 -34l86 -115q9 -13 9 -26q0 -16 -11 -27t-27 -11q-13 0 -26 10z" />
    <glyph glyph-name="oacute" unicode="&#xf3;" horiz-adv-x="588" 
d="M157 23.5q-59 31.5 -91 89t-32 135.5t32 135.5t91 88.5t137 31t137 -31t91 -88.5t32 -135.5t-32 -135.5t-91 -89t-137 -31.5t-137 31.5zM404 248q0 71 -28.5 106t-81.5 35q-110 0 -110 -141t110 -141t110 141zM297 550q-16 0 -27 11t-11 26q0 13 9 26l86 115q25 34 60 34
q25 0 44 -18t19 -42q0 -30 -32 -54l-122 -89q-12 -9 -26 -9z" />
    <glyph glyph-name="ocircumflex" unicode="&#xf4;" horiz-adv-x="588" 
d="M157 23.5q-59 31.5 -91 89t-32 135.5t32 135.5t91 88.5t137 31t137 -31t91 -88.5t32 -135.5t-32 -135.5t-91 -89t-137 -31.5t-137 31.5zM404 248q0 71 -28.5 106t-81.5 35q-110 0 -110 -141t110 -141t110 141zM188 550q-19 0 -33 13t-14 31q0 16 11 30l84 108
q14 17 26.5 24.5t31.5 7.5t31.5 -7.5t26.5 -25.5l84 -107q11 -14 11 -29q0 -18 -14.5 -31.5t-32.5 -13.5q-24 0 -40 23l-66 98l-66 -98q-16 -23 -40 -23z" />
    <glyph glyph-name="otilde" unicode="&#xf5;" horiz-adv-x="588" 
d="M157 23.5q-59 31.5 -91 89t-32 135.5t32 135.5t91 88.5t137 31t137 -31t91 -88.5t32 -135.5t-32 -135.5t-91 -89t-137 -31.5t-137 31.5zM404 248q0 71 -28.5 106t-81.5 35q-110 0 -110 -141t110 -141t110 141zM331.5 589q-18.5 8 -42.5 22q-22 12 -35 17.5t-24 5.5
q-15 0 -24 -7t-21 -22q-9 -12 -15.5 -17.5t-17.5 -5.5q-13 0 -21 11t-8 28q0 21 12.5 47t34.5 44.5t49 18.5q18 0 35.5 -7.5t44.5 -22.5q20 -12 33.5 -18t25.5 -6q15 0 24 7t21 22q9 13 15.5 18.5t17.5 5.5q13 0 21 -11t8 -28q0 -21 -12.5 -47t-34.5 -44.5t-49 -18.5
q-19 0 -37.5 8z" />
    <glyph glyph-name="odieresis" unicode="&#xf6;" horiz-adv-x="588" 
d="M157 23.5q-59 31.5 -91 89t-32 135.5t32 135.5t91 88.5t137 31t137 -31t91 -88.5t32 -135.5t-32 -135.5t-91 -89t-137 -31.5t-137 31.5zM404 248q0 71 -28.5 106t-81.5 35q-110 0 -110 -141t110 -141t110 141zM145 605q-21 20 -21 52t21 51t54 19t54 -19t21 -51
t-20.5 -52t-54.5 -20q-33 0 -54 20zM335.5 605q-20.5 20 -20.5 52t20.5 51t53.5 19t54 -19t21 -51t-21 -52t-54 -20t-53.5 20z" />
    <glyph glyph-name="divide" unicode="&#xf7;" 
d="M259 439.5q-17 17.5 -17 42.5q0 26 17 43t42 17t42 -17.5t17 -42.5t-17 -42.5t-42 -17.5t-42 17.5zM77 250q-15 15 -15 37t15 36.5t37 14.5h384q22 0 37 -14.5t15 -36.5t-15 -37t-37 -15h-384q-22 0 -37 15zM259 48.5q-17 17.5 -17 42.5q0 26 17 43.5t42 17.5t42 -17.5
t17 -43.5q0 -25 -17 -42.5t-42 -17.5t-42 17.5z" />
    <glyph glyph-name="oslash" unicode="&#xf8;" horiz-adv-x="588" 
d="M530 367.5q24 -52.5 24 -119.5q0 -78 -32 -135.5t-91 -89t-137 -31.5q-48 0 -93 13l-19 -32q-6 -11 -16.5 -17t-21.5 -6q-16 0 -29 11t-13 27q0 12 7 23l18 31q-45 33 -69 86t-24 120q0 78 32 135.5t91 88.5t137 31q47 0 94 -13l18 31q6 11 16.5 17t21.5 6q16 0 28.5 -11
t12.5 -27q0 -12 -6 -22l-18 -31q45 -33 69 -85.5zM197 162l130 224q-13 4 -33 4q-113 0 -113 -142q0 -54 16 -86zM406 248q0 52 -15 85l-130 -224q15 -3 33 -3q112 0 112 142z" />
    <glyph glyph-name="ugrave" unicode="&#xf9;" horiz-adv-x="589" 
d="M510.5 482q20.5 -19 20.5 -52v-367q0 -31 -21.5 -50t-55.5 -19q-32 0 -51 18t-19 48v10q-23 -38 -60.5 -58t-84.5 -20q-93 0 -138.5 51.5t-45.5 155.5v231q0 33 20.5 52t55.5 19t55 -19t20 -52v-234q0 -44 18.5 -65t56.5 -21q44 0 71.5 30t27.5 79v211q0 33 20 52t55 19
t55.5 -19zM143 648q-32 24 -32 54q0 25 18.5 42.5t44.5 17.5q36 0 60 -34l86 -115q9 -13 9 -26q0 -16 -11 -27t-27 -11q-13 0 -26 10z" />
    <glyph glyph-name="uacute" unicode="&#xfa;" horiz-adv-x="589" 
d="M510.5 482q20.5 -19 20.5 -52v-367q0 -31 -21.5 -50t-55.5 -19q-32 0 -51 18t-19 48v10q-23 -38 -60.5 -58t-84.5 -20q-93 0 -138.5 51.5t-45.5 155.5v231q0 33 20.5 52t55.5 19t55 -19t20 -52v-234q0 -44 18.5 -65t56.5 -21q44 0 71.5 30t27.5 79v211q0 33 20 52t55 19
t55.5 -19zM297 550q-16 0 -27 11t-11 26q0 13 9 26l86 115q25 34 60 34q25 0 44 -18t19 -42q0 -30 -32 -54l-122 -89q-12 -9 -26 -9z" />
    <glyph glyph-name="ucircumflex" unicode="&#xfb;" horiz-adv-x="589" 
d="M510.5 482q20.5 -19 20.5 -52v-367q0 -31 -21.5 -50t-55.5 -19q-32 0 -51 18t-19 48v10q-23 -38 -60.5 -58t-84.5 -20q-93 0 -138.5 51.5t-45.5 155.5v231q0 33 20.5 52t55.5 19t55 -19t20 -52v-234q0 -44 18.5 -65t56.5 -21q44 0 71.5 30t27.5 79v211q0 33 20 52t55 19
t55.5 -19zM188 550q-19 0 -33 13t-14 31q0 16 11 30l84 108q14 17 26.5 24.5t31.5 7.5t31.5 -7.5t26.5 -25.5l84 -107q11 -14 11 -29q0 -18 -14.5 -31.5t-32.5 -13.5q-24 0 -40 23l-66 98l-66 -98q-16 -23 -40 -23z" />
    <glyph glyph-name="udieresis" unicode="&#xfc;" horiz-adv-x="589" 
d="M510.5 482q20.5 -19 20.5 -52v-367q0 -31 -21.5 -50t-55.5 -19q-32 0 -51 18t-19 48v10q-23 -38 -60.5 -58t-84.5 -20q-93 0 -138.5 51.5t-45.5 155.5v231q0 33 20.5 52t55.5 19t55 -19t20 -52v-234q0 -44 18.5 -65t56.5 -21q44 0 71.5 30t27.5 79v211q0 33 20 52t55 19
t55.5 -19zM145 605q-21 20 -21 52t21 51t54 19t54 -19t21 -51t-20.5 -52t-54.5 -20q-33 0 -54 20zM335.5 605q-20.5 20 -20.5 52t20.5 51t53.5 19t54 -19t21 -51t-21 -52t-54 -20t-53.5 20z" />
    <glyph glyph-name="yacute" unicode="&#xfd;" horiz-adv-x="534" 
d="M418.5 489q16.5 10 35.5 10q29 0 51 -18.5t22 -44.5q0 -14 -7 -28l-269 -552q-10 -21 -27 -31.5t-36 -10.5q-28 0 -49 18t-21 44q0 16 7 30l66 137l-178 365q-6 14 -6 27q0 27 23.5 46t53.5 19q20 0 37 -10.5t27 -31.5l124 -270l121 270q9 21 25.5 31zM270 550
q-16 0 -27 11t-11 26q0 13 9 26l86 115q25 34 60 34q25 0 44 -18t19 -42q0 -30 -32 -54l-122 -89q-12 -9 -26 -9z" />
    <glyph glyph-name="thorn" unicode="&#xfe;" horiz-adv-x="613" 
d="M474.5 470q49.5 -33 77 -91.5t27.5 -133.5t-27.5 -132t-77 -89t-112.5 -32q-50 0 -90.5 20.5t-62.5 57.5v-189q0 -30 -20 -48t-53 -18q-35 0 -56.5 19t-21.5 50v757q0 31 21.5 50t56.5 19q33 0 53 -18t20 -48v-219q22 37 62.5 57.5t90.5 20.5q63 0 112.5 -33zM400 142.5
q29 35.5 29 102.5q0 68 -29 105.5t-82 37.5t-82 -36.5t-29 -104.5q0 -67 29 -103.5t82 -36.5t82 35.5z" />
    <glyph glyph-name="ydieresis" unicode="&#xff;" horiz-adv-x="534" 
d="M418.5 489q16.5 10 35.5 10q29 0 51 -18.5t22 -44.5q0 -14 -7 -28l-269 -552q-10 -21 -27 -31.5t-36 -10.5q-28 0 -49 18t-21 44q0 16 7 30l66 137l-178 365q-6 14 -6 27q0 27 23.5 46t53.5 19q20 0 37 -10.5t27 -31.5l124 -270l121 270q9 21 25.5 31zM118 605
q-21 20 -21 52t21 51t54 19t54 -19t21 -51t-20.5 -52t-54.5 -20q-33 0 -54 20zM308.5 605q-20.5 20 -20.5 52t20.5 51t53.5 19t54 -19t21 -51t-21 -52t-54 -20t-53.5 20z" />
    <glyph glyph-name="Amacron" unicode="&#x100;" horiz-adv-x="751" 
d="M735 63q0 -28 -22.5 -47.5t-51.5 -19.5q-19 0 -36 10.5t-26 31.5l-53 118h-339l-53 -118q-9 -21 -25.5 -31.5t-36.5 -10.5q-29 0 -52 19.5t-23 47.5q0 14 8 32l270 567q11 24 33 36.5t47 12.5q26 0 48 -13t34 -36l270 -567q8 -18 8 -32zM260 274h233l-116 260zM218 808.5
q-14 12.5 -14 34.5t14 34.5t36 12.5h242q22 0 36 -12.5t14 -34.5t-14 -34.5t-36 -12.5h-242q-22 0 -36 12.5z" />
    <glyph glyph-name="amacron" unicode="&#x101;" horiz-adv-x="546" 
d="M439 450.5q52 -52.5 52 -160.5v-226q0 -33 -19 -51.5t-53 -18.5q-32 0 -51.5 19.5t-19.5 50.5v7q-15 -37 -50 -58t-82 -21q-50 0 -90.5 20t-64 56t-23.5 80q0 54 27.5 85t88.5 45t167 14h26v18q0 42 -18.5 61t-61.5 19t-124 -30q-23 -11 -39 -11q-22 0 -35 15.5t-13 40.5
q0 20 9 33t29 24q35 19 85.5 30t99.5 11q108 0 160 -52.5zM320 125.5q27 29.5 27 76.5v17h-17q-81 0 -113.5 -13t-32.5 -47q0 -28 18.5 -45.5t46.5 -17.5q44 0 71 29.5zM122 621.5q-14 12.5 -14 34.5t14 34.5t36 12.5h242q22 0 36 -12.5t14 -34.5t-14 -34.5t-36 -12.5h-242
q-22 0 -36 12.5z" />
    <glyph glyph-name="Abreve" unicode="&#x102;" horiz-adv-x="751" 
d="M735 63q0 -28 -22.5 -47.5t-51.5 -19.5q-19 0 -36 10.5t-26 31.5l-53 118h-339l-53 -118q-9 -21 -25.5 -31.5t-36.5 -10.5q-29 0 -52 19.5t-23 47.5q0 14 8 32l270 567q11 24 33 36.5t47 12.5q26 0 48 -13t34 -36l270 -567q8 -18 8 -32zM260 274h233l-116 260zM272.5 794
q-44.5 21 -63.5 56q-8 16 -8 27q0 15 11.5 25.5t27.5 10.5q21 0 38 -17q16 -16 42 -24.5t55 -8.5t55 8.5t42 24.5q17 16 38 16q16 0 27.5 -10t11.5 -26q0 -10 -8 -26q-19 -35 -63.5 -56t-102.5 -21t-102.5 21z" />
    <glyph glyph-name="abreve" unicode="&#x103;" horiz-adv-x="546" 
d="M439 450.5q52 -52.5 52 -160.5v-226q0 -33 -19 -51.5t-53 -18.5q-32 0 -51.5 19.5t-19.5 50.5v7q-15 -37 -50 -58t-82 -21q-50 0 -90.5 20t-64 56t-23.5 80q0 54 27.5 85t88.5 45t167 14h26v18q0 42 -18.5 61t-61.5 19t-124 -30q-23 -11 -39 -11q-22 0 -35 15.5t-13 40.5
q0 20 9 33t29 24q35 19 85.5 30t99.5 11q108 0 160 -52.5zM320 125.5q27 29.5 27 76.5v17h-17q-81 0 -113.5 -13t-32.5 -47q0 -28 18.5 -45.5t46.5 -17.5q44 0 71 29.5zM172.5 604q-48.5 31 -66.5 81q-3 9 -3 18q0 18 12.5 29.5t29.5 11.5q23 0 38 -22q33 -52 96 -52t96 52
q7 11 17.5 16.5t20.5 5.5q17 0 30 -11.5t13 -29.5q0 -6 -4 -18q-18 -50 -66.5 -81t-106.5 -31t-106.5 31z" />
    <glyph glyph-name="Aogonek" unicode="&#x104;" horiz-adv-x="751" 
d="M746 -109q12 0 19.5 -10t7.5 -23q0 -22 -18 -32q-38 -23 -88 -23q-55 0 -91 31.5t-36 81.5q0 32 17 60t50 47q-7 11 -8 15l-53 118h-339l-53 -118q-9 -21 -25.5 -31.5t-36.5 -10.5q-29 0 -52 19.5t-23 47.5q0 14 8 32l270 567q11 24 33 36.5t47 12.5q26 0 48 -13t34 -36
l270 -567q8 -19 8 -32q0 -20 -11.5 -35.5t-28.5 -23.5q-26 -12 -42 -28t-16 -41t15 -39.5t37 -14.5q21 0 48 9q3 1 9 1zM260 274h233l-116 260z" />
    <glyph glyph-name="aogonek" unicode="&#x105;" horiz-adv-x="546" 
d="M507 -109q12 0 19.5 -10t7.5 -23q0 -22 -18 -32q-39 -23 -88 -23q-56 0 -91.5 31.5t-35.5 81.5q0 31 16 58t45 46q-14 19 -14 44v7q-15 -37 -49.5 -58t-80.5 -21q-51 0 -92 20t-64.5 56t-23.5 80q0 54 27.5 85t89 45t166.5 14h26v18q0 42 -18.5 61t-61.5 19t-124 -30
q-23 -11 -39 -11q-22 0 -35 15.5t-13 40.5q0 20 9 33t29 24q35 19 85.5 30t99.5 11q108 0 160 -52.5t52 -160.5v-226q0 -47 -36 -62q-30 -15 -44 -30.5t-14 -36.5q0 -24 15 -39t38 -15q12 0 28 4l20 5q3 1 9 1zM320 125.5q27 29.5 27 76.5v17h-17q-81 0 -113.5 -13.5
t-32.5 -46.5q0 -28 18.5 -45.5t46.5 -17.5q44 0 71 29.5z" />
    <glyph glyph-name="Cacute" unicode="&#x106;" horiz-adv-x="678" 
d="M212 35q-78 44 -120 126t-42 192t42 191.5t120 125.5t182 44q131 0 226 -72q15 -12 21 -24t6 -30q0 -26 -14.5 -44.5t-35.5 -18.5q-14 0 -24.5 3.5t-23.5 12.5q-40 26 -74 37.5t-73 11.5q-96 0 -144.5 -59.5t-48.5 -177.5q0 -238 193 -238q37 0 70 11.5t77 37.5
q15 9 25 12.5t23 3.5q21 0 35.5 -18.5t14.5 -44.5q0 -18 -6.5 -30.5t-20.5 -23.5q-95 -72 -226 -72q-104 0 -182 44zM393 760q-14 0 -24.5 9.5t-10.5 22.5t13 26l86 85q23 23 49 23q22 0 38.5 -16.5t16.5 -38.5q0 -15 -10 -29t-30 -24l-109 -54q-8 -4 -19 -4z" />
    <glyph glyph-name="cacute" unicode="&#x107;" horiz-adv-x="494" 
d="M152 23q-57 31 -87.5 88t-30.5 134t32.5 135.5t91.5 90.5t136 32q40 0 80.5 -11t72.5 -31q31 -19 31 -56q0 -26 -12 -42.5t-32 -16.5q-13 0 -24.5 4.5t-30.5 13.5q-21 11 -37.5 17t-37.5 6q-56 0 -85.5 -35.5t-29.5 -103.5t29.5 -104t85.5 -36q21 0 37 5.5t39 17.5
q19 9 30 13.5t24 4.5q19 0 31.5 -17t12.5 -43q0 -37 -31 -55q-32 -20 -74 -31t-88 -11q-76 0 -133 31zM297 550q-16 0 -27 11t-11 26q0 13 9 26l86 115q25 34 60 34q25 0 44 -18t19 -42q0 -30 -32 -54l-122 -89q-12 -9 -26 -9z" />
    <glyph glyph-name="Ccircumflex" unicode="&#x108;" horiz-adv-x="678" 
d="M212 35q-78 44 -120 126t-42 192t42 191.5t120 125.5t182 44q131 0 226 -72q15 -12 21 -24t6 -30q0 -26 -14.5 -44.5t-35.5 -18.5q-14 0 -24.5 3.5t-23.5 12.5q-40 26 -74 37.5t-73 11.5q-96 0 -144.5 -59.5t-48.5 -177.5q0 -238 193 -238q37 0 70 11.5t77 37.5
q15 9 25 12.5t23 3.5q21 0 35.5 -18.5t14.5 -44.5q0 -18 -6.5 -30.5t-20.5 -23.5q-95 -72 -226 -72q-104 0 -182 44zM290 761q-19 0 -32 12.5t-13 29.5q0 19 18 34l80 68q23 20 51 20t51 -20l80 -68q18 -15 18 -34q0 -17 -13 -29.5t-31 -12.5q-20 0 -36 15l-69 67l-69 -67
q-15 -15 -35 -15z" />
    <glyph glyph-name="ccircumflex" unicode="&#x109;" horiz-adv-x="494" 
d="M152 23q-57 31 -87.5 88t-30.5 134t32.5 135.5t91.5 90.5t136 32q40 0 80.5 -11t72.5 -31q31 -19 31 -56q0 -26 -12 -42.5t-32 -16.5q-13 0 -24.5 4.5t-30.5 13.5q-21 11 -37.5 17t-37.5 6q-56 0 -85.5 -35.5t-29.5 -103.5t29.5 -104t85.5 -36q21 0 37 5.5t39 17.5
q19 9 30 13.5t24 4.5q19 0 31.5 -17t12.5 -43q0 -37 -31 -55q-32 -20 -74 -31t-88 -11q-76 0 -133 31zM188 550q-19 0 -33 13t-14 31q0 16 11 30l84 108q14 17 26.5 24.5t31.5 7.5t31.5 -7.5t26.5 -25.5l84 -107q11 -14 11 -29q0 -18 -14.5 -31.5t-32.5 -13.5q-24 0 -40 23
l-66 98l-66 -98q-16 -23 -40 -23z" />
    <glyph glyph-name="Cdotaccent" unicode="&#x10a;" horiz-adv-x="678" 
d="M212 35q-78 44 -120 126t-42 192t42 191.5t120 125.5t182 44q131 0 226 -72q15 -12 21 -24t6 -30q0 -26 -14.5 -44.5t-35.5 -18.5q-14 0 -24.5 3.5t-23.5 12.5q-40 26 -74 37.5t-73 11.5q-96 0 -144.5 -59.5t-48.5 -177.5q0 -238 193 -238q37 0 70 11.5t77 37.5
q15 9 25 12.5t23 3.5q21 0 35.5 -18.5t14.5 -44.5q0 -18 -6.5 -30.5t-20.5 -23.5q-95 -72 -226 -72q-104 0 -182 44zM331 788.5q-23 20.5 -23 55.5t23 55t63 20q39 0 62.5 -20.5t23.5 -54.5q0 -35 -23 -55.5t-63 -20.5t-63 20.5z" />
    <glyph glyph-name="cdotaccent" unicode="&#x10b;" horiz-adv-x="494" 
d="M152 23q-57 31 -87.5 88t-30.5 134t32.5 135.5t91.5 90.5t136 32q40 0 80.5 -11t72.5 -31q31 -19 31 -56q0 -26 -12 -42.5t-32 -16.5q-13 0 -24.5 4.5t-30.5 13.5q-21 11 -37.5 17t-37.5 6q-56 0 -85.5 -35.5t-29.5 -103.5t29.5 -104t85.5 -36q21 0 37 5.5t39 17.5
q19 9 30 13.5t24 4.5q19 0 31.5 -17t12.5 -43q0 -37 -31 -55q-32 -20 -74 -31t-88 -11q-76 0 -133 31zM231 601.5q-23 20.5 -23 55.5t23 55t63 20q39 0 62.5 -20.5t23.5 -54.5q0 -35 -23 -55.5t-63 -20.5t-63 20.5z" />
    <glyph glyph-name="Ccaron" unicode="&#x10c;" horiz-adv-x="678" 
d="M212 35q-78 44 -120 126t-42 192t42 191.5t120 125.5t182 44q131 0 226 -72q15 -12 21 -24t6 -30q0 -26 -14.5 -44.5t-35.5 -18.5q-14 0 -24.5 3.5t-23.5 12.5q-40 26 -74 37.5t-73 11.5q-96 0 -144.5 -59.5t-48.5 -177.5q0 -238 193 -238q37 0 70 11.5t77 37.5
q15 9 25 12.5t23 3.5q21 0 35.5 -18.5t14.5 -44.5q0 -18 -6.5 -30.5t-20.5 -23.5q-95 -72 -226 -72q-104 0 -182 44zM343 780l-80 67q-18 15 -18 35q0 17 13 29.5t31 12.5q20 0 36 -15l69 -67l69 67q15 15 35 15q19 0 32 -12.5t13 -29.5q0 -18 -18 -35l-80 -67
q-23 -20 -51 -20t-51 20z" />
    <glyph glyph-name="ccaron" unicode="&#x10d;" horiz-adv-x="494" 
d="M152 23q-57 31 -87.5 88t-30.5 134t32.5 135.5t91.5 90.5t136 32q40 0 80.5 -11t72.5 -31q31 -19 31 -56q0 -26 -12 -42.5t-32 -16.5q-13 0 -24.5 4.5t-30.5 13.5q-21 11 -37.5 17t-37.5 6q-56 0 -85.5 -35.5t-29.5 -103.5t29.5 -104t85.5 -36q21 0 37 5.5t39 17.5
q19 9 30 13.5t24 4.5q19 0 31.5 -17t12.5 -43q0 -37 -31 -55q-32 -20 -74 -31t-88 -11q-76 0 -133 31zM263 557.5q-12 7.5 -27 25.5l-84 107q-11 14 -11 30q0 18 14 31t33 13q25 0 40 -23l66 -97l66 97q15 23 40 23q19 0 33 -13t14 -31q0 -16 -11 -30l-84 -108
q-14 -17 -27 -24.5t-31 -7.5q-19 0 -31 7.5z" />
    <glyph glyph-name="Dcaron" unicode="&#x10e;" horiz-adv-x="763" 
d="M89 19q-19 19 -19 54v559q0 35 19 54t54 19h201q115 0 198 -42t127 -121t44 -189t-43.5 -189.5t-126.5 -121.5t-199 -42h-201q-35 0 -54 19zM333 126q225 0 225 227q0 226 -225 226h-107v-453h107zM330 780l-80 67q-18 15 -18 35q0 17 13 29.5t31 12.5q20 0 36 -15
l69 -67l69 67q15 15 35 15q19 0 32 -12.5t13 -29.5q0 -18 -18 -35l-80 -67q-23 -20 -51 -20t-51 20z" />
    <glyph glyph-name="dcaron" unicode="&#x10f;" horiz-adv-x="613" 
d="M592 700q12 11 28 11q15 0 26 -10t11 -27q0 -6 -1 -9l-23 -144q-2 -13 -9.5 -20t-16.5 -7q-11 0 -19 8.5t-8 23.5v142q0 21 12 32zM533.5 691q21.5 -19 21.5 -50v-576q0 -32 -20.5 -51.5t-54.5 -19.5t-54.5 19.5t-20.5 51.5v8q-22 -38 -62.5 -59.5t-91.5 -21.5
q-63 0 -112.5 32.5t-77 91t-27.5 134.5t27.5 133.5t76.5 88.5t113 31q50 0 90.5 -21t62.5 -59v221q0 30 20 48t53 18q35 0 56.5 -19zM376.5 143.5q28.5 36.5 28.5 104.5t-28.5 104t-81.5 36t-82 -35.5t-29 -102.5q0 -68 29 -105.5t82 -37.5t81.5 36.5z" />
    <glyph glyph-name="Dcroat" unicode="&#x110;" horiz-adv-x="793" 
d="M572 663q83 -42 127 -121t44 -189t-43.5 -189.5t-127 -121.5t-199.5 -42h-200q-35 0 -54 19t-19 54v224h-30q-34 0 -52 15.5t-18 43.5t18 43.5t52 15.5h30v217q0 35 19 54t54 19h200q116 0 199 -42zM587 353q0 114 -55.5 170t-168.5 56h-107v-164h130q34 0 52 -15.5
t18 -43.5t-18 -43.5t-52 -15.5h-130v-171h107q224 0 224 227z" />
    <glyph glyph-name="dcroat" unicode="&#x111;" horiz-adv-x="613" 
d="M638.5 623q16.5 -14 16.5 -38t-16.5 -38t-46.5 -14h-37v-468q0 -32 -20.5 -51.5t-54.5 -19.5t-54.5 19.5t-20.5 51.5v8q-22 -38 -62.5 -59.5t-91.5 -21.5q-63 0 -112.5 32.5t-77 91t-27.5 134.5t27.5 133.5t76.5 88.5t113 31q50 0 90.5 -21t62.5 -59v110h-137
q-31 0 -47 14t-16 38q0 25 16 38.5t47 13.5h137v7q0 30 20 48t53 18q35 0 56.5 -19t21.5 -50v-4h37q30 0 46.5 -14zM376.5 143.5q28.5 36.5 28.5 104.5t-28.5 104t-81.5 36t-82 -35.5t-29 -102.5q0 -68 29 -105.5t82 -37.5t81.5 36.5z" />
    <glyph glyph-name="Emacron" unicode="&#x112;" horiz-adv-x="593" 
d="M89 19q-19 19 -19 54v559q0 35 19 54t54 19h354q74 0 74 -60q0 -61 -74 -61h-275v-165h255q74 0 74 -61q0 -60 -74 -60h-255v-177h275q74 0 74 -61q0 -60 -74 -60h-354q-35 0 -54 19zM174 808.5q-14 12.5 -14 34.5t14 34.5t36 12.5h242q22 0 36 -12.5t14 -34.5t-14 -34.5
t-36 -12.5h-242q-22 0 -36 12.5z" />
    <glyph glyph-name="emacron" unicode="&#x113;" horiz-adv-x="533" 
d="M484.5 130q12.5 -16 12.5 -41q0 -17 -10 -31.5t-28 -24.5q-34 -18 -79 -29.5t-83 -11.5q-80 0 -139.5 31t-91.5 88.5t-32 135.5q0 75 31 133t86 90.5t125 32.5q67 0 117.5 -29.5t78.5 -84t28 -127.5q0 -22 -10.5 -33.5t-29.5 -11.5h-280q7 -59 36 -85.5t83 -26.5
q29 0 52 7t51 19q14 6 27 10.5t23 4.5q20 0 32.5 -16zM211 371.5q-26 -27.5 -31 -79.5h193q-3 53 -26.5 80t-66.5 27t-69 -27.5zM119 621.5q-14 12.5 -14 34.5t14 34.5t36 12.5h242q22 0 36 -12.5t14 -34.5t-14 -34.5t-36 -12.5h-242q-22 0 -36 12.5z" />
    <glyph glyph-name="Ebreve" unicode="&#x114;" horiz-adv-x="593" 
d="M89 19q-19 19 -19 54v559q0 35 19 54t54 19h354q74 0 74 -60q0 -61 -74 -61h-275v-165h255q74 0 74 -61q0 -60 -74 -60h-255v-177h275q74 0 74 -61q0 -60 -74 -60h-354q-35 0 -54 19zM228.5 794q-44.5 21 -63.5 56q-8 16 -8 27q0 15 11.5 25.5t27.5 10.5q21 0 38 -17
q16 -16 42 -24.5t55 -8.5t55 8.5t42 24.5q17 16 38 16q16 0 27.5 -10t11.5 -26q0 -10 -8 -26q-19 -35 -63.5 -56t-102.5 -21t-102.5 21z" />
    <glyph glyph-name="ebreve" unicode="&#x115;" horiz-adv-x="533" 
d="M484.5 130q12.5 -16 12.5 -41q0 -17 -10 -31.5t-28 -24.5q-34 -18 -79 -29.5t-83 -11.5q-80 0 -139.5 31t-91.5 88.5t-32 135.5q0 75 31 133t86 90.5t125 32.5q67 0 117.5 -29.5t78.5 -84t28 -127.5q0 -22 -10.5 -33.5t-29.5 -11.5h-280q7 -59 36 -85.5t83 -26.5
q29 0 52 7t51 19q14 6 27 10.5t23 4.5q20 0 32.5 -16zM211 371.5q-26 -27.5 -31 -79.5h193q-3 53 -26.5 80t-66.5 27t-69 -27.5zM169.5 604q-48.5 31 -66.5 81q-3 9 -3 18q0 18 12.5 29.5t29.5 11.5q23 0 38 -22q33 -52 96 -52t96 52q7 11 17.5 16.5t20.5 5.5q17 0 30 -11.5
t13 -29.5q0 -6 -4 -18q-18 -50 -66.5 -81t-106.5 -31t-106.5 31z" />
    <glyph glyph-name="Edotaccent" unicode="&#x116;" horiz-adv-x="593" 
d="M89 19q-19 19 -19 54v559q0 35 19 54t54 19h354q74 0 74 -60q0 -61 -74 -61h-275v-165h255q74 0 74 -61q0 -60 -74 -60h-255v-177h275q74 0 74 -61q0 -60 -74 -60h-354q-35 0 -54 19zM268 788.5q-23 20.5 -23 55.5t23 55t63 20q39 0 62.5 -20.5t23.5 -54.5
q0 -35 -23 -55.5t-63 -20.5t-63 20.5z" />
    <glyph glyph-name="edotaccent" unicode="&#x117;" horiz-adv-x="533" 
d="M484.5 130q12.5 -16 12.5 -41q0 -17 -10 -31.5t-28 -24.5q-34 -18 -79 -29.5t-83 -11.5q-80 0 -139.5 31t-91.5 88.5t-32 135.5q0 75 31 133t86 90.5t125 32.5q67 0 117.5 -29.5t78.5 -84t28 -127.5q0 -22 -10.5 -33.5t-29.5 -11.5h-280q7 -59 36 -85.5t83 -26.5
q29 0 52 7t51 19q14 6 27 10.5t23 4.5q20 0 32.5 -16zM211 371.5q-26 -27.5 -31 -79.5h193q-3 53 -26.5 80t-66.5 27t-69 -27.5zM213 601.5q-23 20.5 -23 55.5t23 55t63 20q39 0 62.5 -20.5t23.5 -54.5q0 -35 -23 -55.5t-63 -20.5t-63 20.5z" />
    <glyph glyph-name="Eogonek" unicode="&#x118;" horiz-adv-x="593" 
d="M574 -109q12 0 19.5 -10t7.5 -23q0 -22 -18 -32q-39 -23 -88 -23q-56 0 -91.5 31t-35.5 79q0 52 38 87h-263q-35 0 -54 19t-19 54v559q0 35 19 54t54 19h354q74 0 74 -60q0 -61 -74 -61h-275v-165h255q74 0 74 -61q0 -60 -74 -60h-255v-177h275q74 0 74 -61
q0 -25 -13 -39t-41 -21q-25 -6 -39 -23t-14 -42q0 -24 15 -39t38 -15q11 0 26.5 3.5t21.5 5.5q3 1 9 1z" />
    <glyph glyph-name="eogonek" unicode="&#x119;" horiz-adv-x="533" 
d="M380 -18q-20 -21 -20 -47q0 -24 15 -39t38 -15q12 0 23.5 2.5t24.5 6.5q3 1 9 1q12 0 19.5 -10t7.5 -23q0 -9 -4.5 -18t-13.5 -14q-39 -23 -88 -23q-56 0 -91.5 31t-35.5 79q0 46 33 79q-122 1 -192.5 69t-70.5 186q0 75 31 133t86 90.5t125 32.5q67 0 117.5 -29.5
t78.5 -84t28 -127.5q0 -22 -10.5 -33.5t-29.5 -11.5h-280q7 -59 36 -85.5t83 -26.5q29 0 52 7t51 19q14 6 27 10.5t23 4.5q20 0 32.5 -16t12.5 -41q0 -36 -46 -60q-51 -26 -71 -47zM211 371.5q-26 -27.5 -31 -79.5h193q-3 53 -26.5 80t-66.5 27t-69 -27.5z" />
    <glyph glyph-name="Ecaron" unicode="&#x11a;" horiz-adv-x="593" 
d="M89 19q-19 19 -19 54v559q0 35 19 54t54 19h354q74 0 74 -60q0 -61 -74 -61h-275v-165h255q74 0 74 -61q0 -60 -74 -60h-255v-177h275q74 0 74 -61q0 -60 -74 -60h-354q-35 0 -54 19zM280 780l-80 67q-18 15 -18 35q0 17 13 29.5t31 12.5q20 0 36 -15l69 -67l69 67
q15 15 35 15q19 0 32 -12.5t13 -29.5q0 -18 -18 -35l-80 -67q-23 -20 -51 -20t-51 20z" />
    <glyph glyph-name="ecaron" unicode="&#x11b;" horiz-adv-x="533" 
d="M484.5 130q12.5 -16 12.5 -41q0 -17 -10 -31.5t-28 -24.5q-34 -18 -79 -29.5t-83 -11.5q-80 0 -139.5 31t-91.5 88.5t-32 135.5q0 75 31 133t86 90.5t125 32.5q67 0 117.5 -29.5t78.5 -84t28 -127.5q0 -22 -10.5 -33.5t-29.5 -11.5h-280q7 -59 36 -85.5t83 -26.5
q29 0 52 7t51 19q14 6 27 10.5t23 4.5q20 0 32.5 -16zM211 371.5q-26 -27.5 -31 -79.5h193q-3 53 -26.5 80t-66.5 27t-69 -27.5zM245 557.5q-12 7.5 -27 25.5l-84 107q-11 14 -11 30q0 18 14 31t33 13q25 0 40 -23l66 -97l66 97q15 23 40 23q19 0 33 -13t14 -31
q0 -16 -11 -30l-84 -108q-14 -17 -27 -24.5t-31 -7.5q-19 0 -31 7.5z" />
    <glyph glyph-name="Gcircumflex" unicode="&#x11c;" horiz-adv-x="738" 
d="M659.5 373.5q16.5 -15.5 16.5 -42.5v-195q0 -40 -6.5 -62t-22.5 -35t-48 -22q-39 -12 -89.5 -19t-95.5 -7q-112 0 -194 43.5t-126 125t-44 193.5q0 110 43.5 191.5t124.5 125.5t189 44q139 0 230 -72q15 -12 21 -24t6 -30q0 -26 -14.5 -44.5t-34.5 -18.5q-13 0 -23.5 4
t-25.5 13q-42 26 -77 37t-77 11q-204 0 -204 -237q0 -122 53 -182t160 -60q58 0 115 15v155h-92q-29 0 -45 14t-16 40t16 40t45 14h171q28 0 44.5 -15.5zM303 761q-19 0 -32 12.5t-13 29.5q0 19 18 34l80 68q23 20 51 20t51 -20l80 -68q18 -15 18 -34q0 -17 -13 -29.5
t-31 -12.5q-20 0 -36 15l-69 67l-69 -67q-15 -15 -35 -15z" />
    <glyph glyph-name="gcircumflex" unicode="&#x11d;" horiz-adv-x="617" 
d="M538.5 481.5q20.5 -19.5 20.5 -51.5v-377q0 -119 -69 -180t-202 -61q-112 0 -184 40q-18 10 -28 24.5t-10 32.5q0 25 12 41t32 16q11 0 26 -4.5t31 -10.5q32 -12 59 -19t58 -7q64 0 95 29t31 88v54q-21 -38 -63 -60t-94 -22q-64 0 -113.5 30t-77.5 85.5t-28 128.5
t28 128.5t77.5 86t113.5 30.5q51 0 92.5 -21.5t63.5 -59.5v10q0 32 20.5 50.5t54.5 18.5t54.5 -19.5zM379.5 163q29.5 34 29.5 95t-29.5 95.5t-82.5 34.5t-83 -34.5t-30 -95.5t30 -95t83 -34t82.5 34zM203 550q-19 0 -33 13t-14 31q0 16 11 30l84 108q14 17 26.5 24.5
t31.5 7.5t31.5 -7.5t26.5 -25.5l84 -107q11 -14 11 -29q0 -18 -14.5 -31.5t-32.5 -13.5q-24 0 -40 23l-66 98l-66 -98q-16 -23 -40 -23z" />
    <glyph glyph-name="Gbreve" unicode="&#x11e;" horiz-adv-x="738" 
d="M659.5 373.5q16.5 -15.5 16.5 -42.5v-195q0 -40 -6.5 -62t-22.5 -35t-48 -22q-39 -12 -89.5 -19t-95.5 -7q-112 0 -194 43.5t-126 125t-44 193.5q0 110 43.5 191.5t124.5 125.5t189 44q139 0 230 -72q15 -12 21 -24t6 -30q0 -26 -14.5 -44.5t-34.5 -18.5q-13 0 -23.5 4
t-25.5 13q-42 26 -77 37t-77 11q-204 0 -204 -237q0 -122 53 -182t160 -60q58 0 115 15v155h-92q-29 0 -45 14t-16 40t16 40t45 14h171q28 0 44.5 -15.5zM304.5 794q-44.5 21 -63.5 56q-8 16 -8 27q0 15 11.5 25.5t27.5 10.5q21 0 38 -17q16 -16 42 -24.5t55 -8.5t55 8.5
t42 24.5q17 16 38 16q16 0 27.5 -10t11.5 -26q0 -10 -8 -26q-19 -35 -63.5 -56t-102.5 -21t-102.5 21z" />
    <glyph glyph-name="gbreve" unicode="&#x11f;" horiz-adv-x="617" 
d="M538.5 481.5q20.5 -19.5 20.5 -51.5v-377q0 -119 -69 -180t-202 -61q-112 0 -184 40q-18 10 -28 24.5t-10 32.5q0 25 12 41t32 16q11 0 26 -4.5t31 -10.5q32 -12 59 -19t58 -7q64 0 95 29t31 88v54q-21 -38 -63 -60t-94 -22q-64 0 -113.5 30t-77.5 85.5t-28 128.5
t28 128.5t77.5 86t113.5 30.5q51 0 92.5 -21.5t63.5 -59.5v10q0 32 20.5 50.5t54.5 18.5t54.5 -19.5zM379.5 163q29.5 34 29.5 95t-29.5 95.5t-82.5 34.5t-83 -34.5t-30 -95.5t30 -95t83 -34t82.5 34zM202.5 604q-48.5 31 -66.5 81q-3 9 -3 18q0 18 12.5 29.5t29.5 11.5
q23 0 38 -22q33 -52 96 -52t96 52q7 11 17.5 16.5t20.5 5.5q17 0 30 -11.5t13 -29.5q0 -6 -4 -18q-18 -50 -66.5 -81t-106.5 -31t-106.5 31z" />
    <glyph glyph-name="Gdotaccent" unicode="&#x120;" horiz-adv-x="738" 
d="M659.5 373.5q16.5 -15.5 16.5 -42.5v-195q0 -40 -6.5 -62t-22.5 -35t-48 -22q-39 -12 -89.5 -19t-95.5 -7q-112 0 -194 43.5t-126 125t-44 193.5q0 110 43.5 191.5t124.5 125.5t189 44q139 0 230 -72q15 -12 21 -24t6 -30q0 -26 -14.5 -44.5t-34.5 -18.5q-13 0 -23.5 4
t-25.5 13q-42 26 -77 37t-77 11q-204 0 -204 -237q0 -122 53 -182t160 -60q58 0 115 15v155h-92q-29 0 -45 14t-16 40t16 40t45 14h171q28 0 44.5 -15.5zM344 788.5q-23 20.5 -23 55.5t23 55t63 20q39 0 62.5 -20.5t23.5 -54.5q0 -35 -23 -55.5t-63 -20.5t-63 20.5z" />
    <glyph glyph-name="gdotaccent" unicode="&#x121;" horiz-adv-x="617" 
d="M538.5 481.5q20.5 -19.5 20.5 -51.5v-377q0 -119 -69 -180t-202 -61q-112 0 -184 40q-18 10 -28 24.5t-10 32.5q0 25 12 41t32 16q11 0 26 -4.5t31 -10.5q32 -12 59 -19t58 -7q64 0 95 29t31 88v54q-21 -38 -63 -60t-94 -22q-64 0 -113.5 30t-77.5 85.5t-28 128.5
t28 128.5t77.5 86t113.5 30.5q51 0 92.5 -21.5t63.5 -59.5v10q0 32 20.5 50.5t54.5 18.5t54.5 -19.5zM379.5 163q29.5 34 29.5 95t-29.5 95.5t-82.5 34.5t-83 -34.5t-30 -95.5t30 -95t83 -34t82.5 34zM246 601.5q-23 20.5 -23 55.5t23 55t63 20q39 0 62.5 -20.5t23.5 -54.5
q0 -35 -23 -55.5t-63 -20.5t-63 20.5z" />
    <glyph glyph-name="Gcommaaccent" unicode="&#x122;" horiz-adv-x="738" 
d="M659.5 373.5q16.5 -15.5 16.5 -42.5v-195q0 -40 -6.5 -62t-22.5 -35t-48 -22q-39 -12 -89.5 -19t-95.5 -7q-112 0 -194 43.5t-126 125t-44 193.5q0 110 43.5 191.5t124.5 125.5t189 44q139 0 230 -72q15 -12 21 -24t6 -30q0 -26 -14.5 -44.5t-34.5 -18.5q-13 0 -23.5 4
t-25.5 13q-42 26 -77 37t-77 11q-204 0 -204 -237q0 -122 53 -182t160 -60q58 0 115 15v155h-92q-29 0 -45 14t-16 40t16 40t45 14h171q28 0 44.5 -15.5zM472.5 -83q22.5 -23 22.5 -67q0 -32 -10 -59t-26 -45q-8 -9 -19 -14t-21 -5q-15 0 -24.5 7t-9.5 19q0 11 8 20
q16 24 20 42h-5q-28 0 -48 15.5t-20 42.5q0 30 20.5 48.5t51.5 18.5q38 0 60.5 -23z" />
    <glyph glyph-name="gcommaaccent" unicode="&#x123;" horiz-adv-x="617" 
d="M538.5 481.5q20.5 -19.5 20.5 -51.5v-377q0 -119 -69 -180t-202 -61q-112 0 -184 40q-18 10 -28 24.5t-10 32.5q0 25 12 41t32 16q11 0 26 -4.5t31 -10.5q32 -12 59 -19t58 -7q64 0 95 29t31 88v54q-21 -38 -63 -60t-94 -22q-64 0 -113.5 30t-77.5 85.5t-28 128.5
t28 128.5t77.5 86t113.5 30.5q51 0 92.5 -21.5t63.5 -59.5v10q0 32 20.5 50.5t54.5 18.5t54.5 -19.5zM379.5 163q29.5 34 29.5 95t-29.5 95.5t-82.5 34.5t-83 -34.5t-30 -95.5t30 -95t83 -34t82.5 34zM363 688q20 -15 20 -43q0 -30 -20.5 -48t-51.5 -18q-38 0 -60.5 22.5
t-22.5 66.5q0 32 10 59t26 46q15 18 40 18q14 0 24 -7t10 -19q0 -11 -8 -20q-15 -21 -20 -42h5q28 0 48 -15z" />
    <glyph glyph-name="Hcircumflex" unicode="&#x124;" horiz-adv-x="771" 
d="M680 689q21 -21 21 -56v-561q0 -35 -21 -56.5t-56 -21.5t-55.5 21t-20.5 57v224h-325v-224q0 -35 -21 -56.5t-55 -21.5q-35 0 -56 21t-21 57v561q0 35 21 56t56 21t55.5 -21t20.5 -56v-213h325v213q0 35 20.5 56t55.5 21t56 -21zM282 761q-19 0 -32 12.5t-13 29.5
q0 19 18 34l80 68q23 20 51 20t51 -20l80 -68q18 -15 18 -34q0 -17 -13 -29.5t-31 -12.5q-20 0 -36 15l-69 67l-69 -67q-15 -15 -35 -15z" />
    <glyph glyph-name="hcircumflex" unicode="&#x125;" horiz-adv-x="595" 
d="M540 296v-231q0 -33 -20.5 -52t-55.5 -19t-55 19t-20 52v233q0 44 -18.5 65.5t-57.5 21.5q-47 0 -75.5 -30t-28.5 -80v-210q0 -33 -20 -52t-55 -19t-55.5 19t-20.5 52v576q0 31 21.5 50t56.5 19q33 0 53 -18t20 -48v-218q26 38 67 57.5t93 19.5q171 0 171 -207zM32 761
q-19 0 -32 12.5t-13 29.5q0 19 18 34l80 68q23 20 51 20t51 -20l80 -68q18 -15 18 -34q0 -17 -13 -29.5t-31 -12.5q-20 0 -36 15l-69 67l-69 -67q-15 -15 -35 -15z" />
    <glyph glyph-name="Hbar" unicode="&#x126;" horiz-adv-x="831" 
d="M813 604.5q18 -15.5 18 -41.5t-18 -41.5t-52 -15.5h-30v-434q0 -38 -22 -58t-55 -20t-54.5 20t-21.5 58v224h-325v-224q0 -38 -22 -58t-55 -20t-54.5 20t-21.5 58v434h-30q-34 0 -52 15.5t-18 41.5t18 41.5t52 15.5h30v13q0 37 21.5 57t54.5 20t55 -20t22 -57v-13h325v13
q0 37 21.5 57t54.5 20t55 -20t22 -57v-13h30q34 0 52 -15.5zM578 420v86h-325v-86h325z" />
    <glyph glyph-name="hbar" unicode="&#x127;" horiz-adv-x="595" 
d="M540 296v-231q0 -33 -20.5 -52t-55.5 -19t-55 19t-20 52v233q0 44 -18.5 65.5t-57.5 21.5q-47 0 -75.5 -30t-28.5 -80v-210q0 -33 -20 -52t-55 -19t-55.5 19t-20.5 52v468h-37q-30 0 -46.5 14t-16.5 38t16.5 38t46.5 14h37v4q0 31 21.5 50t56.5 19q33 0 53 -18t20 -48v-7
h137q31 0 47 -13.5t16 -38.5q0 -24 -16 -38t-47 -14h-137v-107q26 38 67 57.5t93 19.5q171 0 171 -207z" />
    <glyph glyph-name="Itilde" unicode="&#x128;" horiz-adv-x="296" 
d="M91 15q-21 21 -21 57v561q0 35 21 56t57 21t57 -21t21 -56v-561q0 -36 -21 -57t-57 -21t-57 21zM174.5 788q-25.5 7 -29.5 8q-45 15 -71 15q-11 0 -18 -4t-15 -12q-9 -9 -15.5 -13t-17.5 -4q-14 0 -22.5 9.5t-8.5 25.5q0 21 12.5 43t34.5 36.5t49 14.5q23 0 48.5 -7
t29.5 -8q45 -15 71 -15q11 0 17.5 4t15.5 12q8 8 15 12t18 4q15 0 23 -9t8 -25q0 -21 -12.5 -43t-34.5 -36.5t-49 -14.5q-23 0 -48.5 7z" />
    <glyph glyph-name="itilde" unicode="&#x129;" horiz-adv-x="267" 
d="M79.5 12q-21.5 18 -21.5 53v365q0 35 22 53t54 18t53.5 -18t21.5 -53v-365q0 -35 -21.5 -53t-53.5 -18q-33 0 -54.5 18zM171.5 589q-18.5 8 -42.5 22q-22 12 -35 17.5t-24 5.5q-15 0 -24 -7t-21 -22q-9 -12 -15.5 -17.5t-17.5 -5.5q-13 0 -21 11t-8 28q0 21 12.5 47
t34.5 44.5t49 18.5q18 0 35.5 -7.5t44.5 -22.5q20 -12 33.5 -18t25.5 -6q15 0 24 7t21 22q9 13 15.5 18.5t17.5 5.5q13 0 21 -11t8 -28q0 -21 -12.5 -47t-34.5 -44.5t-49 -18.5q-19 0 -37.5 8z" />
    <glyph glyph-name="Imacron" unicode="&#x12a;" horiz-adv-x="296" 
d="M91 15q-21 21 -21 57v561q0 35 21 56t57 21t57 -21t21 -56v-561q0 -36 -21 -57t-57 -21t-57 21zM-9 808.5q-14 12.5 -14 34.5t14 34.5t36 12.5h242q22 0 36 -12.5t14 -34.5t-14 -34.5t-36 -12.5h-242q-22 0 -36 12.5z" />
    <glyph glyph-name="imacron" unicode="&#x12b;" horiz-adv-x="267" 
d="M79.5 12q-21.5 18 -21.5 53v365q0 35 22 53t54 18t53.5 -18t21.5 -53v-365q0 -35 -21.5 -53t-53.5 -18q-33 0 -54.5 18zM-23 621.5q-14 12.5 -14 34.5t14 34.5t36 12.5h242q22 0 36 -12.5t14 -34.5t-14 -34.5t-36 -12.5h-242q-22 0 -36 12.5z" />
    <glyph glyph-name="Ibreve" unicode="&#x12c;" horiz-adv-x="296" 
d="M91 15q-21 21 -21 57v561q0 35 21 56t57 21t57 -21t21 -56v-561q0 -36 -21 -57t-57 -21t-57 21zM45.5 794q-44.5 21 -63.5 56q-8 16 -8 27q0 15 11.5 25.5t27.5 10.5q21 0 38 -17q16 -16 42 -24.5t55 -8.5t55 8.5t42 24.5q17 16 38 16q16 0 27.5 -10t11.5 -26
q0 -10 -8 -26q-19 -35 -63.5 -56t-102.5 -21t-102.5 21z" />
    <glyph glyph-name="ibreve" unicode="&#x12d;" horiz-adv-x="267" 
d="M79.5 12q-21.5 18 -21.5 53v365q0 35 22 53t54 18t53.5 -18t21.5 -53v-365q0 -35 -21.5 -53t-53.5 -18q-33 0 -54.5 18zM27.5 604q-48.5 31 -66.5 81q-3 9 -3 18q0 18 12.5 29.5t29.5 11.5q23 0 38 -22q33 -52 96 -52t96 52q7 11 17.5 16.5t20.5 5.5q17 0 30 -11.5
t13 -29.5q0 -6 -4 -18q-18 -50 -66.5 -81t-106.5 -31t-106.5 31z" />
    <glyph glyph-name="Iogonek" unicode="&#x12e;" horiz-adv-x="296" 
d="M243 -109q12 0 19 -10t7 -23q0 -22 -18 -32q-37 -23 -88 -23q-56 0 -91.5 31.5t-35.5 81.5q0 30 14.5 55.5t40.5 44.5q-21 21 -21 56v561q0 35 21 56t57 21t57 -21t21 -56v-561q0 -24 -9.5 -41.5t-25.5 -24.5q-58 -27 -58 -71q0 -24 14.5 -39t38.5 -15q18 0 48 9q3 1 9 1
z" />
    <glyph glyph-name="iogonek" unicode="&#x12f;" horiz-adv-x="267" 
d="M71 601.5q-23 20.5 -23 55.5t23 55t63 20q38 0 61.5 -20.5t23.5 -54.5q0 -35 -23 -55.5t-62 -20.5q-40 0 -63 20.5zM226 -109q12 0 19.5 -10t7.5 -23q0 -9 -4.5 -18t-13.5 -14q-39 -23 -88 -23q-55 0 -91.5 31t-36.5 82q0 29 14 55t42 45q-17 20 -17 49v365q0 35 22 53
t54 18t53.5 -18t21.5 -53v-365q0 -45 -35 -61q-26 -12 -42 -28t-16 -41t15 -39.5t38 -14.5q20 0 48 9q3 1 9 1z" />
    <glyph glyph-name="Idotaccent" unicode="&#x130;" horiz-adv-x="296" 
d="M91 15q-21 21 -21 57v561q0 35 21 56t57 21t57 -21t21 -56v-561q0 -36 -21 -57t-57 -21t-57 21zM85 788.5q-23 20.5 -23 55.5t23 55t63 20q39 0 62.5 -20.5t23.5 -54.5q0 -35 -23 -55.5t-63 -20.5t-63 20.5z" />
    <glyph glyph-name="dotlessi" unicode="&#x131;" horiz-adv-x="267" 
d="M79.5 12q-21.5 18 -21.5 53v365q0 35 22 53t54 18t53.5 -18t21.5 -53v-365q0 -35 -21.5 -53t-53.5 -18q-33 0 -54.5 18z" />
    <glyph glyph-name="Jcircumflex" unicode="&#x134;" horiz-adv-x="377" 
d="M7.5 8q-23.5 16 -23.5 49q0 30 15 44.5t47 16.5l32 2q72 3 72 85v428q0 35 22 56t57 21t56.5 -21t21.5 -56v-426q0 -198 -198 -211l-32 -2q-46 -2 -69.5 14zM125 761q-19 0 -32 12.5t-13 29.5q0 19 18 34l80 68q23 20 51 20t51 -20l80 -68q18 -15 18 -34q0 -17 -13 -29.5
t-31 -12.5q-20 0 -36 15l-69 67l-69 -67q-15 -15 -35 -15z" />
    <glyph glyph-name="jcircumflex" unicode="&#x135;" horiz-adv-x="267" 
d="M-59 -170.5q-24 14.5 -24 44.5q0 49 59 53l28 2q26 2 40 17.5t14 45.5v438q0 35 22 53t54 18t53.5 -18t21.5 -53v-427q0 -170 -174 -183l-28 -2q-42 -3 -66 11.5zM27 550q-19 0 -33 13t-14 31q0 16 11 30l84 108q14 17 26.5 24.5t31.5 7.5t31.5 -7.5t26.5 -25.5l84 -107
q11 -14 11 -29q0 -18 -14.5 -31.5t-32.5 -13.5q-24 0 -40 23l-66 98l-66 -98q-16 -23 -40 -23z" />
    <glyph glyph-name="Kcommaaccent" unicode="&#x136;" horiz-adv-x="678" 
d="M664 67q0 -28 -21.5 -49t-49.5 -21q-32 0 -57 26l-310 303v-254q0 -36 -21 -57t-57 -21t-57 21t-21 57v561q0 35 21 56t57 21t57 -21t21 -56v-239l302 293q22 22 50 22t49 -20.5t21 -48.5q0 -29 -24 -52l-238 -223l255 -248q23 -23 23 -50zM399.5 -83q22.5 -23 22.5 -67
q0 -32 -10 -59t-26 -45q-8 -9 -19 -14t-21 -5q-15 0 -24.5 7t-9.5 19q0 11 8 20q16 24 20 42h-5q-28 0 -48 15.5t-20 42.5q0 30 20.5 48.5t51.5 18.5q38 0 60.5 -23z" />
    <glyph glyph-name="kcommaaccent" unicode="&#x137;" horiz-adv-x="558" 
d="M544 67q0 -28 -20.5 -50t-47.5 -22q-26 0 -48 21l-219 203v-153q0 -35 -21.5 -53t-53.5 -18q-33 0 -54.5 18t-21.5 53v573q0 35 21.5 53t54.5 18q32 0 53.5 -18t21.5 -53v-358l200 197q22 22 49 22q28 0 49 -20.5t21 -48.5q0 -26 -23 -49l-133 -127l149 -138
q23 -22 23 -50zM337.5 -83q22.5 -23 22.5 -67q0 -32 -10 -59t-26 -45q-8 -9 -19 -14t-21 -5q-15 0 -24.5 7t-9.5 19q0 11 8 20q16 24 20 42h-5q-28 0 -48 15.5t-20 42.5q0 30 20.5 48.5t51.5 18.5q38 0 60.5 -23z" />
    <glyph glyph-name="kgreenlandic" unicode="&#x138;" horiz-adv-x="558" 
d="M544 67q0 -28 -20.5 -50t-47.5 -22q-26 0 -48 21l-219 203v-153q0 -35 -21.5 -53t-53.5 -18q-33 0 -54.5 18t-21.5 53v364q0 35 22 53t54 18t53.5 -18t21.5 -53v-149l200 197q22 22 49 22q28 0 49 -20.5t21 -48.5q0 -26 -23 -49l-133 -127l149 -138q23 -22 23 -50z" />
    <glyph glyph-name="Lacute" unicode="&#x139;" horiz-adv-x="563" 
d="M89 19q-19 19 -19 54v560q0 35 21 56t57 21t57 -21t21 -56v-506h256q73 0 73 -64q0 -63 -73 -63h-339q-35 0 -54 19zM147 760q-14 0 -24.5 9.5t-10.5 22.5t13 26l86 85q23 23 49 23q22 0 38.5 -16.5t16.5 -38.5q0 -15 -10 -29t-30 -24l-109 -54q-8 -4 -19 -4z" />
    <glyph glyph-name="lacute" unicode="&#x13a;" horiz-adv-x="267" 
d="M79.5 12q-21.5 18 -21.5 53v574q0 35 21.5 53t54.5 18q32 0 53.5 -18t21.5 -53v-574q0 -35 -21.5 -53t-53.5 -18q-33 0 -54.5 18zM133 760q-14 0 -24.5 9.5t-10.5 22.5t13 26l86 85q23 23 49 23q22 0 38.5 -16.5t16.5 -38.5q0 -15 -10 -29t-30 -24l-109 -54q-8 -4 -19 -4
z" />
    <glyph glyph-name="Lcommaaccent" unicode="&#x13b;" horiz-adv-x="563" 
d="M89 19q-19 19 -19 54v560q0 35 21 56t57 21t57 -21t21 -56v-506h256q73 0 73 -64q0 -63 -73 -63h-339q-35 0 -54 19zM371.5 -83q22.5 -23 22.5 -67q0 -32 -10 -59t-26 -45q-8 -9 -19 -14t-21 -5q-15 0 -24.5 7t-9.5 19q0 11 8 20q16 24 20 42h-5q-28 0 -48 15.5t-20 42.5
q0 30 20.5 48.5t51.5 18.5q38 0 60.5 -23z" />
    <glyph glyph-name="lcommaaccent" unicode="&#x13c;" horiz-adv-x="267" 
d="M79.5 12q-21.5 18 -21.5 53v574q0 35 21.5 53t54.5 18q32 0 53.5 -18t21.5 -53v-574q0 -35 -21.5 -53t-53.5 -18q-33 0 -54.5 18zM192.5 -83q22.5 -23 22.5 -67q0 -32 -10 -59t-26 -45q-8 -9 -19 -14t-21 -5q-15 0 -24.5 7t-9.5 19q0 11 8 20q16 24 20 42h-5
q-28 0 -48 15.5t-20 42.5q0 30 20.5 48.5t51.5 18.5q38 0 60.5 -23z" />
    <glyph glyph-name="Lcaron" unicode="&#x13d;" horiz-adv-x="563" 
d="M89 19q-19 19 -19 54v560q0 35 21 56t57 21t57 -21t21 -56v-506h256q73 0 73 -64q0 -63 -73 -63h-339q-35 0 -54 19zM370 502.5q-9 -6.5 -21 -6.5q-15 0 -25.5 8.5t-10.5 23.5v131q0 25 16 39t38 14t37.5 -12.5t15.5 -34.5q0 -10 -2 -16l-35 -128q-4 -12 -13 -18.5z" />
    <glyph glyph-name="lcaron" unicode="&#x13e;" horiz-adv-x="267" 
d="M278.5 501q-7.5 -7 -16.5 -7q-11 0 -19 8.5t-8 23.5v142q0 21 12 32t28 11q15 0 26 -10t11 -27q0 -6 -1 -9l-23 -144q-2 -13 -9.5 -20zM79.5 12q-21.5 18 -21.5 53v574q0 35 21.5 53t54.5 18q32 0 53.5 -18t21.5 -53v-574q0 -35 -21.5 -53t-53.5 -18q-33 0 -54.5 18z" />
    <glyph glyph-name="Ldot" unicode="&#x13f;" horiz-adv-x="563" 
d="M89 19q-19 19 -19 54v560q0 35 21 56t57 21t57 -21t21 -56v-506h256q73 0 73 -64q0 -63 -73 -63h-339q-35 0 -54 19zM328 298.5q-23 20.5 -23 55.5t23 55t63 20q39 0 62.5 -20.5t23.5 -54.5q0 -35 -23 -55.5t-63 -20.5t-63 20.5z" />
    <glyph glyph-name="ldot" unicode="&#x140;" horiz-adv-x="374" 
d="M79.5 12q-21.5 18 -21.5 53v574q0 35 21.5 53t54.5 18q32 0 53.5 -18t21.5 -53v-574q0 -35 -21.5 -53t-53.5 -18q-33 0 -54.5 18zM258 297.5q-23 20.5 -23 55.5t23 55t63 20q39 0 62.5 -20.5t23.5 -54.5q0 -35 -23 -55.5t-63 -20.5t-63 20.5z" />
    <glyph glyph-name="Lslash" unicode="&#x141;" horiz-adv-x="593" 
d="M585 63q0 -63 -73 -63h-339q-35 0 -54 19t-19 54v172l-8 -5q-18 -11 -37 -11q-23 0 -39 17t-16 39q0 16 9 30.5t26 24.5l65 37v256q0 35 21 56t56 21q37 0 58 -21t21 -56v-166l101 58q17 10 35 10q24 0 40.5 -17t16.5 -39q0 -15 -9 -29t-26 -24l-158 -91v-208h256
q73 0 73 -64z" />
    <glyph glyph-name="lslash" unicode="&#x142;" horiz-adv-x="351" 
d="M296 480q23 0 39 -17t16 -39q0 -16 -9 -30.5t-26 -24.5l-65 -37v-267q0 -35 -21.5 -53t-53.5 -18q-33 0 -54.5 18t-21.5 53v180l-8 -5q-18 -11 -37 -11q-23 0 -39 17t-16 39q0 16 9 30.5t26 24.5l65 37v262q0 35 21.5 53t54.5 18q32 0 53.5 -18t21.5 -53v-175l8 5
q18 11 37 11z" />
    <glyph glyph-name="Nacute" unicode="&#x143;" horiz-adv-x="752" 
d="M661.5 688.5q20.5 -21.5 20.5 -55.5v-561q0 -35 -20.5 -56.5t-53.5 -21.5q-36 0 -58 26l-335 429v-377q0 -35 -19.5 -56.5t-52.5 -21.5t-53 21.5t-20 56.5v561q0 34 20.5 55.5t53.5 21.5q37 0 57 -26l335 -426v375q0 34 20 55.5t52 21.5q33 0 53.5 -21.5zM375 760
q-14 0 -24.5 9.5t-10.5 22.5t13 26l86 85q23 23 49 23q22 0 38.5 -16.5t16.5 -38.5q0 -15 -10 -29t-30 -24l-109 -54q-8 -4 -19 -4z" />
    <glyph glyph-name="nacute" unicode="&#x144;" horiz-adv-x="595" 
d="M497 451.5q43 -51.5 43 -155.5v-231q0 -33 -20.5 -52t-55.5 -19t-55 19t-20 52v224q0 50 -18.5 73t-57.5 23q-47 0 -75.5 -30t-28.5 -80v-210q0 -33 -20 -52t-55 -19t-55.5 19t-20.5 52v367q0 31 21.5 50t55.5 19q31 0 50.5 -18.5t19.5 -47.5v-14q26 40 67.5 61t93.5 21
q88 0 131 -51.5zM302 550q-16 0 -27 11t-11 26q0 13 9 26l86 115q25 34 60 34q25 0 44 -18t19 -42q0 -30 -32 -54l-122 -89q-12 -9 -26 -9z" />
    <glyph glyph-name="Ncommaaccent" unicode="&#x145;" horiz-adv-x="752" 
d="M661.5 688.5q20.5 -21.5 20.5 -55.5v-561q0 -35 -20.5 -56.5t-53.5 -21.5q-36 0 -58 26l-335 429v-377q0 -35 -19.5 -56.5t-52.5 -21.5t-53 21.5t-20 56.5v561q0 34 20.5 55.5t53.5 21.5q37 0 57 -26l335 -426v375q0 34 20 55.5t52 21.5q33 0 53.5 -21.5zM435.5 -83
q22.5 -23 22.5 -67q0 -32 -10 -59t-26 -45q-8 -9 -19 -14t-21 -5q-15 0 -24.5 7t-9.5 19q0 11 8 20q16 24 20 42h-5q-28 0 -48 15.5t-20 42.5q0 30 20.5 48.5t51.5 18.5q38 0 60.5 -23z" />
    <glyph glyph-name="ncommaaccent" unicode="&#x146;" horiz-adv-x="595" 
d="M497 451.5q43 -51.5 43 -155.5v-231q0 -33 -20.5 -52t-55.5 -19t-55 19t-20 52v224q0 50 -18.5 73t-57.5 23q-47 0 -75.5 -30t-28.5 -80v-210q0 -33 -20 -52t-55 -19t-55.5 19t-20.5 52v367q0 31 21.5 50t55.5 19q31 0 50.5 -18.5t19.5 -47.5v-14q26 40 67.5 61t93.5 21
q88 0 131 -51.5zM357.5 -83q22.5 -23 22.5 -67q0 -32 -10 -59t-26 -45q-8 -9 -19 -14t-21 -5q-15 0 -24.5 7t-9.5 19q0 11 8 20q16 24 20 42h-5q-28 0 -48 15.5t-20 42.5q0 30 20.5 48.5t51.5 18.5q38 0 60.5 -23z" />
    <glyph glyph-name="Ncaron" unicode="&#x147;" horiz-adv-x="752" 
d="M661.5 688.5q20.5 -21.5 20.5 -55.5v-561q0 -35 -20.5 -56.5t-53.5 -21.5q-36 0 -58 26l-335 429v-377q0 -35 -19.5 -56.5t-52.5 -21.5t-53 21.5t-20 56.5v561q0 34 20.5 55.5t53.5 21.5q37 0 57 -26l335 -426v375q0 34 20 55.5t52 21.5q33 0 53.5 -21.5zM325 780l-80 67
q-18 15 -18 35q0 17 13 29.5t31 12.5q20 0 36 -15l69 -67l69 67q15 15 35 15q19 0 32 -12.5t13 -29.5q0 -18 -18 -35l-80 -67q-23 -20 -51 -20t-51 20z" />
    <glyph glyph-name="ncaron" unicode="&#x148;" horiz-adv-x="595" 
d="M497 451.5q43 -51.5 43 -155.5v-231q0 -33 -20.5 -52t-55.5 -19t-55 19t-20 52v224q0 50 -18.5 73t-57.5 23q-47 0 -75.5 -30t-28.5 -80v-210q0 -33 -20 -52t-55 -19t-55.5 19t-20.5 52v367q0 31 21.5 50t55.5 19q31 0 50.5 -18.5t19.5 -47.5v-14q26 40 67.5 61t93.5 21
q88 0 131 -51.5zM268 557.5q-12 7.5 -27 25.5l-84 107q-11 14 -11 30q0 18 14 31t33 13q25 0 40 -23l66 -97l66 97q15 23 40 23q19 0 33 -13t14 -31q0 -16 -11 -30l-84 -108q-14 -17 -27 -24.5t-31 -7.5q-19 0 -31 7.5z" />
    <glyph glyph-name="napostrophe" unicode="&#x149;" horiz-adv-x="595" 
d="M201.5 739q22.5 -23 22.5 -67q0 -31 -10 -58t-26 -46q-15 -18 -40 -18q-14 0 -24 7t-10 19q0 9 8 20q17 25 20 41h-5q-28 0 -48 15.5t-20 42.5q0 30 20.5 48.5t51.5 18.5q38 0 60.5 -23zM497 451.5q43 -51.5 43 -155.5v-231q0 -33 -20.5 -52t-55.5 -19t-55 19t-20 52v224
q0 50 -18.5 73t-57.5 23q-47 0 -75.5 -30t-28.5 -80v-210q0 -33 -20 -52t-55 -19t-55.5 19t-20.5 52v367q0 31 21.5 50t55.5 19q31 0 50.5 -18.5t19.5 -47.5v-14q26 40 67.5 61t93.5 21q88 0 131 -51.5z" />
    <glyph glyph-name="Eng" unicode="&#x14a;" horiz-adv-x="752" 
d="M661.5 688.5q20.5 -21.5 20.5 -55.5v-604q0 -198 -198 -211l-32 -2q-44 -3 -68.5 12.5t-24.5 46.5q0 53 61 57l33 2q38 2 60 25t22 60v21l-320 409v-377q0 -35 -20 -56.5t-52 -21.5q-33 0 -53 21.5t-20 56.5v561q0 34 20.5 55.5t53.5 21.5q37 0 57 -26l335 -426v375
q0 34 20 55.5t52 21.5q33 0 53.5 -21.5z" />
    <glyph glyph-name="eng" unicode="&#x14b;" horiz-adv-x="595" 
d="M497 451.5q43 -51.5 43 -155.5v-293q0 -170 -175 -183l-28 -2q-43 -3 -66 11.5t-23 44.5q0 49 58 53l28 2q26 2 40.5 18t14.5 45v306q0 44 -18.5 65.5t-57.5 21.5q-47 0 -75.5 -30t-28.5 -80v-210q0 -33 -20 -52t-55 -19t-55.5 19t-20.5 52v367q0 31 21.5 50t55.5 19
q31 0 50.5 -18.5t19.5 -47.5v-16q26 41 67.5 62.5t93.5 21.5q88 0 131 -51.5z" />
    <glyph glyph-name="Omacron" unicode="&#x14c;" horiz-adv-x="787" 
d="M211.5 35.5q-77.5 44.5 -119.5 126t-42 191.5t42 191.5t119.5 125.5t182.5 44t182.5 -44t119.5 -125.5t42 -191.5t-42 -191.5t-119.5 -126t-182.5 -44.5t-182.5 44.5zM532.5 174q50.5 62 50.5 179t-50 178.5t-139 61.5t-138.5 -61.5t-49.5 -178.5t50 -179t138 -62
t138.5 62zM236 808.5q-14 12.5 -14 34.5t14 34.5t36 12.5h242q22 0 36 -12.5t14 -34.5t-14 -34.5t-36 -12.5h-242q-22 0 -36 12.5z" />
    <glyph glyph-name="omacron" unicode="&#x14d;" horiz-adv-x="588" 
d="M157 23.5q-59 31.5 -91 89t-32 135.5t32 135.5t91 88.5t137 31t137 -31t91 -88.5t32 -135.5t-32 -135.5t-91 -89t-137 -31.5t-137 31.5zM404 248q0 71 -28.5 106t-81.5 35q-110 0 -110 -141t110 -141t110 141zM137 621.5q-14 12.5 -14 34.5t14 34.5t36 12.5h242
q22 0 36 -12.5t14 -34.5t-14 -34.5t-36 -12.5h-242q-22 0 -36 12.5z" />
    <glyph glyph-name="Obreve" unicode="&#x14e;" horiz-adv-x="787" 
d="M211.5 35.5q-77.5 44.5 -119.5 126t-42 191.5t42 191.5t119.5 125.5t182.5 44t182.5 -44t119.5 -125.5t42 -191.5t-42 -191.5t-119.5 -126t-182.5 -44.5t-182.5 44.5zM532.5 174q50.5 62 50.5 179t-50 178.5t-139 61.5t-138.5 -61.5t-49.5 -178.5t50 -179t138 -62
t138.5 62zM290.5 794q-44.5 21 -63.5 56q-8 16 -8 27q0 15 11.5 25.5t27.5 10.5q21 0 38 -17q16 -16 42 -24.5t55 -8.5t55 8.5t42 24.5q17 16 38 16q16 0 27.5 -10t11.5 -26q0 -10 -8 -26q-19 -35 -63.5 -56t-102.5 -21t-102.5 21z" />
    <glyph glyph-name="obreve" unicode="&#x14f;" horiz-adv-x="588" 
d="M157 23.5q-59 31.5 -91 89t-32 135.5t32 135.5t91 88.5t137 31t137 -31t91 -88.5t32 -135.5t-32 -135.5t-91 -89t-137 -31.5t-137 31.5zM404 248q0 71 -28.5 106t-81.5 35q-110 0 -110 -141t110 -141t110 141zM187.5 604q-48.5 31 -66.5 81q-3 9 -3 18q0 18 12.5 29.5
t29.5 11.5q23 0 38 -22q33 -52 96 -52t96 52q7 11 17.5 16.5t20.5 5.5q17 0 30 -11.5t13 -29.5q0 -6 -4 -18q-18 -50 -66.5 -81t-106.5 -31t-106.5 31z" />
    <glyph glyph-name="Ohungarumlaut" unicode="&#x150;" horiz-adv-x="787" 
d="M211.5 35.5q-77.5 44.5 -119.5 126t-42 191.5t42 191.5t119.5 125.5t182.5 44t182.5 -44t119.5 -125.5t42 -191.5t-42 -191.5t-119.5 -126t-182.5 -44.5t-182.5 44.5zM532.5 174q50.5 62 50.5 179t-50 178.5t-139 61.5t-138.5 -61.5t-49.5 -178.5t50 -179t138 -62
t138.5 62zM323 760q-13 0 -22.5 9t-9.5 23q0 10 4 18l37 83q14 32 44 32q21 0 38.5 -15t17.5 -36q0 -18 -16 -35l-65 -66q-13 -13 -28 -13zM462 760q-13 0 -22.5 9.5t-9.5 23.5q0 8 3 17l37 83q14 32 45 32q21 0 38.5 -15t17.5 -36q0 -18 -17 -35l-64 -66q-13 -13 -28 -13z
" />
    <glyph glyph-name="ohungarumlaut" unicode="&#x151;" horiz-adv-x="588" 
d="M157 23.5q-59 31.5 -91 89t-32 135.5t32 135.5t91 88.5t137 31t137 -31t91 -88.5t32 -135.5t-32 -135.5t-91 -89t-137 -31.5t-137 31.5zM404 248q0 71 -28.5 106t-81.5 35q-110 0 -110 -141t110 -141t110 141zM225 549q-13 0 -23 9.5t-10 23.5q0 6 1 9l25 121
q6 27 21.5 40.5t35.5 13.5q21 0 37 -14t16 -36q0 -17 -10 -34l-62 -114q-12 -19 -31 -19zM363 549q-13 0 -23 9.5t-10 23.5q0 6 1 9l26 121q6 27 21.5 40.5t35.5 13.5q21 0 37 -14t16 -36q0 -17 -10 -34l-63 -114q-10 -19 -31 -19z" />
    <glyph glyph-name="OE" unicode="&#x152;" horiz-adv-x="1044" 
d="M220.5 42q-83.5 42 -127 121.5t-43.5 189.5t44 189t127 121t199 42h530q35 0 53.5 -15.5t18.5 -44.5q0 -61 -74 -61h-276v-165h256q74 0 74 -61q0 -60 -74 -60h-256v-177h276q74 0 74 -61q0 -29 -18.5 -44.5t-54.5 -15.5h-529q-116 0 -199.5 42zM520 121v463h-90
q-224 0 -224 -231q0 -232 224 -232h90z" />
    <glyph glyph-name="oe" unicode="&#x153;" horiz-adv-x="898" 
d="M850.5 130q12.5 -16 12.5 -41q0 -17 -10 -31.5t-28 -24.5q-34 -18 -78.5 -29.5t-81.5 -11.5q-62 0 -109.5 21t-78.5 61q-32 -40 -79.5 -61t-107.5 -21q-77 0 -135 31.5t-89.5 89.5t-31.5 135t31.5 135t89.5 89t135 31q61 0 109 -21.5t79 -61.5q30 40 75 61.5t101 21.5
q62 0 110.5 -30t75 -85t26.5 -126q0 -22 -10.5 -33.5t-29.5 -11.5h-274q7 -59 34.5 -85.5t81.5 -26.5q27 0 49.5 7t50.5 19q14 6 27 10.5t23 4.5q20 0 32.5 -16zM582.5 371.5q-25.5 -27.5 -30.5 -79.5h187q-3 52 -25.5 79.5t-62.5 27.5q-43 0 -68.5 -27.5zM400 248
q0 141 -108 141t-108 -141t108 -141t108 141z" />
    <glyph glyph-name="Racute" unicode="&#x154;" horiz-adv-x="701" 
d="M663 56q0 -28 -22.5 -46t-52.5 -18q-19 0 -37 9t-30 28l-132 196q-17 26 -36 37.5t-48 11.5h-81v-202q0 -36 -20.5 -57t-55.5 -21q-36 0 -57 21t-21 57v560q0 35 19 54t54 19h251q124 0 187.5 -54.5t63.5 -157.5q0 -81 -45 -135t-127 -71q30 -6 53.5 -23.5t45.5 -50.5
l76 -114q15 -22 15 -43zM468 415.5q30 23.5 30 73.5q0 51 -30 74t-97 23h-149v-194h149q67 0 97 23.5zM351 760q-14 0 -24.5 9.5t-10.5 22.5t13 26l86 85q23 23 49 23q22 0 38.5 -16.5t16.5 -38.5q0 -15 -10 -29t-30 -24l-109 -54q-8 -4 -19 -4z" />
    <glyph glyph-name="racute" unicode="&#x155;" horiz-adv-x="401" 
d="M398.5 487.5q17.5 -15.5 17.5 -46.5q0 -33 -16 -49t-57 -20l-30 -3q-55 -6 -79.5 -36t-24.5 -77v-191q0 -35 -21.5 -53t-53.5 -18q-33 0 -54.5 18t-21.5 53v367q0 33 22 51t53 18q30 0 50 -17.5t20 -48.5v-27q18 43 54.5 66t79.5 26l14 1q30 2 47.5 -13.5zM237 550
q-16 0 -27 11t-11 26q0 13 9 26l86 115q25 34 60 34q25 0 44 -18t19 -42q0 -30 -32 -54l-122 -89q-12 -9 -26 -9z" />
    <glyph glyph-name="Rcommaaccent" unicode="&#x156;" horiz-adv-x="701" 
d="M663 56q0 -28 -22.5 -46t-52.5 -18q-19 0 -37 9t-30 28l-132 196q-17 26 -36 37.5t-48 11.5h-81v-202q0 -36 -20.5 -57t-55.5 -21q-36 0 -57 21t-21 57v560q0 35 19 54t54 19h251q124 0 187.5 -54.5t63.5 -157.5q0 -81 -45 -135t-127 -71q30 -6 53.5 -23.5t45.5 -50.5
l76 -114q15 -22 15 -43zM468 415.5q30 23.5 30 73.5q0 51 -30 74t-97 23h-149v-194h149q67 0 97 23.5zM411.5 -83q22.5 -23 22.5 -67q0 -32 -10 -59t-26 -45q-8 -9 -19 -14t-21 -5q-15 0 -24.5 7t-9.5 19q0 11 8 20q16 24 20 42h-5q-28 0 -48 15.5t-20 42.5q0 30 20.5 48.5
t51.5 18.5q38 0 60.5 -23z" />
    <glyph glyph-name="rcommaaccent" unicode="&#x157;" horiz-adv-x="401" 
d="M398.5 487.5q17.5 -15.5 17.5 -46.5q0 -33 -16 -49t-57 -20l-30 -3q-55 -6 -79.5 -36t-24.5 -77v-191q0 -35 -21.5 -53t-53.5 -18q-33 0 -54.5 18t-21.5 53v367q0 33 22 51t53 18q30 0 50 -17.5t20 -48.5v-27q18 43 54.5 66t79.5 26l14 1q30 2 47.5 -13.5zM192.5 -83
q22.5 -23 22.5 -67q0 -32 -10 -59t-26 -45q-8 -9 -19 -14t-21 -5q-15 0 -24.5 7t-9.5 19q0 11 8 20q16 24 20 42h-5q-28 0 -48 15.5t-20 42.5q0 30 20.5 48.5t51.5 18.5q38 0 60.5 -23z" />
    <glyph glyph-name="Rcaron" unicode="&#x158;" horiz-adv-x="701" 
d="M663 56q0 -28 -22.5 -46t-52.5 -18q-19 0 -37 9t-30 28l-132 196q-17 26 -36 37.5t-48 11.5h-81v-202q0 -36 -20.5 -57t-55.5 -21q-36 0 -57 21t-21 57v560q0 35 19 54t54 19h251q124 0 187.5 -54.5t63.5 -157.5q0 -81 -45 -135t-127 -71q30 -6 53.5 -23.5t45.5 -50.5
l76 -114q15 -22 15 -43zM468 415.5q30 23.5 30 73.5q0 51 -30 74t-97 23h-149v-194h149q67 0 97 23.5zM301 780l-80 67q-18 15 -18 35q0 17 13 29.5t31 12.5q20 0 36 -15l69 -67l69 67q15 15 35 15q19 0 32 -12.5t13 -29.5q0 -18 -18 -35l-80 -67q-23 -20 -51 -20t-51 20z
" />
    <glyph glyph-name="rcaron" unicode="&#x159;" horiz-adv-x="401" 
d="M398.5 487.5q17.5 -15.5 17.5 -46.5q0 -33 -16 -49t-57 -20l-30 -3q-55 -6 -79.5 -36t-24.5 -77v-191q0 -35 -21.5 -53t-53.5 -18q-33 0 -54.5 18t-21.5 53v367q0 33 22 51t53 18q30 0 50 -17.5t20 -48.5v-27q18 43 54.5 66t79.5 26l14 1q30 2 47.5 -13.5zM203 557.5
q-12 7.5 -27 25.5l-84 107q-11 14 -11 30q0 18 14 31t33 13q25 0 40 -23l66 -97l66 97q15 23 40 23q19 0 33 -13t14 -31q0 -16 -11 -30l-84 -108q-14 -17 -27 -24.5t-31 -7.5q-19 0 -31 7.5z" />
    <glyph glyph-name="Sacute" unicode="&#x15a;" horiz-adv-x="651" 
d="M177 9.5q-68 18.5 -111 52.5q-15 11 -21.5 23.5t-6.5 31.5q0 25 15.5 44t35.5 19q11 0 21.5 -3.5t25.5 -12.5q43 -27 87 -39.5t97 -12.5q66 0 101 22t35 63q0 31 -32.5 50t-115.5 36q-93 19 -148.5 46t-81 67t-25.5 97q0 63 36.5 113.5t101 79t145.5 28.5q142 0 234 -71
q15 -12 21.5 -24.5t6.5 -30.5q0 -25 -15.5 -44t-35.5 -19q-11 0 -20.5 3t-26.5 13q-41 26 -75.5 39t-87.5 13q-61 0 -96 -23.5t-35 -64.5q0 -24 13.5 -39.5t45 -27.5t89.5 -25q136 -30 195.5 -77t59.5 -129q0 -64 -35.5 -113t-100 -76t-149.5 -27q-79 0 -147 18.5zM328 760
q-14 0 -24.5 9.5t-10.5 22.5t13 26l86 85q23 23 49 23q22 0 38.5 -16.5t16.5 -38.5q0 -15 -10 -29t-30 -24l-109 -54q-8 -4 -19 -4z" />
    <glyph glyph-name="sacute" unicode="&#x15b;" horiz-adv-x="487" 
d="M138 2q-45 10 -79 32q-15 9 -23 24t-8 34q0 23 13 38.5t32 15.5q13 0 26 -4.5t27 -10.5q28 -13 55 -20.5t67 -7.5q35 0 54.5 11t19.5 30q0 14 -8.5 22.5t-31.5 15.5t-73 17q-89 17 -128 51t-39 95q0 45 27.5 81t75.5 56.5t108 20.5q43 0 84 -11t73 -31q31 -19 31 -56
q0 -24 -13 -40t-32 -16q-23 0 -55 18q-25 13 -45.5 19.5t-48.5 6.5q-31 0 -49 -11.5t-18 -31.5q0 -21 21 -32t81 -22q67 -13 105 -31.5t55 -46.5t17 -71q0 -71 -58.5 -113t-156.5 -42q-61 0 -106 10zM256 550q-16 0 -27 11t-11 26q0 13 9 26l86 115q25 34 60 34q25 0 44 -18
t19 -42q0 -30 -32 -54l-122 -89q-12 -9 -26 -9z" />
    <glyph glyph-name="Scircumflex" unicode="&#x15c;" horiz-adv-x="651" 
d="M177 9.5q-68 18.5 -111 52.5q-15 11 -21.5 23.5t-6.5 31.5q0 25 15.5 44t35.5 19q11 0 21.5 -3.5t25.5 -12.5q43 -27 87 -39.5t97 -12.5q66 0 101 22t35 63q0 31 -32.5 50t-115.5 36q-93 19 -148.5 46t-81 67t-25.5 97q0 63 36.5 113.5t101 79t145.5 28.5q142 0 234 -71
q15 -12 21.5 -24.5t6.5 -30.5q0 -25 -15.5 -44t-35.5 -19q-11 0 -20.5 3t-26.5 13q-41 26 -75.5 39t-87.5 13q-61 0 -96 -23.5t-35 -64.5q0 -24 13.5 -39.5t45 -27.5t89.5 -25q136 -30 195.5 -77t59.5 -129q0 -64 -35.5 -113t-100 -76t-149.5 -27q-79 0 -147 18.5zM225 761
q-19 0 -32 12.5t-13 29.5q0 19 18 34l80 68q23 20 51 20t51 -20l80 -68q18 -15 18 -34q0 -17 -13 -29.5t-31 -12.5q-20 0 -36 15l-69 67l-69 -67q-15 -15 -35 -15z" />
    <glyph glyph-name="scircumflex" unicode="&#x15d;" horiz-adv-x="487" 
d="M138 2q-45 10 -79 32q-15 9 -23 24t-8 34q0 23 13 38.5t32 15.5q13 0 26 -4.5t27 -10.5q28 -13 55 -20.5t67 -7.5q35 0 54.5 11t19.5 30q0 14 -8.5 22.5t-31.5 15.5t-73 17q-89 17 -128 51t-39 95q0 45 27.5 81t75.5 56.5t108 20.5q43 0 84 -11t73 -31q31 -19 31 -56
q0 -24 -13 -40t-32 -16q-23 0 -55 18q-25 13 -45.5 19.5t-48.5 6.5q-31 0 -49 -11.5t-18 -31.5q0 -21 21 -32t81 -22q67 -13 105 -31.5t55 -46.5t17 -71q0 -71 -58.5 -113t-156.5 -42q-61 0 -106 10zM147 550q-19 0 -33 13t-14 31q0 16 11 30l84 108q14 17 26.5 24.5
t31.5 7.5t31.5 -7.5t26.5 -25.5l84 -107q11 -14 11 -29q0 -18 -14.5 -31.5t-32.5 -13.5q-24 0 -40 23l-66 98l-66 -98q-16 -23 -40 -23z" />
    <glyph glyph-name="Scedilla" unicode="&#x15e;" horiz-adv-x="651" 
d="M577.5 100q-31.5 -47 -89.5 -75.5t-135 -32.5l-4 -34q16 2 22 2q31 0 52.5 -19t21.5 -50q0 -39 -35 -63.5t-100 -24.5q-42 0 -71 10q-20 7 -20 30q0 14 9 24t22 6q34 -8 56 -8q46 0 46 26q0 9 -6.5 14t-17.5 5q-9 0 -23 -3t-21 -3q-10 0 -15.5 5.5t-4.5 15.5l9 68
q-64 5 -117.5 23t-89.5 46q-15 11 -21.5 23.5t-6.5 31.5q0 25 15.5 44t35.5 19q11 0 21.5 -3.5t25.5 -12.5q43 -27 87 -39.5t97 -12.5q66 0 101 22t35 63q0 31 -32.5 50t-115.5 36q-93 19 -148.5 46t-81 67t-25.5 97q0 63 36.5 113.5t101 79t145.5 28.5q142 0 234 -71
q15 -12 21.5 -24.5t6.5 -30.5q0 -25 -15.5 -44t-35.5 -19q-11 0 -20.5 3t-26.5 13q-41 26 -75.5 39t-87.5 13q-61 0 -96 -23.5t-35 -64.5q0 -24 13.5 -39.5t45 -27.5t89.5 -25q136 -30 195.5 -77t59.5 -129q0 -60 -31.5 -107z" />
    <glyph glyph-name="scedilla" unicode="&#x15f;" horiz-adv-x="487" 
d="M409 41q-50 -41 -136 -48l-4 -35q16 2 22 2q31 0 52.5 -19t21.5 -50q0 -39 -35 -63.5t-100 -24.5q-42 0 -71 10q-20 7 -20 30q0 14 9 24t22 6q34 -8 56 -8q46 0 46 26q0 9 -6.5 14t-17.5 5q-9 0 -23 -3t-21 -3q-10 0 -15.5 5.5t-4.5 15.5l9 69q-81 7 -134 40
q-15 9 -23 24t-8 34q0 23 13 38.5t32 15.5q13 0 26 -4.5t27 -10.5q28 -13 55 -20.5t67 -7.5q35 0 54.5 11t19.5 30q0 14 -8.5 22.5t-31.5 15.5t-73 17q-89 17 -128 51t-39 95q0 45 27.5 81t75.5 56.5t108 20.5q43 0 84 -11t73 -31q31 -19 31 -56q0 -24 -13 -40t-32 -16
q-23 0 -55 18q-25 13 -45.5 19.5t-48.5 6.5q-31 0 -49 -11.5t-18 -31.5q0 -21 21 -32t81 -22q67 -13 105 -31.5t55 -46.5t17 -71q0 -65 -50 -106z" />
    <glyph glyph-name="Scaron" unicode="&#x160;" horiz-adv-x="651" 
d="M177 9.5q-68 18.5 -111 52.5q-15 11 -21.5 23.5t-6.5 31.5q0 25 15.5 44t35.5 19q11 0 21.5 -3.5t25.5 -12.5q43 -27 87 -39.5t97 -12.5q66 0 101 22t35 63q0 31 -32.5 50t-115.5 36q-93 19 -148.5 46t-81 67t-25.5 97q0 63 36.5 113.5t101 79t145.5 28.5q142 0 234 -71
q15 -12 21.5 -24.5t6.5 -30.5q0 -25 -15.5 -44t-35.5 -19q-11 0 -20.5 3t-26.5 13q-41 26 -75.5 39t-87.5 13q-61 0 -96 -23.5t-35 -64.5q0 -24 13.5 -39.5t45 -27.5t89.5 -25q136 -30 195.5 -77t59.5 -129q0 -64 -35.5 -113t-100 -76t-149.5 -27q-79 0 -147 18.5zM278 780
l-80 67q-18 15 -18 35q0 17 13 29.5t31 12.5q20 0 36 -15l69 -67l69 67q15 15 35 15q19 0 32 -12.5t13 -29.5q0 -18 -18 -35l-80 -67q-23 -20 -51 -20t-51 20z" />
    <glyph glyph-name="scaron" unicode="&#x161;" horiz-adv-x="487" 
d="M138 2q-45 10 -79 32q-15 9 -23 24t-8 34q0 23 13 38.5t32 15.5q13 0 26 -4.5t27 -10.5q28 -13 55 -20.5t67 -7.5q35 0 54.5 11t19.5 30q0 14 -8.5 22.5t-31.5 15.5t-73 17q-89 17 -128 51t-39 95q0 45 27.5 81t75.5 56.5t108 20.5q43 0 84 -11t73 -31q31 -19 31 -56
q0 -24 -13 -40t-32 -16q-23 0 -55 18q-25 13 -45.5 19.5t-48.5 6.5q-31 0 -49 -11.5t-18 -31.5q0 -21 21 -32t81 -22q67 -13 105 -31.5t55 -46.5t17 -71q0 -71 -58.5 -113t-156.5 -42q-61 0 -106 10zM222 557.5q-12 7.5 -27 25.5l-84 107q-11 14 -11 30q0 18 14 31t33 13
q25 0 40 -23l66 -97l66 97q15 23 40 23q19 0 33 -13t14 -31q0 -16 -11 -30l-84 -108q-14 -17 -27 -24.5t-31 -7.5q-19 0 -31 7.5z" />
    <glyph glyph-name="uni0162" unicode="&#x162;" horiz-adv-x="622" 
d="M625 642q0 -64 -74 -64h-162v-506q0 -27 -12.5 -45.5t-35.5 -26.5l-5 -42q16 2 22 2q31 0 52.5 -19t21.5 -50q0 -39 -35 -63.5t-100 -24.5q-42 0 -71 10q-20 7 -20 30q0 14 9 24t22 6q34 -8 56 -8q46 0 46 26q0 9 -6.5 14t-17.5 5q-9 0 -23 -3t-21 -3q-10 0 -15.5 5.5
t-4.5 15.5l11 85q-29 21 -29 62v506h-162q-74 0 -74 64q0 63 74 63h480q74 0 74 -63z" />
    <glyph glyph-name="uni0163" unicode="&#x163;" horiz-adv-x="387" 
d="M273 -3l-5 -39q16 2 22 2q31 0 52.5 -19t21.5 -50q0 -39 -35 -63.5t-100 -24.5q-42 0 -71 10q-20 7 -20 30q0 14 9 24t22 6q34 -8 56 -8q46 0 46 26q0 9 -6.5 14t-17.5 5q-9 0 -23 -3t-21 -3q-10 0 -15.5 5.5t-4.5 15.5l11 89q-97 41 -97 166v198h-40q-33 0 -50 14.5
t-17 41.5q0 28 17 42.5t50 14.5h40v78q0 33 20.5 52t55.5 19t55 -19t20 -52v-78h70q68 0 68 -57q0 -27 -17 -41.5t-51 -14.5h-70v-209q0 -30 14 -45.5t41 -17.5l28 -2q30 -2 44 -15t14 -38q0 -29 -23 -44t-66 -12z" />
    <glyph glyph-name="Tcaron" unicode="&#x164;" horiz-adv-x="622" 
d="M254.5 16q-21.5 21 -21.5 56v506h-162q-74 0 -74 64q0 63 74 63h480q74 0 74 -63q0 -64 -74 -64h-162v-506q0 -35 -21 -56t-57 -21q-35 0 -56.5 21zM260 780l-80 67q-18 15 -18 35q0 17 13 29.5t31 12.5q20 0 36 -15l69 -67l69 67q15 15 35 15q19 0 32 -12.5t13 -29.5
q0 -18 -18 -35l-80 -67q-23 -20 -51 -20t-51 20z" />
    <glyph glyph-name="tcaron" unicode="&#x165;" horiz-adv-x="387" 
d="M309 699q19 12 45 12t44.5 -11.5t18.5 -30.5q0 -9 -2 -14l-42 -115q-4 -11 -15 -17t-26 -6q-17 0 -29.5 8t-12.5 21v118q0 23 19 35zM375 89q14 -13 14 -38q0 -29 -23 -44t-66 -12l-28 2q-175 14 -175 183v198h-40q-33 0 -50 14.5t-17 41.5q0 28 17 42.5t50 14.5h40v78
q0 33 20.5 52t55.5 19t55 -19t20 -52v-78h70q68 0 68 -57q0 -27 -17 -41.5t-51 -14.5h-70v-209q0 -30 14 -45.5t41 -17.5l28 -2q30 -2 44 -15z" />
    <glyph glyph-name="Tbar" unicode="&#x166;" horiz-adv-x="622" 
d="M625 642q0 -64 -74 -64h-162v-163h81q33 0 51 -15.5t18 -43.5t-18 -43.5t-51 -15.5h-81v-225q0 -35 -21 -56t-57 -21q-35 0 -56.5 21t-21.5 56v225h-81q-33 0 -51 15.5t-18 43.5t18 43.5t51 15.5h81v163h-162q-74 0 -74 64q0 63 74 63h480q74 0 74 -63z" />
    <glyph glyph-name="tbar" unicode="&#x167;" horiz-adv-x="397" 
d="M380 89q14 -13 14 -38q0 -29 -23 -44t-66 -12l-28 2q-175 14 -175 183v48h-24q-30 0 -46.5 13.5t-16.5 38.5t16.5 38.5t46.5 13.5h24v46h-40q-33 0 -50 14.5t-17 41.5q0 28 17 42.5t50 14.5h40v78q0 33 20.5 52t55.5 19t55 -19t20 -52v-78h70q68 0 68 -57
q0 -27 -17 -41.5t-51 -14.5h-70v-46h55q30 0 46.5 -13.5t16.5 -38.5t-16.5 -38.5t-46.5 -13.5h-55v-59q0 -30 14 -45.5t41 -17.5l28 -2q30 -2 44 -15z" />
    <glyph glyph-name="Utilde" unicode="&#x168;" horiz-adv-x="739" 
d="M143.5 67.5q-77.5 76.5 -77.5 223.5v342q0 35 21 56t56 21t55.5 -21t20.5 -56v-349q0 -84 38.5 -128t111.5 -44t112 44.5t39 127.5v349q0 35 20.5 56t55.5 21t56 -21t21 -56v-342q0 -146 -78 -223t-226 -77t-225.5 76.5zM395.5 788q-25.5 7 -29.5 8q-45 15 -71 15
q-11 0 -18 -4t-15 -12q-9 -9 -15.5 -13t-17.5 -4q-14 0 -22.5 9.5t-8.5 25.5q0 21 12.5 43t34.5 36.5t49 14.5q23 0 48.5 -7t29.5 -8q45 -15 71 -15q11 0 17.5 4t15.5 12q8 8 15 12t18 4q15 0 23 -9t8 -25q0 -21 -12.5 -43t-34.5 -36.5t-49 -14.5q-23 0 -48.5 7z" />
    <glyph glyph-name="utilde" unicode="&#x169;" horiz-adv-x="589" 
d="M510.5 482q20.5 -19 20.5 -52v-367q0 -31 -21.5 -50t-55.5 -19q-32 0 -51 18t-19 48v10q-23 -38 -60.5 -58t-84.5 -20q-93 0 -138.5 51.5t-45.5 155.5v231q0 33 20.5 52t55.5 19t55 -19t20 -52v-234q0 -44 18.5 -65t56.5 -21q44 0 71.5 30t27.5 79v211q0 33 20 52t55 19
t55.5 -19zM331.5 589q-18.5 8 -42.5 22q-22 12 -35 17.5t-24 5.5q-15 0 -24 -7t-21 -22q-9 -12 -15.5 -17.5t-17.5 -5.5q-13 0 -21 11t-8 28q0 21 12.5 47t34.5 44.5t49 18.5q18 0 35.5 -7.5t44.5 -22.5q20 -12 33.5 -18t25.5 -6q15 0 24 7t21 22q9 13 15.5 18.5t17.5 5.5
q13 0 21 -11t8 -28q0 -21 -12.5 -47t-34.5 -44.5t-49 -18.5q-19 0 -37.5 8z" />
    <glyph glyph-name="Umacron" unicode="&#x16a;" horiz-adv-x="739" 
d="M143.5 67.5q-77.5 76.5 -77.5 223.5v342q0 35 21 56t56 21t55.5 -21t20.5 -56v-349q0 -84 38.5 -128t111.5 -44t112 44.5t39 127.5v349q0 35 20.5 56t55.5 21t56 -21t21 -56v-342q0 -146 -78 -223t-226 -77t-225.5 76.5zM212 808.5q-14 12.5 -14 34.5t14 34.5t36 12.5
h242q22 0 36 -12.5t14 -34.5t-14 -34.5t-36 -12.5h-242q-22 0 -36 12.5z" />
    <glyph glyph-name="umacron" unicode="&#x16b;" horiz-adv-x="589" 
d="M510.5 482q20.5 -19 20.5 -52v-367q0 -31 -21.5 -50t-55.5 -19q-32 0 -51 18t-19 48v10q-23 -38 -60.5 -58t-84.5 -20q-93 0 -138.5 51.5t-45.5 155.5v231q0 33 20.5 52t55.5 19t55 -19t20 -52v-234q0 -44 18.5 -65t56.5 -21q44 0 71.5 30t27.5 79v211q0 33 20 52t55 19
t55.5 -19zM137 621.5q-14 12.5 -14 34.5t14 34.5t36 12.5h242q22 0 36 -12.5t14 -34.5t-14 -34.5t-36 -12.5h-242q-22 0 -36 12.5z" />
    <glyph glyph-name="Ubreve" unicode="&#x16c;" horiz-adv-x="739" 
d="M143.5 67.5q-77.5 76.5 -77.5 223.5v342q0 35 21 56t56 21t55.5 -21t20.5 -56v-349q0 -84 38.5 -128t111.5 -44t112 44.5t39 127.5v349q0 35 20.5 56t55.5 21t56 -21t21 -56v-342q0 -146 -78 -223t-226 -77t-225.5 76.5zM266.5 794q-44.5 21 -63.5 56q-8 16 -8 27
q0 15 11.5 25.5t27.5 10.5q21 0 38 -17q16 -16 42 -24.5t55 -8.5t55 8.5t42 24.5q17 16 38 16q16 0 27.5 -10t11.5 -26q0 -10 -8 -26q-19 -35 -63.5 -56t-102.5 -21t-102.5 21z" />
    <glyph glyph-name="ubreve" unicode="&#x16d;" horiz-adv-x="589" 
d="M510.5 482q20.5 -19 20.5 -52v-367q0 -31 -21.5 -50t-55.5 -19q-32 0 -51 18t-19 48v10q-23 -38 -60.5 -58t-84.5 -20q-93 0 -138.5 51.5t-45.5 155.5v231q0 33 20.5 52t55.5 19t55 -19t20 -52v-234q0 -44 18.5 -65t56.5 -21q44 0 71.5 30t27.5 79v211q0 33 20 52t55 19
t55.5 -19zM187.5 604q-48.5 31 -66.5 81q-3 9 -3 18q0 18 12.5 29.5t29.5 11.5q23 0 38 -22q33 -52 96 -52t96 52q7 11 17.5 16.5t20.5 5.5q17 0 30 -11.5t13 -29.5q0 -6 -4 -18q-18 -50 -66.5 -81t-106.5 -31t-106.5 31z" />
    <glyph glyph-name="Uring" unicode="&#x16e;" horiz-adv-x="739" 
d="M143.5 67.5q-77.5 76.5 -77.5 223.5v342q0 35 21 56t56 21t55.5 -21t20.5 -56v-349q0 -84 38.5 -128t111.5 -44t112 44.5t39 127.5v349q0 35 20.5 56t55.5 21t56 -21t21 -56v-342q0 -146 -78 -223t-226 -77t-225.5 76.5zM291.5 791q-31.5 31 -31.5 76q0 46 31.5 77
t77.5 31t77.5 -31t31.5 -77q0 -45 -31.5 -76t-77.5 -31t-77.5 31zM400 835q12 13 12 32q0 20 -12 33t-31 13t-31 -13t-12 -33q0 -19 12 -32t31 -13t31 13z" />
    <glyph glyph-name="uring" unicode="&#x16f;" horiz-adv-x="589" 
d="M510.5 482q20.5 -19 20.5 -52v-367q0 -31 -21.5 -50t-55.5 -19q-32 0 -51 18t-19 48v10q-23 -38 -60.5 -58t-84.5 -20q-93 0 -138.5 51.5t-45.5 155.5v231q0 33 20.5 52t55.5 19t55 -19t20 -52v-234q0 -44 18.5 -65t56.5 -21q44 0 71.5 30t27.5 79v211q0 33 20 52t55 19
t55.5 -19zM216.5 581q-31.5 31 -31.5 77q0 45 31.5 76t77.5 31t77.5 -31t31.5 -76q0 -46 -31.5 -77t-77.5 -31t-77.5 31zM325 625q12 13 12 33q0 19 -12 32t-31 13t-31 -13t-12 -32q0 -20 12 -33t31 -13t31 13z" />
    <glyph glyph-name="Uhungarumlaut" unicode="&#x170;" horiz-adv-x="739" 
d="M143.5 67.5q-77.5 76.5 -77.5 223.5v342q0 35 21 56t56 21t55.5 -21t20.5 -56v-349q0 -84 38.5 -128t111.5 -44t112 44.5t39 127.5v349q0 35 20.5 56t55.5 21t56 -21t21 -56v-342q0 -146 -78 -223t-226 -77t-225.5 76.5zM299 760q-13 0 -22.5 9t-9.5 23q0 10 4 18l37 83
q14 32 44 32q21 0 38.5 -15t17.5 -36q0 -18 -16 -35l-65 -66q-13 -13 -28 -13zM438 760q-13 0 -22.5 9.5t-9.5 23.5q0 8 3 17l37 83q14 32 45 32q21 0 38.5 -15t17.5 -36q0 -18 -17 -35l-64 -66q-13 -13 -28 -13z" />
    <glyph glyph-name="uhungarumlaut" unicode="&#x171;" horiz-adv-x="589" 
d="M510.5 482q20.5 -19 20.5 -52v-367q0 -31 -21.5 -50t-55.5 -19q-32 0 -51 18t-19 48v10q-23 -38 -60.5 -58t-84.5 -20q-93 0 -138.5 51.5t-45.5 155.5v231q0 33 20.5 52t55.5 19t55 -19t20 -52v-234q0 -44 18.5 -65t56.5 -21q44 0 71.5 30t27.5 79v211q0 33 20 52t55 19
t55.5 -19zM225 549q-13 0 -23 9.5t-10 23.5q0 6 1 9l25 121q6 27 21.5 40.5t35.5 13.5q21 0 37 -14t16 -36q0 -17 -10 -34l-62 -114q-12 -19 -31 -19zM363 549q-13 0 -23 9.5t-10 23.5q0 6 1 9l26 121q6 27 21.5 40.5t35.5 13.5q21 0 37 -14t16 -36q0 -17 -10 -34l-63 -114
q-10 -19 -31 -19z" />
    <glyph glyph-name="Uogonek" unicode="&#x172;" horiz-adv-x="739" 
d="M652 689q21 -21 21 -56v-342q0 -115 -48.5 -187.5t-140.5 -97.5q-63 -17 -63 -71q0 -24 14.5 -39t38.5 -15q20 0 48 9q3 1 9 1q12 0 19 -10t7 -23q0 -22 -17 -32q-39 -23 -88 -23q-56 0 -92 31t-36 79q0 45 33 78q-143 4 -217 80t-74 220v342q0 35 21 56t56 21t55.5 -21
t20.5 -56v-349q0 -84 38.5 -128t111.5 -44t112 44.5t39 127.5v349q0 35 20.5 56t55.5 21t56 -21z" />
    <glyph glyph-name="uogonek" unicode="&#x173;" horiz-adv-x="589" 
d="M547 -109q12 0 19.5 -10t7.5 -23q0 -22 -18 -32q-37 -23 -88 -23q-56 0 -91.5 31.5t-35.5 81.5q0 62 57 101q-14 15 -14 43v10q-23 -38 -60.5 -58t-84.5 -20q-93 0 -138.5 51.5t-45.5 155.5v231q0 33 20.5 52t55.5 19t55 -19t20 -52v-234q0 -44 18 -65t55 -21
q46 0 73.5 30t27.5 79v211q0 33 20 52t55 19t55.5 -19t20.5 -52v-367q0 -21 -10 -37t-28 -24q-55 -25 -55 -67q0 -24 14.5 -39t37.5 -15q20 0 48 9q3 1 9 1z" />
    <glyph glyph-name="Wcircumflex" unicode="&#x174;" horiz-adv-x="1115" 
d="M971.5 699.5q18.5 12.5 41.5 12.5q29 0 49.5 -18t20.5 -49q0 -15 -6 -33l-208 -569q-9 -24 -31.5 -37.5t-49.5 -13.5t-49 13.5t-31 37.5l-149 421l-153 -421q-9 -24 -31 -37.5t-49 -13.5q-26 0 -48.5 13.5t-31.5 37.5l-208 569q-6 17 -6 32q0 31 22 49.5t52 18.5
q24 0 43.5 -12.5t28.5 -36.5l154 -443l160 441q9 24 28.5 37t41.5 13q23 0 42 -13t28 -38l153 -448l159 451q9 24 27.5 36.5zM453 761q-19 0 -32 12.5t-13 29.5q0 19 18 34l80 68q23 20 51 20t51 -20l80 -68q18 -15 18 -34q0 -17 -13 -29.5t-31 -12.5q-20 0 -36 15l-69 67
l-69 -67q-15 -15 -35 -15z" />
    <glyph glyph-name="wcircumflex" unicode="&#x175;" horiz-adv-x="863" 
d="M743 489q16 11 34 11q28 0 50 -19t22 -47q0 -12 -6 -27l-164 -368q-9 -22 -29 -33.5t-42 -11.5q-23 0 -42.5 11.5t-28.5 33.5l-107 249l-103 -249q-9 -22 -28 -33.5t-43 -11.5q-23 0 -43 11.5t-29 33.5l-163 368q-6 14 -6 27q0 28 23.5 47t53.5 19q20 0 36.5 -11
t25.5 -32l107 -269l109 267q9 21 26.5 32.5t38.5 11.5t39 -11t27 -33l111 -267l106 269q9 21 25 32zM326 550q-19 0 -33 13t-14 31q0 16 11 30l84 108q14 17 26.5 24.5t31.5 7.5t31.5 -7.5t26.5 -25.5l84 -107q11 -14 11 -29q0 -18 -14.5 -31.5t-32.5 -13.5q-24 0 -40 23
l-66 98l-66 -98q-16 -23 -40 -23z" />
    <glyph glyph-name="Ycircumflex" unicode="&#x176;" horiz-adv-x="636" 
d="M561 711q28 0 50.5 -21.5t22.5 -49.5q0 -25 -19 -47l-219 -260v-261q0 -38 -22 -58t-55 -20q-35 0 -57 20t-22 58v261l-217 260q-19 20 -19 47q0 28 21.5 49.5t49.5 21.5q30 0 52 -26l191 -233l191 233q22 26 52 26zM214 761q-19 0 -32 12.5t-13 29.5q0 19 18 34l80 68
q23 20 51 20t51 -20l80 -68q18 -15 18 -34q0 -17 -13 -29.5t-31 -12.5q-20 0 -36 15l-69 67l-69 -67q-15 -15 -35 -15z" />
    <glyph glyph-name="ycircumflex" unicode="&#x177;" horiz-adv-x="534" 
d="M418.5 489q16.5 10 35.5 10q29 0 51 -18.5t22 -44.5q0 -14 -7 -28l-269 -552q-10 -21 -27 -31.5t-36 -10.5q-28 0 -49 18t-21 44q0 16 7 30l66 137l-178 365q-6 14 -6 27q0 27 23.5 46t53.5 19q20 0 37 -10.5t27 -31.5l124 -270l121 270q9 21 25.5 31zM161 550
q-19 0 -33 13t-14 31q0 16 11 30l84 108q14 17 26.5 24.5t31.5 7.5t31.5 -7.5t26.5 -25.5l84 -107q11 -14 11 -29q0 -18 -14.5 -31.5t-32.5 -13.5q-24 0 -40 23l-66 98l-66 -98q-16 -23 -40 -23z" />
    <glyph glyph-name="Ydieresis" unicode="&#x178;" horiz-adv-x="636" 
d="M561 711q28 0 50.5 -21.5t22.5 -49.5q0 -25 -19 -47l-219 -260v-261q0 -38 -22 -58t-55 -20q-35 0 -57 20t-22 58v261l-217 260q-19 20 -19 47q0 28 21.5 49.5t49.5 21.5q30 0 52 -26l191 -233l191 233q22 26 52 26zM169 792.5q-21 19.5 -21 51.5t21 51t54 19t54 -19
t21 -51t-20.5 -51.5t-54.5 -19.5q-33 0 -54 19.5zM359.5 792.5q-20.5 19.5 -20.5 51.5t20.5 51t53.5 19t54 -19t21 -51t-21 -51.5t-54 -19.5t-53.5 19.5z" />
    <glyph glyph-name="Zacute" unicode="&#x179;" horiz-adv-x="610" 
d="M572 108q18 -15 18 -46q0 -32 -18 -47t-56 -15h-413q-31 0 -49.5 18.5t-18.5 46.5q0 29 20 56l333 461h-278q-38 0 -56 15t-18 46q0 32 18 47t56 15h398q31 0 49.5 -18.5t18.5 -46.5q0 -30 -19 -56l-334 -461h293q38 0 56 -15zM305 760q-14 0 -24.5 9.5t-10.5 22.5t13 26
l86 85q23 23 49 23q22 0 38.5 -16.5t16.5 -38.5q0 -15 -10 -29t-30 -24l-109 -54q-8 -4 -19 -4z" />
    <glyph glyph-name="zacute" unicode="&#x17a;" horiz-adv-x="514" 
d="M495 56q0 -56 -68 -56h-324q-30 0 -49 19t-19 45q0 30 21 52l234 262h-192q-68 0 -68 56q0 57 68 57h312q31 0 49.5 -19t18.5 -46q0 -30 -21 -52l-233 -261h203q68 0 68 -57zM268 550q-16 0 -27 11t-11 26q0 13 9 26l86 115q25 34 60 34q25 0 44 -18t19 -42
q0 -30 -32 -54l-122 -89q-12 -9 -26 -9z" />
    <glyph glyph-name="Zdotaccent" unicode="&#x17b;" horiz-adv-x="610" 
d="M572 108q18 -15 18 -46q0 -32 -18 -47t-56 -15h-413q-31 0 -49.5 18.5t-18.5 46.5q0 29 20 56l333 461h-278q-38 0 -56 15t-18 46q0 32 18 47t56 15h398q31 0 49.5 -18.5t18.5 -46.5q0 -30 -19 -56l-334 -461h293q38 0 56 -15zM243 788.5q-23 20.5 -23 55.5t23 55t63 20
q39 0 62.5 -20.5t23.5 -54.5q0 -35 -23 -55.5t-63 -20.5t-63 20.5z" />
    <glyph glyph-name="zdotaccent" unicode="&#x17c;" horiz-adv-x="514" 
d="M495 56q0 -56 -68 -56h-324q-30 0 -49 19t-19 45q0 30 21 52l234 262h-192q-68 0 -68 56q0 57 68 57h312q31 0 49.5 -19t18.5 -46q0 -30 -21 -52l-233 -261h203q68 0 68 -57zM202 601.5q-23 20.5 -23 55.5t23 55t63 20q39 0 62.5 -20.5t23.5 -54.5q0 -35 -23 -55.5
t-63 -20.5t-63 20.5z" />
    <glyph glyph-name="Zcaron" unicode="&#x17d;" horiz-adv-x="610" 
d="M572 108q18 -15 18 -46q0 -32 -18 -47t-56 -15h-413q-31 0 -49.5 18.5t-18.5 46.5q0 29 20 56l333 461h-278q-38 0 -56 15t-18 46q0 32 18 47t56 15h398q31 0 49.5 -18.5t18.5 -46.5q0 -30 -19 -56l-334 -461h293q38 0 56 -15zM255 780l-80 67q-18 15 -18 35
q0 17 13 29.5t31 12.5q20 0 36 -15l69 -67l69 67q15 15 35 15q19 0 32 -12.5t13 -29.5q0 -18 -18 -35l-80 -67q-23 -20 -51 -20t-51 20z" />
    <glyph glyph-name="zcaron" unicode="&#x17e;" horiz-adv-x="514" 
d="M495 56q0 -56 -68 -56h-324q-30 0 -49 19t-19 45q0 30 21 52l234 262h-192q-68 0 -68 56q0 57 68 57h312q31 0 49.5 -19t18.5 -46q0 -30 -21 -52l-233 -261h203q68 0 68 -57zM234 557.5q-12 7.5 -27 25.5l-84 107q-11 14 -11 30q0 18 14 31t33 13q25 0 40 -23l66 -97
l66 97q15 23 40 23q19 0 33 -13t14 -31q0 -16 -11 -30l-84 -108q-14 -17 -27 -24.5t-31 -7.5q-19 0 -31 7.5z" />
    <glyph glyph-name="uni018F" unicode="&#x18f;" horiz-adv-x="767" 
d="M549 670q81 -44 124.5 -125.5t43.5 -191.5q0 -106 -41 -188t-115.5 -128t-173.5 -46q-103 0 -179 42.5t-117 123t-41 193.5q0 31 16.5 48.5t46.5 17.5h445q-13 86 -65.5 130t-141.5 44q-79 0 -162 -49q-16 -9 -25.5 -12.5t-22.5 -3.5q-21 0 -35.5 18.5t-14.5 44.5
q0 18 6.5 30.5t20.5 23.5q43 35 106 53.5t136 18.5q108 0 189 -44zM560 297h-352q8 -91 54.5 -138t124.5 -47q153 0 173 185z" />
    <glyph glyph-name="florin" unicode="&#x192;" 
d="M454 571q-19 -20 -26 -58l-4 -18h75q20 0 34 -12t14 -31q0 -20 -14 -32t-34 -12h-93l-86 -401q-20 -101 -81 -146.5t-139 -45.5h-20q-32 0 -49.5 16.5t-17.5 39.5q0 25 19 43.5t52 18.5h14q29 0 48 20t26 58l85 397h-75q-20 0 -34 12t-14 32q0 19 14.5 31t33.5 12h93
l5 22q20 101 81 147t139 46h20q33 0 50 -16.5t17 -40.5q0 -25 -19 -43.5t-52 -18.5h-14q-29 0 -48 -20z" />
    <glyph glyph-name="Ohorn" unicode="&#x1a0;" horiz-adv-x="787" 
d="M709 518q29 -72 29 -165q0 -110 -42 -191.5t-119.5 -126t-182.5 -44.5t-182.5 44.5t-119.5 126t-42 191.5t42 191.5t120 125.5t184 44q30 0 63 -5q38 -4 61 -4q44 0 62 16t21 58q7 79 72 79q63 0 63 -76q0 -52 -31.5 -93t-84.5 -53q58 -46 87 -118zM532.5 174
q50.5 62 50.5 179t-50 178.5t-139 61.5t-138.5 -61.5t-49.5 -178.5t50 -179t138 -62t138.5 62z" />
    <glyph glyph-name="ohorn" unicode="&#x1a1;" horiz-adv-x="588" 
d="M536 350.5q18 -47.5 18 -103.5q0 -77 -32 -135t-91 -89t-137 -31t-137 31t-91 89t-32 135q0 78 32 136t90.5 89t137.5 31q14 0 52 -5q15 -3 28 -3q31 0 48.5 15.5t21.5 52.5q4 36 22 51.5t52 15.5q31 0 45.5 -15t14.5 -49q0 -44 -25.5 -81.5t-69.5 -53.5q35 -33 53 -80.5
zM404 247q0 72 -28.5 107t-81.5 35q-110 0 -110 -142q0 -140 110 -140t110 140z" />
    <glyph glyph-name="Uhorn" unicode="&#x1af;" horiz-adv-x="739" 
d="M755 689.5q-31 -41.5 -82 -53.5v-345q0 -146 -78 -223t-226 -77t-225.5 76.5t-77.5 223.5v342q0 35 21 56t56 21t55.5 -21t20.5 -56v-349q0 -84 38.5 -128t111.5 -44t112 44.5t39 127.5v349q0 34 19.5 55.5t52.5 22.5q29 1 42 15t17 53q7 79 73 79q62 0 62 -76
q0 -51 -31 -92.5z" />
    <glyph glyph-name="uhorn" unicode="&#x1b0;" horiz-adv-x="613" 
d="M612.5 480.5q-30.5 -37.5 -81.5 -51.5v-366q0 -31 -21.5 -50t-55.5 -19q-32 0 -51 18t-19 48v10q-23 -38 -60.5 -58t-84.5 -20q-93 0 -138.5 51.5t-45.5 155.5v231q0 33 20.5 52t55.5 19t55 -19t20 -52v-234q0 -44 18 -65t55 -21q46 0 73.5 30t27.5 79v211q0 64 71 71
q27 1 40.5 16t16.5 47q4 35 22 51t53 16q32 0 46 -15t14 -49q0 -49 -30.5 -86.5z" />
    <glyph glyph-name="uni01C4" unicode="&#x1c4;" horiz-adv-x="1358" 
d="M89 19q-19 19 -19 54v559q0 35 19 54t54 19h201q115 0 198 -42t127 -121t44 -189t-43.5 -189.5t-126.5 -121.5t-199 -42h-201q-35 0 -54 19zM333 126q225 0 225 227q0 226 -225 226h-107v-453h107zM1320 108q18 -15 18 -46q0 -32 -18 -47t-56 -15h-413q-31 0 -49.5 18.5
t-18.5 46.5q0 29 20 56l333 461h-278q-38 0 -56 15t-18 46q0 32 18 47t56 15h398q31 0 49.5 -18.5t18.5 -46.5q0 -30 -19 -56l-334 -461h293q38 0 56 -15zM1003 780l-80 67q-18 15 -18 35q0 17 13 29.5t31 12.5q20 0 36 -15l69 -67l69 67q15 15 35 15q19 0 32 -12.5
t13 -29.5q0 -18 -18 -35l-80 -67q-23 -20 -51 -20t-51 20z" />
    <glyph glyph-name="uni01C5" unicode="&#x1c5;" horiz-adv-x="1277" 
d="M89 19q-19 19 -19 54v559q0 35 19 54t54 19h201q115 0 198 -42t127 -121t44 -189t-43.5 -189.5t-126.5 -121.5t-199 -42h-201q-35 0 -54 19zM333 126q225 0 225 227q0 226 -225 226h-107v-453h107zM1258 56q0 -56 -68 -56h-324q-30 0 -49 19t-19 45q0 30 21 52l234 262
h-192q-68 0 -68 56q0 57 68 57h312q31 0 49.5 -19t18.5 -46q0 -30 -21 -52l-233 -261h203q68 0 68 -57zM997 557.5q-12 7.5 -27 25.5l-84 107q-11 14 -11 30q0 18 14 31t33 13q25 0 40 -23l66 -97l66 97q15 23 40 23q19 0 33 -13t14 -31q0 -16 -11 -30l-84 -108
q-14 -17 -27 -24.5t-31 -7.5q-19 0 -31 7.5z" />
    <glyph glyph-name="uni01C6" unicode="&#x1c6;" horiz-adv-x="1127" 
d="M533.5 691q21.5 -19 21.5 -50v-576q0 -32 -20.5 -51.5t-54.5 -19.5t-54.5 19.5t-20.5 51.5v8q-22 -38 -62.5 -59.5t-91.5 -21.5q-63 0 -112.5 32.5t-77 91t-27.5 134.5t27.5 133.5t76.5 88.5t113 31q50 0 90.5 -21t62.5 -59v221q0 30 20 48t53 18q35 0 56.5 -19z
M376.5 143.5q28.5 36.5 28.5 104.5t-28.5 104t-81.5 36t-82 -35.5t-29 -102.5q0 -68 29 -105.5t82 -37.5t81.5 36.5zM1108 56q0 -56 -68 -56h-324q-30 0 -49 19t-19 45q0 30 21 52l234 262h-192q-68 0 -68 56q0 57 68 57h312q31 0 49.5 -19t18.5 -46q0 -30 -21 -52
l-233 -261h203q68 0 68 -57zM847 557.5q-12 7.5 -27 25.5l-84 107q-11 14 -11 30q0 18 14 31t33 13q25 0 40 -23l66 -97l66 97q15 23 40 23q19 0 33 -13t14 -31q0 -16 -11 -30l-84 -108q-14 -17 -27 -24.5t-31 -7.5q-19 0 -31 7.5z" />
    <glyph glyph-name="uni01C7" unicode="&#x1c7;" horiz-adv-x="943" 
d="M89 19q-19 19 -19 54v560q0 35 21 56t57 21t57 -21t21 -56v-506h226q73 0 73 -64q0 -63 -73 -63h-309q-35 0 -54 19zM574 7.5q-24 16.5 -24 49.5q0 30 15 44.5t47 16.5l32 2q73 5 73 85v428q0 35 21.5 56t56.5 21t56.5 -21t21.5 -56v-426q0 -99 -49.5 -152t-148.5 -59
l-32 -2q-45 -3 -69 13.5z" />
    <glyph glyph-name="uni01C8" unicode="&#x1c8;" horiz-adv-x="830" 
d="M89 19q-19 19 -19 54v560q0 35 21 56t57 21t57 -21t21 -56v-506h256q73 0 73 -64q0 -63 -73 -63h-339q-35 0 -54 19zM504 -170.5q-24 14.5 -24 44.5q0 49 59 53l28 2q26 2 40 17.5t14 45.5v438q0 35 22 53t54 18t53.5 -18t21.5 -53v-427q0 -170 -174 -183l-28 -2
q-42 -3 -66 11.5zM633 601.5q-23 20.5 -23 55.5t23 55t63 20q39 0 62.5 -20.5t23.5 -54.5q0 -35 -23 -55.5t-63 -20.5t-63 20.5z" />
    <glyph glyph-name="uni01C9" unicode="&#x1c9;" horiz-adv-x="534" 
d="M79.5 12q-21.5 18 -21.5 53v574q0 35 21.5 53t54.5 18q32 0 53.5 -18t21.5 -53v-574q0 -35 -21.5 -53t-53.5 -18q-33 0 -54.5 18zM208 -170.5q-24 14.5 -24 44.5q0 49 59 53l28 2q26 2 40 17.5t14 45.5v438q0 35 22 53t54 18t53.5 -18t21.5 -53v-427q0 -170 -174 -183
l-28 -2q-42 -3 -66 11.5zM337 601.5q-23 20.5 -23 55.5t23 55t63 20q39 0 62.5 -20.5t23.5 -54.5q0 -35 -23 -55.5t-63 -20.5t-63 20.5z" />
    <glyph glyph-name="uni01CA" unicode="&#x1ca;" horiz-adv-x="1129" 
d="M661.5 688.5q20.5 -21.5 20.5 -55.5v-561q0 -35 -20.5 -56.5t-53.5 -21.5q-36 0 -58 26l-335 429v-377q0 -35 -19.5 -56.5t-52.5 -21.5t-53 21.5t-20 56.5v561q0 34 20.5 55.5t53.5 21.5q37 0 57 -26l335 -426v375q0 34 20 55.5t52 21.5q33 0 53.5 -21.5zM759.5 8
q-23.5 16 -23.5 49q0 30 15 44.5t47 16.5l32 2q72 3 72 85v428q0 35 22 56t57 21t56.5 -21t21.5 -56v-426q0 -198 -198 -211l-32 -2q-46 -2 -69.5 14z" />
    <glyph glyph-name="uni01CB" unicode="&#x1cb;" horiz-adv-x="1019" 
d="M661.5 688.5q20.5 -21.5 20.5 -55.5v-561q0 -35 -20.5 -56.5t-53.5 -21.5q-36 0 -58 26l-335 429v-377q0 -35 -19.5 -56.5t-52.5 -21.5t-53 21.5t-20 56.5v561q0 34 20.5 55.5t53.5 21.5q37 0 57 -26l335 -426v375q0 34 20 55.5t52 21.5q33 0 53.5 -21.5zM693 -170.5
q-24 14.5 -24 44.5q0 49 59 53l28 2q26 2 40 17.5t14 45.5v438q0 35 22 53t54 18t53.5 -18t21.5 -53v-427q0 -170 -174 -183l-28 -2q-42 -3 -66 11.5zM822 601.5q-23 20.5 -23 55.5t23 55t63 20q39 0 62.5 -20.5t23.5 -54.5q0 -35 -23 -55.5t-63 -20.5t-63 20.5z" />
    <glyph glyph-name="uni01CC" unicode="&#x1cc;" horiz-adv-x="862" 
d="M497 451.5q43 -51.5 43 -155.5v-231q0 -33 -20.5 -52t-55.5 -19t-55 19t-20 52v224q0 50 -18.5 73t-57.5 23q-47 0 -75.5 -30t-28.5 -80v-210q0 -33 -20 -52t-55 -19t-55.5 19t-20.5 52v367q0 31 21.5 50t55.5 19q31 0 50.5 -18.5t19.5 -47.5v-14q26 40 67.5 61t93.5 21
q88 0 131 -51.5zM536 -170.5q-24 14.5 -24 44.5q0 49 59 53l28 2q26 2 40 17.5t14 45.5v438q0 35 22 53t54 18t53.5 -18t21.5 -53v-427q0 -170 -174 -183l-28 -2q-42 -3 -66 11.5zM665 601.5q-23 20.5 -23 55.5t23 55t63 20q39 0 62.5 -20.5t23.5 -54.5q0 -35 -23 -55.5
t-63 -20.5t-63 20.5z" />
    <glyph glyph-name="uni01CE" unicode="&#x1ce;" horiz-adv-x="546" 
d="M439 450.5q52 -52.5 52 -160.5v-226q0 -33 -19 -51.5t-53 -18.5q-32 0 -51.5 19.5t-19.5 50.5v7q-15 -37 -50 -58t-82 -21q-50 0 -90.5 20t-64 56t-23.5 80q0 54 27.5 85t88.5 45t167 14h26v18q0 42 -18.5 61t-61.5 19t-124 -30q-23 -11 -39 -11q-22 0 -35 15.5t-13 40.5
q0 20 9 33t29 24q35 19 85.5 30t99.5 11q108 0 160 -52.5zM320 125.5q27 29.5 27 76.5v17h-17q-81 0 -113.5 -13t-32.5 -47q0 -28 18.5 -45.5t46.5 -17.5q44 0 71 29.5zM248 557.5q-12 7.5 -27 25.5l-84 107q-11 14 -11 30q0 18 14 31t33 13q25 0 40 -23l66 -97l66 97
q15 23 40 23q19 0 33 -13t14 -31q0 -16 -11 -30l-84 -108q-14 -17 -27 -24.5t-31 -7.5q-19 0 -31 7.5z" />
    <glyph glyph-name="Gcaron" unicode="&#x1e6;" horiz-adv-x="738" 
d="M659.5 373.5q16.5 -15.5 16.5 -42.5v-195q0 -40 -6.5 -62t-22.5 -35t-48 -22q-39 -12 -89.5 -19t-95.5 -7q-112 0 -194 43.5t-126 125t-44 193.5q0 110 43.5 191.5t124.5 125.5t189 44q139 0 230 -72q15 -12 21 -24t6 -30q0 -26 -14.5 -44.5t-34.5 -18.5q-13 0 -23.5 4
t-25.5 13q-42 26 -77 37t-77 11q-204 0 -204 -237q0 -122 53 -182t160 -60q58 0 115 15v155h-92q-29 0 -45 14t-16 40t16 40t45 14h171q28 0 44.5 -15.5zM356 780l-80 67q-18 15 -18 35q0 17 13 29.5t31 12.5q20 0 36 -15l69 -67l69 67q15 15 35 15q19 0 32 -12.5t13 -29.5
q0 -18 -18 -35l-80 -67q-23 -20 -51 -20t-51 20z" />
    <glyph glyph-name="gcaron" unicode="&#x1e7;" horiz-adv-x="617" 
d="M538.5 481.5q20.5 -19.5 20.5 -51.5v-377q0 -119 -69 -180t-202 -61q-112 0 -184 40q-18 10 -28 24.5t-10 32.5q0 25 12 41t32 16q11 0 26 -4.5t31 -10.5q32 -12 59 -19t58 -7q64 0 95 29t31 88v54q-21 -38 -63 -60t-94 -22q-64 0 -113.5 30t-77.5 85.5t-28 128.5
t28 128.5t77.5 86t113.5 30.5q51 0 92.5 -21.5t63.5 -59.5v10q0 32 20.5 50.5t54.5 18.5t54.5 -19.5zM379.5 163q29.5 34 29.5 95t-29.5 95.5t-82.5 34.5t-83 -34.5t-30 -95.5t30 -95t83 -34t82.5 34zM278 557.5q-12 7.5 -27 25.5l-84 107q-11 14 -11 30q0 18 14 31t33 13
q25 0 40 -23l66 -97l66 97q15 23 40 23q19 0 33 -13t14 -31q0 -16 -11 -30l-84 -108q-14 -17 -27 -24.5t-31 -7.5q-19 0 -31 7.5z" />
    <glyph glyph-name="uni01EA" unicode="&#x1ea;" horiz-adv-x="787" 
d="M441 -65q0 -24 15 -39t38 -15q12 0 28 4l20 5q3 1 9 1q12 0 19.5 -10t7.5 -23q0 -22 -18 -32q-39 -23 -88 -23q-56 0 -91.5 31t-35.5 79q0 44 29 78q-99 4 -172 49.5t-112.5 125.5t-39.5 187q0 110 42 191.5t119.5 125.5t182.5 44t182.5 -44t119.5 -125.5t42 -191.5
q0 -134 -61 -224.5t-172 -123.5q-64 -18 -64 -70zM532.5 174q50.5 62 50.5 179t-50 178.5t-139 61.5t-138.5 -61.5t-49.5 -178.5t50 -179t138 -62t138.5 62z" />
    <glyph glyph-name="uni01EB" unicode="&#x1eb;" horiz-adv-x="588" 
d="M325 -65q0 -24 14.5 -39t38.5 -15q11 0 26.5 3.5t21.5 5.5q3 1 9 1q12 0 19 -10t7 -23q0 -22 -18 -32q-37 -23 -88 -23q-55 0 -91 31t-36 79q0 47 34 81q-106 11 -167 78.5t-61 175.5q0 78 32 135.5t91 88.5t137 31t137 -31t91 -88.5t32 -135.5q0 -90 -44 -154.5
t-120 -87.5q-65 -19 -65 -71zM404 248q0 71 -28.5 106t-81.5 35q-110 0 -110 -141t110 -141t110 141z" />
    <glyph glyph-name="Aringacute" unicode="&#x1fa;" horiz-adv-x="751" 
d="M735 63q0 -28 -22.5 -47.5t-51.5 -19.5q-19 0 -36 10.5t-26 31.5l-53 118h-339l-53 -118q-9 -21 -26 -31.5t-36 -10.5q-29 0 -52 19t-23 48q0 14 8 32l284 597q-20 14 -31 36.5t-11 49.5q0 45 31.5 76t77.5 31q29 0 51 -12l91 63q22 15 43 15q23 0 39 -16.5t16 -38.5
q0 -18 -12 -33t-37 -22l-88 -26q7 -17 7 -37q0 -26 -11.5 -48.5t-31.5 -37.5l284 -597q8 -18 8 -32zM345 810q-12 -13 -12 -32q0 -20 12 -33t31 -13t31 13t12 33q0 19 -12 32t-31 13t-31 -13zM260 274h233l-116 260z" />
    <glyph glyph-name="aringacute" unicode="&#x1fb;" horiz-adv-x="546" 
d="M460 859q22 0 38.5 -16.5t16.5 -38.5q0 -33 -39 -53l-98 -48q10 -23 10 -45q0 -45 -32 -76.5t-77 -31.5q-46 0 -78 31t-32 77q0 45 32 76t78 31q25 0 49 -11l83 82q23 23 49 23zM310 625q12 13 12 33q0 19 -12 32t-31 13t-31.5 -13t-12.5 -32q0 -20 12.5 -33t31.5 -13
t31 13zM439 450.5q52 -52.5 52 -160.5v-226q0 -33 -19 -51.5t-53 -18.5q-32 0 -51.5 19.5t-19.5 50.5v7q-15 -37 -50 -58t-82 -21q-50 0 -90.5 20t-64 56t-23.5 80q0 54 27.5 85t88.5 45t167 14h26v18q0 42 -18.5 61t-61.5 19t-124 -30q-23 -11 -39 -11q-22 0 -35 15.5
t-13 40.5q0 20 9 33t29 24q35 19 85.5 30t99.5 11q108 0 160 -52.5zM320 125.5q27 29.5 27 76.5v17h-17q-81 0 -113.5 -13t-32.5 -47q0 -28 18.5 -45.5t46.5 -17.5q44 0 71 29.5z" />
    <glyph glyph-name="AEacute" unicode="&#x1fc;" horiz-adv-x="1000" 
d="M978 60q0 -60 -73 -60h-282q-27 0 -45.5 12t-23.5 32l-25 112h-311l-73 -118q-14 -22 -33 -33t-40 -11q-28 0 -48 16.5t-20 42.5q0 21 14 42l367 567q13 20 36 31.5t51 11.5h433q73 0 73 -60q0 -30 -19 -45.5t-54 -15.5h-329l37 -165h272q73 0 73 -61q0 -60 -73 -60h-245
l39 -177h226q73 0 73 -61zM292 274h211l-55 252zM504 760q-14 0 -24.5 9.5t-10.5 22.5t13 26l86 85q23 23 49 23q22 0 38.5 -16.5t16.5 -38.5q0 -15 -10 -29t-30 -24l-109 -54q-8 -4 -19 -4z" />
    <glyph glyph-name="aeacute" unicode="&#x1fd;" horiz-adv-x="837" 
d="M789 130q12 -16 12 -41q0 -17 -10 -31.5t-28 -24.5q-33 -18 -77.5 -29.5t-81.5 -11.5q-69 0 -120 25t-80 72q-23 -47 -67.5 -72t-102.5 -25q-56 0 -100.5 20t-70 55.5t-25.5 80.5q0 54 27.5 85t88.5 45t166 14h26v18q0 42 -19 61t-60 19q-36 0 -63 -7.5t-55 -19.5
q-31 -14 -48 -14q-20 0 -32.5 15.5t-12.5 40.5q0 36 38 57q35 20 82.5 30.5t98.5 10.5q113 0 160 -63q30 30 70 46.5t88 16.5q62 0 110 -30t74.5 -85t26.5 -126q0 -45 -39 -45h-274q8 -58 35.5 -85t80.5 -27q27 0 47.5 6t51.5 19q34 16 51 16q20 0 32 -16zM521.5 371.5
q-25.5 -27.5 -30.5 -79.5h186q-2 51 -25 79t-62 28q-43 0 -68.5 -27.5zM319.5 126.5q26.5 30.5 26.5 75.5v17h-18q-80 0 -112 -13t-32 -47q0 -28 19.5 -45.5t50.5 -17.5q39 0 65.5 30.5zM420 550q-16 0 -27 11t-11 26q0 13 9 26l86 115q25 34 60 34q25 0 44 -18t19 -42
q0 -30 -32 -54l-122 -89q-12 -9 -26 -9z" />
    <glyph glyph-name="Oslashacute" unicode="&#x1fe;" horiz-adv-x="787" 
d="M709 516q29 -72 29 -163q0 -110 -42 -191.5t-119.5 -126t-182.5 -44.5q-72 0 -132 21l-16 -28q-22 -39 -59 -39q-22 0 -37.5 15.5t-15.5 39.5q0 21 12 41l17 29q-55 48 -84 120t-29 163q0 110 42 191.5t119.5 125.5t182.5 44q73 0 131 -21l16 28q11 20 27 29.5t32 9.5
q22 0 38 -15.5t16 -38.5q0 -20 -13 -42l-16 -28q55 -48 84 -120zM238 200l223 383q-35 10 -67 10q-89 0 -138.5 -61.5t-49.5 -178.5q0 -94 32 -153zM532.5 174q50.5 62 50.5 179q0 93 -33 154l-223 -384q31 -11 67 -11q88 0 138.5 62zM392 760q-14 0 -24.5 9.5t-10.5 22.5
t13 26l86 85q23 23 49 23q22 0 38.5 -16.5t16.5 -38.5q0 -15 -10 -29t-30 -24l-109 -54q-8 -4 -19 -4z" />
    <glyph glyph-name="oslashacute" unicode="&#x1ff;" horiz-adv-x="588" 
d="M530 367.5q24 -52.5 24 -119.5q0 -78 -32 -135.5t-91 -89t-137 -31.5q-48 0 -93 13l-19 -32q-6 -11 -16.5 -17t-21.5 -6q-16 0 -29 11t-13 27q0 12 7 23l18 31q-45 33 -69 86t-24 120q0 78 32 135.5t91 88.5t137 31q47 0 94 -13l18 31q6 11 16.5 17t21.5 6q16 0 28.5 -11
t12.5 -27q0 -12 -6 -22l-18 -31q45 -33 69 -85.5zM197 162l130 224q-13 4 -33 4q-113 0 -113 -142q0 -54 16 -86zM406 248q0 52 -15 85l-130 -224q15 -3 33 -3q112 0 112 142zM297 550q-16 0 -27 11t-11 26q0 13 9 26l86 115q25 34 60 34q25 0 44 -18t19 -42q0 -30 -32 -54
l-122 -89q-12 -9 -26 -9z" />
    <glyph glyph-name="uni0200" unicode="&#x200;" horiz-adv-x="751" 
d="M735 63q0 -28 -22.5 -47.5t-51.5 -19.5q-19 0 -36 10.5t-26 31.5l-53 118h-339l-53 -118q-9 -21 -25.5 -31.5t-36.5 -10.5q-29 0 -52 19.5t-23 47.5q0 14 8 32l270 567q11 24 33 36.5t47 12.5q26 0 48 -13t34 -36l270 -567q8 -18 8 -32zM260 274h233l-116 260zM214 839
q-16 16 -16 35q0 21 17.5 36t38.5 15q30 0 44 -32l37 -83q3 -9 3 -17q0 -14 -9.5 -23.5t-22.5 -9.5q-15 0 -28 13zM352 839q-16 16 -16 35q0 21 17.5 36t38.5 15q30 0 44 -32l37 -83q4 -8 4 -17q0 -14 -9.5 -23.5t-22.5 -9.5q-15 0 -28 13z" />
    <glyph glyph-name="uni0201" unicode="&#x201;" horiz-adv-x="546" 
d="M439 450.5q52 -52.5 52 -160.5v-226q0 -33 -19 -51.5t-53 -18.5q-32 0 -51.5 19.5t-19.5 50.5v7q-15 -37 -50 -58t-82 -21q-50 0 -90.5 20t-64 56t-23.5 80q0 54 27.5 85t88.5 45t167 14h26v18q0 42 -18.5 61t-61.5 19t-124 -30q-23 -11 -39 -11q-22 0 -35 15.5t-13 40.5
q0 20 9 33t29 24q35 19 85.5 30t99.5 11q108 0 160 -52.5zM320 125.5q27 29.5 27 76.5v17h-17q-81 0 -113.5 -13t-32.5 -47q0 -28 18.5 -45.5t46.5 -17.5q44 0 71 29.5zM116 682q-10 19 -10 35q0 22 16 35.5t37 13.5q20 0 35.5 -13.5t21.5 -40.5l26 -121q1 -3 1 -8
q0 -15 -10 -24.5t-23 -9.5q-19 0 -31 19zM255 682q-10 19 -10 35q0 22 16 35.5t37 13.5q20 0 35.5 -13.5t21.5 -40.5l25 -121q1 -3 1 -9q0 -14 -10 -23.5t-23 -9.5q-19 0 -31 19z" />
    <glyph glyph-name="uni0202" unicode="&#x202;" horiz-adv-x="751" 
d="M735 63q0 -28 -22.5 -47.5t-51.5 -19.5q-19 0 -36 10.5t-26 31.5l-53 118h-339l-53 -118q-9 -21 -25.5 -31.5t-36.5 -10.5q-29 0 -52 19.5t-23 47.5q0 14 8 32l270 567q11 24 33 36.5t47 12.5q26 0 48 -13t34 -36l270 -567q8 -18 8 -32zM260 274h233l-116 260zM241 773
q-16 0 -28 10.5t-12 26.5q0 12 8 26q19 35 63.5 56t102.5 21t102.5 -21t63.5 -56q8 -16 8 -27q0 -16 -11.5 -26t-27.5 -10q-21 0 -38 16t-43 25t-54 9t-54 -9t-43 -25t-37 -16z" />
    <glyph glyph-name="uni0203" unicode="&#x203;" horiz-adv-x="546" 
d="M439 450.5q52 -52.5 52 -160.5v-226q0 -33 -19 -51.5t-53 -18.5q-32 0 -51.5 19.5t-19.5 50.5v7q-15 -37 -50 -58t-82 -21q-50 0 -90.5 20t-64 56t-23.5 80q0 54 27.5 85t88.5 45t167 14h26v18q0 42 -18.5 61t-61.5 19t-124 -30q-23 -11 -39 -11q-22 0 -35 15.5t-13 40.5
q0 20 9 33t29 24q35 19 85.5 30t99.5 11q108 0 160 -52.5zM320 125.5q27 29.5 27 76.5v17h-17q-81 0 -113.5 -13t-32.5 -47q0 -28 18.5 -45.5t46.5 -17.5q44 0 71 29.5zM165.5 581.5q-10.5 -5.5 -20.5 -5.5q-17 0 -30 11.5t-13 29.5q0 6 4 18q18 50 66.5 81.5t106.5 31.5
t106.5 -31.5t66.5 -81.5q3 -9 3 -18q0 -18 -12.5 -29.5t-29.5 -11.5q-23 0 -38 22q-33 52 -96 52t-96 -52q-7 -11 -17.5 -16.5z" />
    <glyph glyph-name="uni0204" unicode="&#x204;" horiz-adv-x="593" 
d="M89 19q-19 19 -19 54v559q0 35 19 54t54 19h354q74 0 74 -60q0 -61 -74 -61h-275v-165h255q74 0 74 -61q0 -60 -74 -60h-255v-177h275q74 0 74 -61q0 -60 -74 -60h-354q-35 0 -54 19zM170 839q-16 16 -16 35q0 21 17.5 36t38.5 15q30 0 44 -32l37 -83q3 -9 3 -17
q0 -14 -9.5 -23.5t-22.5 -9.5q-15 0 -28 13zM308 839q-16 16 -16 35q0 21 17.5 36t38.5 15q30 0 44 -32l37 -83q4 -8 4 -17q0 -14 -9.5 -23.5t-22.5 -9.5q-15 0 -28 13z" />
    <glyph glyph-name="uni0205" unicode="&#x205;" horiz-adv-x="533" 
d="M484.5 130q12.5 -16 12.5 -41q0 -17 -10 -31.5t-28 -24.5q-34 -18 -79 -29.5t-83 -11.5q-80 0 -139.5 31t-91.5 88.5t-32 135.5q0 75 31 133t86 90.5t125 32.5q67 0 117.5 -29.5t78.5 -84t28 -127.5q0 -22 -10.5 -33.5t-29.5 -11.5h-280q7 -59 36 -85.5t83 -26.5
q29 0 52 7t51 19q14 6 27 10.5t23 4.5q20 0 32.5 -16zM211 371.5q-26 -27.5 -31 -79.5h193q-3 53 -26.5 80t-66.5 27t-69 -27.5zM113 682q-10 19 -10 35q0 22 16 35.5t37 13.5q20 0 35.5 -13.5t21.5 -40.5l26 -121q1 -3 1 -8q0 -15 -10 -24.5t-23 -9.5q-19 0 -31 19z
M252 682q-10 19 -10 35q0 22 16 35.5t37 13.5q20 0 35.5 -13.5t21.5 -40.5l25 -121q1 -3 1 -9q0 -14 -10 -23.5t-23 -9.5q-19 0 -31 19z" />
    <glyph glyph-name="uni0206" unicode="&#x206;" horiz-adv-x="593" 
d="M89 19q-19 19 -19 54v559q0 35 19 54t54 19h354q74 0 74 -60q0 -61 -74 -61h-275v-165h255q74 0 74 -61q0 -60 -74 -60h-255v-177h275q74 0 74 -61q0 -60 -74 -60h-354q-35 0 -54 19zM197 773q-16 0 -28 10.5t-12 26.5q0 12 8 26q19 35 63.5 56t102.5 21t102.5 -21
t63.5 -56q8 -16 8 -27q0 -16 -11.5 -26t-27.5 -10q-21 0 -38 16t-43 25t-54 9t-54 -9t-43 -25t-37 -16z" />
    <glyph glyph-name="uni0207" unicode="&#x207;" horiz-adv-x="533" 
d="M484.5 130q12.5 -16 12.5 -41q0 -17 -10 -31.5t-28 -24.5q-34 -18 -79 -29.5t-83 -11.5q-80 0 -139.5 31t-91.5 88.5t-32 135.5q0 75 31 133t86 90.5t125 32.5q67 0 117.5 -29.5t78.5 -84t28 -127.5q0 -22 -10.5 -33.5t-29.5 -11.5h-280q7 -59 36 -85.5t83 -26.5
q29 0 52 7t51 19q14 6 27 10.5t23 4.5q20 0 32.5 -16zM211 371.5q-26 -27.5 -31 -79.5h193q-3 53 -26.5 80t-66.5 27t-69 -27.5zM162.5 581.5q-10.5 -5.5 -20.5 -5.5q-17 0 -30 11.5t-13 29.5q0 6 4 18q18 50 66.5 81.5t106.5 31.5t106.5 -31.5t66.5 -81.5q3 -9 3 -18
q0 -18 -12.5 -29.5t-29.5 -11.5q-23 0 -38 22q-33 52 -96 52t-96 -52q-7 -11 -17.5 -16.5z" />
    <glyph glyph-name="uni0208" unicode="&#x208;" horiz-adv-x="296" 
d="M91 15q-21 21 -21 57v561q0 35 21 56t57 21t57 -21t21 -56v-561q0 -36 -21 -57t-57 -21t-57 21zM-13 839q-16 16 -16 35q0 21 17.5 36t38.5 15q30 0 44 -32l37 -83q3 -9 3 -17q0 -14 -9.5 -23.5t-22.5 -9.5q-15 0 -28 13zM125 839q-16 16 -16 35q0 21 17.5 36t38.5 15
q30 0 44 -32l37 -83q4 -8 4 -17q0 -14 -9.5 -23.5t-22.5 -9.5q-15 0 -28 13z" />
    <glyph glyph-name="uni0209" unicode="&#x209;" horiz-adv-x="267" 
d="M79.5 12q-21.5 18 -21.5 53v365q0 35 22 53t54 18t53.5 -18t21.5 -53v-365q0 -35 -21.5 -53t-53.5 -18q-33 0 -54.5 18zM-29 682q-10 19 -10 35q0 22 16 35.5t37 13.5q20 0 35.5 -13.5t21.5 -40.5l26 -121q1 -3 1 -8q0 -15 -10 -24.5t-23 -9.5q-19 0 -31 19zM110 682
q-10 19 -10 35q0 22 16 35.5t37 13.5q20 0 35.5 -13.5t21.5 -40.5l25 -121q1 -3 1 -9q0 -14 -10 -23.5t-23 -9.5q-19 0 -31 19z" />
    <glyph glyph-name="uni020A" unicode="&#x20a;" horiz-adv-x="296" 
d="M91 15q-21 21 -21 57v561q0 35 21 56t57 21t57 -21t21 -56v-561q0 -36 -21 -57t-57 -21t-57 21zM14 773q-16 0 -28 10.5t-12 26.5q0 12 8 26q19 35 63.5 56t102.5 21t102.5 -21t63.5 -56q8 -16 8 -27q0 -16 -11.5 -26t-27.5 -10q-21 0 -38 16t-43 25t-54 9t-54 -9
t-43 -25t-37 -16z" />
    <glyph glyph-name="uni020B" unicode="&#x20b;" horiz-adv-x="267" 
d="M79.5 12q-21.5 18 -21.5 53v365q0 35 22 53t54 18t53.5 -18t21.5 -53v-365q0 -35 -21.5 -53t-53.5 -18q-33 0 -54.5 18zM20.5 581.5q-10.5 -5.5 -20.5 -5.5q-17 0 -30 11.5t-13 29.5q0 6 4 18q18 50 66.5 81.5t106.5 31.5t106.5 -31.5t66.5 -81.5q3 -9 3 -18
q0 -18 -12.5 -29.5t-29.5 -11.5q-23 0 -38 22q-33 52 -96 52t-96 -52q-7 -11 -17.5 -16.5z" />
    <glyph glyph-name="uni020C" unicode="&#x20c;" horiz-adv-x="787" 
d="M211.5 35.5q-77.5 44.5 -119.5 126t-42 191.5t42 191.5t119.5 125.5t182.5 44t182.5 -44t119.5 -125.5t42 -191.5t-42 -191.5t-119.5 -126t-182.5 -44.5t-182.5 44.5zM532.5 174q50.5 62 50.5 179t-50 178.5t-139 61.5t-138.5 -61.5t-49.5 -178.5t50 -179t138 -62
t138.5 62zM232 839q-16 16 -16 35q0 21 17.5 36t38.5 15q30 0 44 -32l37 -83q3 -9 3 -17q0 -14 -9.5 -23.5t-22.5 -9.5q-15 0 -28 13zM370 839q-16 16 -16 35q0 21 17.5 36t38.5 15q30 0 44 -32l37 -83q4 -8 4 -17q0 -14 -9.5 -23.5t-22.5 -9.5q-15 0 -28 13z" />
    <glyph glyph-name="uni020D" unicode="&#x20d;" horiz-adv-x="588" 
d="M157 23.5q-59 31.5 -91 89t-32 135.5t32 135.5t91 88.5t137 31t137 -31t91 -88.5t32 -135.5t-32 -135.5t-91 -89t-137 -31.5t-137 31.5zM404 248q0 71 -28.5 106t-81.5 35q-110 0 -110 -141t110 -141t110 141zM131 682q-10 19 -10 35q0 22 16 35.5t37 13.5
q20 0 35.5 -13.5t21.5 -40.5l26 -121q1 -3 1 -8q0 -15 -10 -24.5t-23 -9.5q-19 0 -31 19zM270 682q-10 19 -10 35q0 22 16 35.5t37 13.5q20 0 35.5 -13.5t21.5 -40.5l25 -121q1 -3 1 -9q0 -14 -10 -23.5t-23 -9.5q-19 0 -31 19z" />
    <glyph glyph-name="uni020E" unicode="&#x20e;" horiz-adv-x="787" 
d="M211.5 35.5q-77.5 44.5 -119.5 126t-42 191.5t42 191.5t119.5 125.5t182.5 44t182.5 -44t119.5 -125.5t42 -191.5t-42 -191.5t-119.5 -126t-182.5 -44.5t-182.5 44.5zM532.5 174q50.5 62 50.5 179t-50 178.5t-139 61.5t-138.5 -61.5t-49.5 -178.5t50 -179t138 -62
t138.5 62zM259 773q-16 0 -28 10.5t-12 26.5q0 12 8 26q19 35 63.5 56t102.5 21t102.5 -21t63.5 -56q8 -16 8 -27q0 -16 -11.5 -26t-27.5 -10q-21 0 -38 16t-43 25t-54 9t-54 -9t-43 -25t-37 -16z" />
    <glyph glyph-name="uni020F" unicode="&#x20f;" horiz-adv-x="588" 
d="M157 23.5q-59 31.5 -91 89t-32 135.5t32 135.5t91 88.5t137 31t137 -31t91 -88.5t32 -135.5t-32 -135.5t-91 -89t-137 -31.5t-137 31.5zM404 248q0 71 -28.5 106t-81.5 35q-110 0 -110 -141t110 -141t110 141zM180.5 581.5q-10.5 -5.5 -20.5 -5.5q-17 0 -30 11.5
t-13 29.5q0 6 4 18q18 50 66.5 81.5t106.5 31.5t106.5 -31.5t66.5 -81.5q3 -9 3 -18q0 -18 -12.5 -29.5t-29.5 -11.5q-23 0 -38 22q-33 52 -96 52t-96 -52q-7 -11 -17.5 -16.5z" />
    <glyph glyph-name="uni0210" unicode="&#x210;" horiz-adv-x="701" 
d="M663 56q0 -28 -22.5 -46t-52.5 -18q-19 0 -37 9t-30 28l-132 196q-17 26 -36 37.5t-48 11.5h-81v-202q0 -36 -20.5 -57t-55.5 -21q-36 0 -57 21t-21 57v560q0 35 19 54t54 19h251q124 0 187.5 -54.5t63.5 -157.5q0 -81 -45 -135t-127 -71q30 -6 53.5 -23.5t45.5 -50.5
l76 -114q15 -22 15 -43zM468 415.5q30 23.5 30 73.5q0 51 -30 74t-97 23h-149v-194h149q67 0 97 23.5zM191 839q-16 16 -16 35q0 21 17.5 36t38.5 15q30 0 44 -32l37 -83q3 -9 3 -17q0 -14 -9.5 -23.5t-22.5 -9.5q-15 0 -28 13zM329 839q-16 16 -16 35q0 21 17.5 36t38.5 15
q30 0 44 -32l37 -83q4 -8 4 -17q0 -14 -9.5 -23.5t-22.5 -9.5q-15 0 -28 13z" />
    <glyph glyph-name="uni0211" unicode="&#x211;" horiz-adv-x="401" 
d="M398.5 487.5q17.5 -15.5 17.5 -46.5q0 -33 -16 -49t-57 -20l-30 -3q-55 -6 -79.5 -36t-24.5 -77v-191q0 -35 -21.5 -53t-53.5 -18q-33 0 -54.5 18t-21.5 53v367q0 33 22 51t53 18q30 0 50 -17.5t20 -48.5v-27q18 43 54.5 66t79.5 26l14 1q30 2 47.5 -13.5zM71 682
q-10 19 -10 35q0 22 16 35.5t37 13.5q20 0 35.5 -13.5t21.5 -40.5l26 -121q1 -3 1 -8q0 -15 -10 -24.5t-23 -9.5q-19 0 -31 19zM210 682q-10 19 -10 35q0 22 16 35.5t37 13.5q20 0 35.5 -13.5t21.5 -40.5l25 -121q1 -3 1 -9q0 -14 -10 -23.5t-23 -9.5q-19 0 -31 19z" />
    <glyph glyph-name="uni0212" unicode="&#x212;" horiz-adv-x="701" 
d="M663 56q0 -28 -22.5 -46t-52.5 -18q-19 0 -37 9t-30 28l-132 196q-17 26 -36 37.5t-48 11.5h-81v-202q0 -36 -20.5 -57t-55.5 -21q-36 0 -57 21t-21 57v560q0 35 19 54t54 19h251q124 0 187.5 -54.5t63.5 -157.5q0 -81 -45 -135t-127 -71q30 -6 53.5 -23.5t45.5 -50.5
l76 -114q15 -22 15 -43zM468 415.5q30 23.5 30 73.5q0 51 -30 74t-97 23h-149v-194h149q67 0 97 23.5zM218 773q-16 0 -28 10.5t-12 26.5q0 12 8 26q19 35 63.5 56t102.5 21t102.5 -21t63.5 -56q8 -16 8 -27q0 -16 -11.5 -26t-27.5 -10q-21 0 -38 16t-43 25t-54 9t-54 -9
t-43 -25t-37 -16z" />
    <glyph glyph-name="uni0213" unicode="&#x213;" horiz-adv-x="401" 
d="M398.5 487.5q17.5 -15.5 17.5 -46.5q0 -33 -16 -49t-57 -20l-30 -3q-55 -6 -79.5 -36t-24.5 -77v-191q0 -35 -21.5 -53t-53.5 -18q-33 0 -54.5 18t-21.5 53v367q0 33 22 51t53 18q30 0 50 -17.5t20 -48.5v-27q18 43 54.5 66t79.5 26l14 1q30 2 47.5 -13.5zM120.5 581.5
q-10.5 -5.5 -20.5 -5.5q-17 0 -30 11.5t-13 29.5q0 6 4 18q18 50 66.5 81.5t106.5 31.5t106.5 -31.5t66.5 -81.5q3 -9 3 -18q0 -18 -12.5 -29.5t-29.5 -11.5q-23 0 -38 22q-33 52 -96 52t-96 -52q-7 -11 -17.5 -16.5z" />
    <glyph glyph-name="uni0214" unicode="&#x214;" horiz-adv-x="739" 
d="M143.5 67.5q-77.5 76.5 -77.5 223.5v342q0 35 21 56t56 21t55.5 -21t20.5 -56v-349q0 -84 38.5 -128t111.5 -44t112 44.5t39 127.5v349q0 35 20.5 56t55.5 21t56 -21t21 -56v-342q0 -146 -78 -223t-226 -77t-225.5 76.5zM208 839q-16 16 -16 35q0 21 17.5 36t38.5 15
q30 0 44 -32l37 -83q3 -9 3 -17q0 -14 -9.5 -23.5t-22.5 -9.5q-15 0 -28 13zM346 839q-16 16 -16 35q0 21 17.5 36t38.5 15q30 0 44 -32l37 -83q4 -8 4 -17q0 -14 -9.5 -23.5t-22.5 -9.5q-15 0 -28 13z" />
    <glyph glyph-name="uni0215" unicode="&#x215;" horiz-adv-x="589" 
d="M510.5 482q20.5 -19 20.5 -52v-367q0 -31 -21.5 -50t-55.5 -19q-32 0 -51 18t-19 48v10q-23 -38 -60.5 -58t-84.5 -20q-93 0 -138.5 51.5t-45.5 155.5v231q0 33 20.5 52t55.5 19t55 -19t20 -52v-234q0 -44 18.5 -65t56.5 -21q44 0 71.5 30t27.5 79v211q0 33 20 52t55 19
t55.5 -19zM131 682q-10 19 -10 35q0 22 16 35.5t37 13.5q20 0 35.5 -13.5t21.5 -40.5l26 -121q1 -3 1 -8q0 -15 -10 -24.5t-23 -9.5q-19 0 -31 19zM270 682q-10 19 -10 35q0 22 16 35.5t37 13.5q20 0 35.5 -13.5t21.5 -40.5l25 -121q1 -3 1 -9q0 -14 -10 -23.5t-23 -9.5
q-19 0 -31 19z" />
    <glyph glyph-name="uni0216" unicode="&#x216;" horiz-adv-x="739" 
d="M143.5 67.5q-77.5 76.5 -77.5 223.5v342q0 35 21 56t56 21t55.5 -21t20.5 -56v-349q0 -84 38.5 -128t111.5 -44t112 44.5t39 127.5v349q0 35 20.5 56t55.5 21t56 -21t21 -56v-342q0 -146 -78 -223t-226 -77t-225.5 76.5zM235 773q-16 0 -28 10.5t-12 26.5q0 12 8 26
q19 35 63.5 56t102.5 21t102.5 -21t63.5 -56q8 -16 8 -27q0 -16 -11.5 -26t-27.5 -10q-21 0 -38 16t-43 25t-54 9t-54 -9t-43 -25t-37 -16z" />
    <glyph glyph-name="uni0217" unicode="&#x217;" horiz-adv-x="589" 
d="M510.5 482q20.5 -19 20.5 -52v-367q0 -31 -21.5 -50t-55.5 -19q-32 0 -51 18t-19 48v10q-23 -38 -60.5 -58t-84.5 -20q-93 0 -138.5 51.5t-45.5 155.5v231q0 33 20.5 52t55.5 19t55 -19t20 -52v-234q0 -44 18.5 -65t56.5 -21q44 0 71.5 30t27.5 79v211q0 33 20 52t55 19
t55.5 -19zM180.5 581.5q-10.5 -5.5 -20.5 -5.5q-17 0 -30 11.5t-13 29.5q0 6 4 18q18 50 66.5 81.5t106.5 31.5t106.5 -31.5t66.5 -81.5q3 -9 3 -18q0 -18 -12.5 -29.5t-29.5 -11.5q-23 0 -38 22q-33 52 -96 52t-96 -52q-7 -11 -17.5 -16.5z" />
    <glyph glyph-name="Scommaaccent" unicode="&#x218;" horiz-adv-x="651" 
d="M177 9.5q-68 18.5 -111 52.5q-15 11 -21.5 23.5t-6.5 31.5q0 25 15.5 44t35.5 19q11 0 21.5 -3.5t25.5 -12.5q43 -27 87 -39.5t97 -12.5q66 0 101 22t35 63q0 31 -32.5 50t-115.5 36q-93 19 -148.5 46t-81 67t-25.5 97q0 63 36.5 113.5t101 79t145.5 28.5q142 0 234 -71
q15 -12 21.5 -24.5t6.5 -30.5q0 -25 -15.5 -44t-35.5 -19q-11 0 -20.5 3t-26.5 13q-41 26 -75.5 39t-87.5 13q-61 0 -96 -23.5t-35 -64.5q0 -24 13.5 -39.5t45 -27.5t89.5 -25q136 -30 195.5 -77t59.5 -129q0 -64 -35.5 -113t-100 -76t-149.5 -27q-79 0 -147 18.5z
M382.5 -83q22.5 -23 22.5 -67q0 -32 -10 -59t-26 -45q-8 -9 -19 -14t-21 -5q-15 0 -24.5 7t-9.5 19q0 11 8 20q16 24 20 42h-5q-28 0 -48 15.5t-20 42.5q0 30 20.5 48.5t51.5 18.5q38 0 60.5 -23z" />
    <glyph glyph-name="scommaaccent" unicode="&#x219;" horiz-adv-x="487" 
d="M138 2q-45 10 -79 32q-15 9 -23 24t-8 34q0 23 13 38.5t32 15.5q13 0 26 -4.5t27 -10.5q28 -13 55 -20.5t67 -7.5q35 0 54.5 11t19.5 30q0 14 -8.5 22.5t-31.5 15.5t-73 17q-89 17 -128 51t-39 95q0 45 27.5 81t75.5 56.5t108 20.5q43 0 84 -11t73 -31q31 -19 31 -56
q0 -24 -13 -40t-32 -16q-23 0 -55 18q-25 13 -45.5 19.5t-48.5 6.5q-31 0 -49 -11.5t-18 -31.5q0 -21 21 -32t81 -22q67 -13 105 -31.5t55 -46.5t17 -71q0 -71 -58.5 -113t-156.5 -42q-61 0 -106 10zM302.5 -83q22.5 -23 22.5 -67q0 -32 -10 -59t-26 -45q-8 -9 -19 -14
t-21 -5q-15 0 -24.5 7t-9.5 19q0 11 8 20q16 24 20 42h-5q-28 0 -48 15.5t-20 42.5q0 30 20.5 48.5t51.5 18.5q38 0 60.5 -23z" />
    <glyph glyph-name="uni021A" unicode="&#x21a;" horiz-adv-x="622" 
d="M254.5 16q-21.5 21 -21.5 56v506h-162q-74 0 -74 64q0 63 74 63h480q74 0 74 -63q0 -64 -74 -64h-162v-506q0 -35 -21 -56t-57 -21q-35 0 -56.5 21zM369.5 -83q22.5 -23 22.5 -67q0 -32 -10 -59t-26 -45q-8 -9 -19 -14t-21 -5q-15 0 -24.5 7t-9.5 19q0 11 8 20
q16 24 20 42h-5q-28 0 -48 15.5t-20 42.5q0 30 20.5 48.5t51.5 18.5q38 0 60.5 -23z" />
    <glyph glyph-name="uni021B" unicode="&#x21b;" horiz-adv-x="387" 
d="M375 89q14 -13 14 -38q0 -29 -23 -44t-66 -12l-28 2q-175 14 -175 183v198h-40q-33 0 -50 14.5t-17 41.5q0 28 17 42.5t50 14.5h40v78q0 33 20.5 52t55.5 19t55 -19t20 -52v-78h70q68 0 68 -57q0 -27 -17 -41.5t-51 -14.5h-70v-209q0 -30 14 -45.5t41 -17.5l28 -2
q30 -2 44 -15zM301.5 -83q22.5 -23 22.5 -67q0 -32 -10 -59t-26 -45q-8 -9 -19 -14t-21 -5q-15 0 -24.5 7t-9.5 19q0 11 8 20q16 24 20 42h-5q-28 0 -48 15.5t-20 42.5q0 30 20.5 48.5t51.5 18.5q38 0 60.5 -23z" />
    <glyph glyph-name="uni0227" unicode="&#x227;" horiz-adv-x="546" 
d="M439 450.5q52 -52.5 52 -160.5v-226q0 -33 -19 -51.5t-53 -18.5q-32 0 -51.5 19.5t-19.5 50.5v7q-15 -37 -50 -58t-82 -21q-50 0 -90.5 20t-64 56t-23.5 80q0 54 27.5 85t88.5 45t167 14h26v18q0 42 -18.5 61t-61.5 19t-124 -30q-23 -11 -39 -11q-22 0 -35 15.5t-13 40.5
q0 20 9 33t29 24q35 19 85.5 30t99.5 11q108 0 160 -52.5zM320 125.5q27 29.5 27 76.5v17h-17q-81 0 -113.5 -13t-32.5 -47q0 -28 18.5 -45.5t46.5 -17.5q44 0 71 29.5zM216 601.5q-23 20.5 -23 55.5t23 55t63 20q39 0 62.5 -20.5t23.5 -54.5q0 -35 -23 -55.5t-63 -20.5
t-63 20.5z" />
    <glyph glyph-name="uni0228" unicode="&#x228;" horiz-adv-x="593" 
d="M571 60q0 -60 -74 -60h-136l-5 -42q16 2 22 2q31 0 52.5 -19t21.5 -50q0 -39 -35 -63.5t-100 -24.5q-42 0 -71 10q-20 7 -20 30q0 14 9 24t22 6q34 -8 56 -8q46 0 46 26q0 9 -6.5 14t-17.5 5q-9 0 -23 -3t-21 -3q-10 0 -15.5 5.5t-4.5 15.5l9 75h-137q-35 0 -54 19
t-19 54v559q0 35 19 54t54 19h354q74 0 74 -60q0 -61 -74 -61h-275v-165h255q74 0 74 -61q0 -60 -74 -60h-255v-177h275q74 0 74 -61z" />
    <glyph glyph-name="uni022A" unicode="&#x22a;" horiz-adv-x="787" 
d="M211.5 35.5q-77.5 44.5 -119.5 126t-42 191.5t42 191.5t119.5 125.5t182.5 44t182.5 -44t119.5 -125.5t42 -191.5t-42 -191.5t-119.5 -126t-182.5 -44.5t-182.5 44.5zM532.5 174q50.5 62 50.5 179t-50 178.5t-139 61.5t-138.5 -61.5t-49.5 -178.5t50 -179t138 -62
t138.5 62zM244 792.5q-21 19.5 -21 51.5t21 51t54 19t54 -19t21 -51t-20.5 -51.5t-54.5 -19.5q-33 0 -54 19.5zM434.5 792.5q-20.5 19.5 -20.5 51.5t20.5 51t53.5 19t54 -19t21 -51t-21 -51.5t-54 -19.5t-53.5 19.5zM236 968.5q-14 12.5 -14 34.5t14 34.5t36 12.5h242
q22 0 36 -12.5t14 -34.5t-14 -34.5t-36 -12.5h-242q-22 0 -36 12.5z" />
    <glyph glyph-name="uni022B" unicode="&#x22b;" horiz-adv-x="588" 
d="M157 23.5q-59 31.5 -91 89t-32 135.5t32 135.5t91 88.5t137 31t137 -31t91 -88.5t32 -135.5t-32 -135.5t-91 -89t-137 -31.5t-137 31.5zM404 248q0 71 -28.5 106t-81.5 35q-110 0 -110 -141t110 -141t110 141zM145 605q-21 20 -21 52t21 51t54 19t54 -19t21 -51
t-20.5 -52t-54.5 -20q-33 0 -54 20zM335.5 605q-20.5 20 -20.5 52t20.5 51t53.5 19t54 -19t21 -51t-21 -52t-54 -20t-53.5 20zM137 811.5q-14 12.5 -14 34.5t14 34.5t36 12.5h242q22 0 36 -12.5t14 -34.5t-14 -34.5t-36 -12.5h-242q-22 0 -36 12.5z" />
    <glyph glyph-name="uni022C" unicode="&#x22c;" horiz-adv-x="787" 
d="M211.5 35.5q-77.5 44.5 -119.5 126t-42 191.5t42 191.5t119.5 125.5t182.5 44t182.5 -44t119.5 -125.5t42 -191.5t-42 -191.5t-119.5 -126t-182.5 -44.5t-182.5 44.5zM532.5 174q50.5 62 50.5 179t-50 178.5t-139 61.5t-138.5 -61.5t-49.5 -178.5t50 -179t138 -62
t138.5 62zM419.5 788q-25.5 7 -29.5 8q-45 15 -71 15q-11 0 -18 -4t-15 -12q-9 -9 -15.5 -13t-17.5 -4q-14 0 -22.5 9.5t-8.5 25.5q0 21 12.5 43t34.5 36.5t49 14.5q23 0 48.5 -7t29.5 -8q45 -15 71 -15q11 0 17.5 4t15.5 12q8 8 15 12t18 4q15 0 23 -9t8 -25
q0 -21 -12.5 -43t-34.5 -36.5t-49 -14.5q-23 0 -48.5 7zM236 968.5q-14 12.5 -14 34.5t14 34.5t36 12.5h242q22 0 36 -12.5t14 -34.5t-14 -34.5t-36 -12.5h-242q-22 0 -36 12.5z" />
    <glyph glyph-name="uni022D" unicode="&#x22d;" horiz-adv-x="588" 
d="M157 23.5q-59 31.5 -91 89t-32 135.5t32 135.5t91 88.5t137 31t137 -31t91 -88.5t32 -135.5t-32 -135.5t-91 -89t-137 -31.5t-137 31.5zM404 248q0 71 -28.5 106t-81.5 35q-110 0 -110 -141t110 -141t110 141zM331.5 589q-18.5 8 -42.5 22q-22 12 -35 17.5t-24 5.5
q-15 0 -24 -7t-21 -22q-9 -12 -15.5 -17.5t-17.5 -5.5q-13 0 -21 11t-8 28q0 21 12.5 47t34.5 44.5t49 18.5q18 0 35.5 -7.5t44.5 -22.5q20 -12 33.5 -18t25.5 -6q15 0 24 7t21 22q9 13 15.5 18.5t17.5 5.5q13 0 21 -11t8 -28q0 -21 -12.5 -47t-34.5 -44.5t-49 -18.5
q-19 0 -37.5 8zM137 811.5q-14 12.5 -14 34.5t14 34.5t36 12.5h242q22 0 36 -12.5t14 -34.5t-14 -34.5t-36 -12.5h-242q-22 0 -36 12.5z" />
    <glyph glyph-name="uni0230" unicode="&#x230;" horiz-adv-x="787" 
d="M211.5 35.5q-77.5 44.5 -119.5 126t-42 191.5t42 191.5t119.5 125.5t182.5 44t182.5 -44t119.5 -125.5t42 -191.5t-42 -191.5t-119.5 -126t-182.5 -44.5t-182.5 44.5zM532.5 174q50.5 62 50.5 179t-50 178.5t-139 61.5t-138.5 -61.5t-49.5 -178.5t50 -179t138 -62
t138.5 62zM330 788.5q-23 20.5 -23 55.5t23 55t63 20q39 0 62.5 -20.5t23.5 -54.5q0 -35 -23 -55.5t-63 -20.5t-63 20.5zM236 968.5q-14 12.5 -14 34.5t14 34.5t36 12.5h242q22 0 36 -12.5t14 -34.5t-14 -34.5t-36 -12.5h-242q-22 0 -36 12.5z" />
    <glyph glyph-name="uni0231" unicode="&#x231;" horiz-adv-x="588" 
d="M157 23.5q-59 31.5 -91 89t-32 135.5t32 135.5t91 88.5t137 31t137 -31t91 -88.5t32 -135.5t-32 -135.5t-91 -89t-137 -31.5t-137 31.5zM404 248q0 71 -28.5 106t-81.5 35q-110 0 -110 -141t110 -141t110 141zM231 601.5q-23 20.5 -23 55.5t23 55t63 20q39 0 62.5 -20.5
t23.5 -54.5q0 -35 -23 -55.5t-63 -20.5t-63 20.5zM137 811.5q-14 12.5 -14 34.5t14 34.5t36 12.5h242q22 0 36 -12.5t14 -34.5t-14 -34.5t-36 -12.5h-242q-22 0 -36 12.5z" />
    <glyph glyph-name="uni0232" unicode="&#x232;" horiz-adv-x="636" 
d="M561 711q28 0 50.5 -21.5t22.5 -49.5q0 -25 -19 -47l-219 -260v-261q0 -38 -22 -58t-55 -20q-35 0 -57 20t-22 58v261l-217 260q-19 20 -19 47q0 28 21.5 49.5t49.5 21.5q30 0 52 -26l191 -233l191 233q22 26 52 26zM161 808.5q-14 12.5 -14 34.5t14 34.5t36 12.5h242
q22 0 36 -12.5t14 -34.5t-14 -34.5t-36 -12.5h-242q-22 0 -36 12.5z" />
    <glyph glyph-name="uni0233" unicode="&#x233;" horiz-adv-x="534" 
d="M418.5 489q16.5 10 35.5 10q29 0 51 -18.5t22 -44.5q0 -14 -7 -28l-269 -552q-10 -21 -27 -31.5t-36 -10.5q-28 0 -49 18t-21 44q0 16 7 30l66 137l-178 365q-6 14 -6 27q0 27 23.5 46t53.5 19q20 0 37 -10.5t27 -31.5l124 -270l121 270q9 21 25.5 31zM110 621.5
q-14 12.5 -14 34.5t14 34.5t36 12.5h242q22 0 36 -12.5t14 -34.5t-14 -34.5t-36 -12.5h-242q-22 0 -36 12.5z" />
    <glyph glyph-name="uni0237" unicode="&#x237;" horiz-adv-x="267" 
d="M-59 -170.5q-24 14.5 -24 44.5q0 49 59 53l28 2q26 2 40 17.5t14 45.5v438q0 35 22 53t54 18t53.5 -18t21.5 -53v-427q0 -170 -174 -183l-28 -2q-42 -3 -66 11.5z" />
    <glyph glyph-name="uni0259" unicode="&#x259;" horiz-adv-x="533" 
d="M377.5 472q58.5 -31 90 -89t31.5 -135q0 -73 -30.5 -131.5t-84 -91.5t-120.5 -33q-108 0 -169.5 64t-61.5 176q0 22 10 34t29 12h283q-7 58 -36.5 85t-83.5 27q-27 0 -49.5 -7t-50.5 -19q-14 -6 -27 -10.5t-23 -4.5q-20 0 -32.5 15.5t-12.5 40.5q0 37 38 57
q35 18 79.5 29.5t84.5 11.5q77 0 135.5 -31zM324.5 123.5q25.5 27.5 30.5 78.5h-191q8 -106 94 -106q41 0 66.5 27.5z" />
    <glyph glyph-name="uni02BB" unicode="&#x2bb;" horiz-adv-x="300" 
d="M204 688q20 -15 20 -43q0 -30 -20.5 -48t-51.5 -18q-38 0 -60.5 22.5t-22.5 66.5q0 32 10 59t26 46q15 18 40 18q14 0 24 -7t10 -19q0 -11 -8 -20q-15 -21 -20 -42h5q28 0 48 -15z" />
    <glyph glyph-name="uni02BC" unicode="&#x2bc;" horiz-adv-x="300" 
d="M201.5 739q22.5 -23 22.5 -67q0 -31 -10 -58t-26 -46q-15 -18 -40 -18q-14 0 -24 7t-10 19q0 9 8 20q17 25 20 41h-5q-28 0 -48 15.5t-20 42.5q0 30 20.5 48.5t51.5 18.5q38 0 60.5 -23z" />
    <glyph glyph-name="uni02BE" unicode="&#x2be;" horiz-adv-x="300" 
d="M150 612q19 0 31 13t12 33q0 19 -12 32t-31 13v62q46 0 77.5 -31t31.5 -76q0 -46 -31.5 -77t-77.5 -31v62z" />
    <glyph glyph-name="uni02BF" unicode="&#x2bf;" horiz-adv-x="300" 
d="M72.5 581q-31.5 31 -31.5 77q0 45 31.5 76t77.5 31v-62q-19 0 -31 -13t-12 -32q0 -20 12 -33t31 -13v-62q-46 0 -77.5 31z" />
    <glyph glyph-name="circumflex" unicode="&#x2c6;" horiz-adv-x="300" 
d="M44 550q-19 0 -33 13t-14 31q0 16 11 30l84 108q14 17 26.5 24.5t31.5 7.5t31.5 -7.5t26.5 -25.5l84 -107q11 -14 11 -29q0 -18 -14.5 -31.5t-32.5 -13.5q-24 0 -40 23l-66 98l-66 -98q-16 -23 -40 -23z" />
    <glyph glyph-name="caron" unicode="&#x2c7;" horiz-adv-x="300" 
d="M119 557.5q-12 7.5 -27 25.5l-84 107q-11 14 -11 30q0 18 14 31t33 13q25 0 40 -23l66 -97l66 97q15 23 40 23q19 0 33 -13t14 -31q0 -16 -11 -30l-84 -108q-14 -17 -27 -24.5t-31 -7.5q-19 0 -31 7.5z" />
    <glyph glyph-name="uni02C8" unicode="&#x2c8;" horiz-adv-x="300" 
d="M115.5 564q-12.5 14 -12.5 36v114q0 22 12.5 36t34.5 14t34.5 -14t12.5 -36v-114q0 -22 -12.5 -36t-34.5 -14t-34.5 14z" />
    <glyph glyph-name="uni02C9" unicode="&#x2c9;" horiz-adv-x="300" 
d="M-7 621.5q-14 12.5 -14 34.5t14 34.5t36 12.5h242q22 0 36 -12.5t14 -34.5t-14 -34.5t-36 -12.5h-242q-22 0 -36 12.5z" />
    <glyph glyph-name="uni02CA" unicode="&#x2ca;" horiz-adv-x="300" 
d="M153 550q-16 0 -27 11t-11 26q0 13 9 26l86 115q26 34 60 34q25 0 44 -18t19 -42q0 -30 -32 -54l-122 -89q-12 -9 -26 -9z" />
    <glyph glyph-name="uni02CB" unicode="&#x2cb;" horiz-adv-x="300" 
d="M-1 648q-32 24 -32 54q0 25 18.5 42.5t44.5 17.5q36 0 60 -34l86 -115q9 -13 9 -26q0 -16 -11 -27t-27 -11q-13 0 -26 10z" />
    <glyph glyph-name="uni02CC" unicode="&#x2cc;" horiz-adv-x="300" 
d="M115.5 -261q-12.5 14 -12.5 36v115q0 22 12.5 36t34.5 14t34.5 -14t12.5 -36v-115q0 -22 -12.5 -36t-34.5 -14t-34.5 14z" />
    <glyph glyph-name="breve" unicode="&#x2d8;" horiz-adv-x="300" 
d="M43.5 604q-48.5 31 -66.5 81q-3 9 -3 18q0 18 12.5 29.5t29.5 11.5q23 0 38 -22q33 -52 96 -52t96 52q7 11 17.5 16.5t20.5 5.5q17 0 30 -11.5t13 -29.5q0 -6 -4 -18q-18 -50 -66.5 -81t-106.5 -31t-106.5 31z" />
    <glyph glyph-name="dotaccent" unicode="&#x2d9;" horiz-adv-x="300" 
d="M87 601.5q-23 20.5 -23 55.5t23 55t63 20q39 0 62.5 -20.5t23.5 -54.5q0 -35 -23 -55.5t-63 -20.5t-63 20.5z" />
    <glyph glyph-name="ring" unicode="&#x2da;" horiz-adv-x="300" 
d="M72.5 581q-31.5 31 -31.5 77q0 45 31.5 76t77.5 31t77.5 -31t31.5 -76q0 -46 -31.5 -77t-77.5 -31t-77.5 31zM181 625q12 13 12 33q0 19 -12 32t-31 13t-31 -13t-12 -32q0 -20 12 -33t31 -13t31 13z" />
    <glyph glyph-name="ogonek" unicode="&#x2db;" horiz-adv-x="300" 
d="M19.5 -166.5q-36.5 30.5 -36.5 79.5q0 51 38.5 87.5t111.5 45.5l17 -36q-70 -20 -70 -75q0 -25 15 -39.5t38 -14.5q15 0 48 9q3 1 9 1q12 0 19 -10t7 -23q0 -22 -17 -32q-39 -23 -88 -23q-55 0 -91.5 30.5z" />
    <glyph glyph-name="tilde" unicode="&#x2dc;" horiz-adv-x="300" 
d="M187.5 589q-18.5 8 -42.5 22q-22 12 -35 17.5t-24 5.5q-15 0 -24 -7t-21 -22q-9 -12 -15.5 -17.5t-17.5 -5.5q-13 0 -21 11t-8 28q0 21 12.5 47t34.5 44.5t49 18.5q18 0 35.5 -7.5t44.5 -22.5q20 -12 33.5 -18t25.5 -6q15 0 24 7t21 22q9 13 15.5 18.5t17.5 5.5
q13 0 21 -11t8 -28q0 -21 -12.5 -47t-34.5 -44.5t-49 -18.5q-19 0 -37.5 8z" />
    <glyph glyph-name="hungarumlaut" unicode="&#x2dd;" horiz-adv-x="300" 
d="M81 549q-13 0 -23 9.5t-10 23.5q0 6 1 9l25 121q6 27 21.5 40.5t35.5 13.5q21 0 37 -14t16 -36q0 -17 -10 -34l-62 -114q-12 -19 -31 -19zM219 549q-13 0 -23 9.5t-10 23.5q0 6 1 9l26 121q6 27 21.5 40.5t35.5 13.5q21 0 37 -14t16 -36q0 -17 -10 -34l-63 -114
q-10 -19 -31 -19z" />
    <glyph glyph-name="gravecomb" unicode="&#x300;" horiz-adv-x="0" 
d="M-301 648q-32 24 -32 54q0 25 18.5 42.5t44.5 17.5q36 0 60 -34l86 -115q9 -13 9 -26q0 -16 -11 -27t-27 -11q-13 0 -26 10z" />
    <glyph glyph-name="acutecomb" unicode="&#x301;" horiz-adv-x="0" 
d="M-147 550q-16 0 -27 11t-11 26q0 13 9 26l86 115q25 34 60 34q25 0 44 -18t19 -42q0 -30 -32 -54l-122 -89q-12 -9 -26 -9z" />
    <glyph glyph-name="uni0302" unicode="&#x302;" horiz-adv-x="0" 
d="M-256 550q-19 0 -33 13t-14 31q0 16 11 30l84 108q14 17 26.5 24.5t31.5 7.5t31.5 -7.5t26.5 -25.5l84 -107q11 -14 11 -29q0 -18 -14.5 -31.5t-32.5 -13.5q-24 0 -40 23l-66 98l-66 -98q-16 -23 -40 -23z" />
    <glyph glyph-name="tildecomb" unicode="&#x303;" horiz-adv-x="0" 
d="M-112.5 589q-18.5 8 -42.5 22q-22 12 -35 17.5t-24 5.5q-15 0 -24 -7t-21 -22q-9 -12 -15.5 -17.5t-17.5 -5.5q-13 0 -21 11t-8 28q0 21 12.5 47t34.5 44.5t49 18.5q18 0 35.5 -7.5t44.5 -22.5q20 -12 33.5 -18t25.5 -6q15 0 24 7t21 22q9 13 15.5 18.5t17.5 5.5
q13 0 21 -11t8 -28q0 -21 -12.5 -47t-34.5 -44.5t-49 -18.5q-19 0 -37.5 8z" />
    <glyph glyph-name="uni0304" unicode="&#x304;" horiz-adv-x="0" 
d="M-307 621.5q-14 12.5 -14 34.5t14 34.5t36 12.5h242q22 0 36 -12.5t14 -34.5t-14 -34.5t-36 -12.5h-242q-22 0 -36 12.5z" />
    <glyph glyph-name="uni0306" unicode="&#x306;" horiz-adv-x="0" 
d="M-256.5 604q-48.5 31 -66.5 81q-3 9 -3 18q0 18 12.5 29.5t29.5 11.5q23 0 38 -22q33 -52 96 -52t96 52q7 11 17.5 16.5t20.5 5.5q17 0 30 -11.5t13 -29.5q0 -6 -4 -18q-18 -50 -66.5 -81t-106.5 -31t-106.5 31z" />
    <glyph glyph-name="uni0307" unicode="&#x307;" horiz-adv-x="0" 
d="M-213 601.5q-23 20.5 -23 55.5t23 55t63 20q39 0 62.5 -20.5t23.5 -54.5q0 -35 -23 -55.5t-63 -20.5t-63 20.5z" />
    <glyph glyph-name="uni0308" unicode="&#x308;" horiz-adv-x="0" 
d="M-299 605q-21 20 -21 52t21 51t54 19t54 -19t21 -51t-20.5 -52t-54.5 -20q-33 0 -54 20zM-108.5 605q-20.5 20 -20.5 52t20.5 51t53.5 19t54 -19t21 -51t-21 -52t-54 -20t-53.5 20z" />
    <glyph glyph-name="hookabovecomb" unicode="&#x309;" horiz-adv-x="0" 
d="M-124.5 555.5q-11.5 -8.5 -25.5 -8.5q-15 0 -25.5 9.5t-10.5 25.5q0 20 9.5 33t26.5 28q11 9 16.5 16t5.5 14q0 23 -31 23q-15 0 -29 -3.5t-17 -4.5q-13 -4 -22 6.5t-9 25.5q0 10 5 18t15 12q34 12 70 12q55 0 85.5 -21.5t30.5 -53.5q0 -24 -11.5 -38t-34.5 -31
q-16 -11 -24.5 -20t-10.5 -20q-2 -14 -13.5 -22.5z" />
    <glyph glyph-name="uni030A" unicode="&#x30a;" horiz-adv-x="0" 
d="M-227.5 581q-31.5 31 -31.5 77q0 45 31.5 76t77.5 31t77.5 -31t31.5 -76q0 -46 -31.5 -77t-77.5 -31t-77.5 31zM-119 625q12 13 12 33q0 19 -12 32t-31 13t-31 -13t-12 -32q0 -20 12 -33t31 -13t31 13z" />
    <glyph glyph-name="uni030B" unicode="&#x30b;" horiz-adv-x="0" 
d="M-219 549q-13 0 -23 9.5t-10 23.5q0 6 1 9l25 121q6 27 21.5 40.5t35.5 13.5q21 0 37 -14t16 -36q0 -17 -10 -34l-62 -114q-12 -19 -31 -19zM-81 549q-13 0 -23 9.5t-10 23.5q0 6 1 9l26 121q6 27 21.5 40.5t35.5 13.5q21 0 37 -14t16 -36q0 -17 -10 -34l-63 -114
q-10 -19 -31 -19z" />
    <glyph glyph-name="uni030C" unicode="&#x30c;" horiz-adv-x="0" 
d="M-181 557.5q-12 7.5 -27 25.5l-84 107q-11 14 -11 30q0 18 14 31t33 13q25 0 40 -23l66 -97l66 97q15 23 40 23q19 0 33 -13t14 -31q0 -16 -11 -30l-84 -108q-14 -17 -27 -24.5t-31 -7.5q-19 0 -31 7.5z" />
    <glyph glyph-name="uni030F" unicode="&#x30f;" horiz-adv-x="0" 
d="M-313 682q-10 19 -10 35q0 22 16 35.5t37 13.5q20 0 35.5 -13.5t21.5 -40.5l26 -121q1 -3 1 -8q0 -15 -10 -24.5t-23 -9.5q-19 0 -31 19zM-174 682q-10 19 -10 35q0 22 16 35.5t37 13.5q20 0 35.5 -13.5t21.5 -40.5l25 -121q1 -3 1 -9q0 -14 -10 -23.5t-23 -9.5
q-19 0 -31 19z" />
    <glyph glyph-name="uni0311" unicode="&#x311;" horiz-adv-x="0" 
d="M-263.5 581.5q-10.5 -5.5 -20.5 -5.5q-17 0 -30 11.5t-13 29.5q0 6 4 18q18 50 66.5 81.5t106.5 31.5t106.5 -31.5t66.5 -81.5q3 -9 3 -18q0 -18 -12.5 -29.5t-29.5 -11.5q-23 0 -38 22q-33 52 -96 52t-96 -52q-7 -11 -17.5 -16.5z" />
    <glyph glyph-name="uni0312" unicode="&#x312;" horiz-adv-x="0" 
d="M-96 688q20 -15 20 -43q0 -30 -20.5 -48t-51.5 -18q-38 0 -60.5 22.5t-22.5 66.5q0 32 10 59t26 46q15 18 40 18q14 0 24 -7t10 -19q0 -11 -8 -20q-15 -21 -20 -42h5q28 0 48 -15z" />
    <glyph glyph-name="uni031B" unicode="&#x31b;" horiz-adv-x="0" 
d="M-150 477v18q46 0 64.5 15t22.5 54q4 36 22.5 51.5t51.5 15.5q31 0 45.5 -15t14.5 -49q0 -54 -36.5 -96t-95.5 -49z" />
    <glyph glyph-name="dotbelowcomb" unicode="&#x323;" horiz-adv-x="0" 
d="M-203.5 -184q-20.5 20 -20.5 52t20.5 51t53.5 19t53.5 -19t20.5 -51t-20.5 -52t-53.5 -20t-53.5 20z" />
    <glyph glyph-name="uni0324" unicode="&#x324;" horiz-adv-x="0" 
d="M-299 -184q-21 20 -21 52t21 51t54 19t54 -19t21 -51t-20.5 -52t-54.5 -20q-33 0 -54 20zM-108.5 -184q-20.5 20 -20.5 52t20.5 51t53.5 19t54 -19t21 -51t-21 -52t-54 -20t-53.5 20z" />
    <glyph glyph-name="uni0326" unicode="&#x326;" horiz-adv-x="0" 
d="M-91.5 -83q22.5 -23 22.5 -67q0 -32 -10 -59t-26 -45q-8 -9 -19 -14t-21 -5q-15 0 -24.5 7t-9.5 19q0 11 8 20q16 24 20 42h-5q-28 0 -48 15.5t-20 42.5q0 30 20.5 48.5t51.5 18.5q38 0 60.5 -23z" />
    <glyph glyph-name="uni0327" unicode="&#x327;" horiz-adv-x="0" 
d="M-50.5 -59q21.5 -19 21.5 -50q0 -39 -35 -63.5t-100 -24.5q-42 0 -71 10q-20 7 -20 30q0 14 9 24t22 6q34 -8 56 -8q46 0 46 26q0 9 -6.5 14t-17.5 5q-9 0 -23 -3t-21 -3q-10 0 -15.5 5.5t-4.5 15.5l12 95h81l-8 -62q16 2 22 2q31 0 52.5 -19z" />
    <glyph glyph-name="uni0328" unicode="&#x328;" horiz-adv-x="0" 
d="M-280.5 -166.5q-36.5 30.5 -36.5 79.5q0 51 38.5 87.5t111.5 45.5l17 -36q-70 -20 -70 -75q0 -25 15 -39.5t38 -14.5q15 0 48 9q3 1 9 1q12 0 19 -10t7 -23q0 -22 -17 -32q-39 -23 -88 -23q-55 0 -91.5 30.5z" />
    <glyph glyph-name="uni032E" unicode="&#x32e;" horiz-adv-x="0" 
d="M-257 -197q-48 30 -66 78q-4 9 -4 19q0 18 12 29t29 11q24 0 40 -22q33 -47 96 -47t96 47q16 22 39 22q17 0 29.5 -11.5t12.5 -28.5q0 -10 -4 -19q-18 -48 -66 -78t-107 -30t-107 30z" />
    <glyph glyph-name="uni0331" unicode="&#x331;" horiz-adv-x="0" 
d="M-307 -165.5q-14 11.5 -14 32.5q0 20 14 32t36 12h242q22 0 36 -12t14 -32q0 -21 -14 -32.5t-36 -11.5h-242q-22 0 -36 11.5z" />
    <glyph glyph-name="uni0335" unicode="&#x335;" horiz-adv-x="0" 
d="M-307 217.5q-14 11.5 -14 30.5t14 30.5t36 11.5h242q22 0 36 -11.5t14 -30.5t-14 -30.5t-36 -11.5h-242q-22 0 -36 11.5z" />
    <glyph glyph-name="uni0394" unicode="&#x394;" horiz-adv-x="751" 
d="M734 63q0 -28 -21.5 -45.5t-49.5 -17.5h-573q-29 0 -51 17.5t-22 45.5q0 13 8 32l270 567q11 24 32.5 36.5t47.5 12.5t48 -13t34 -36l270 -567q7 -14 7 -32zM377 538l-184 -410h367z" />
    <glyph glyph-name="Sigma" unicode="&#x3a3;" horiz-adv-x="605" 
d="M571 -117q0 -63 -73 -63h-399q-31 0 -49.5 18.5t-18.5 46.5t20 56l231 322l-231 321q-20 26 -20 56q0 28 18.5 46.5t49.5 18.5h399q73 0 73 -63q0 -62 -73 -62h-276l184 -253q25 -34 25 -63q0 -30 -26 -65l-183 -254h276q73 0 73 -62z" />
    <glyph glyph-name="uni03A9" unicode="&#x3a9;" horiz-adv-x="812" 
d="M765 63q0 -63 -73 -63h-183q-30 0 -48 18t-18 46q0 27 18 57q87 144 117.5 211t30.5 114q0 71 -52.5 109t-150.5 38t-150.5 -38t-52.5 -109q0 -48 31 -116t117 -209q18 -30 18 -57q0 -28 -18 -46t-48 -18h-183q-73 0 -73 63q0 62 73 62h92q-68 91 -103 146.5t-48.5 96
t-13.5 83.5q0 81 43 140.5t124 91.5t192 32q109 0 190 -32.5t125 -92t44 -139.5q0 -43 -14 -83.5t-49 -96.5t-103 -146h93q73 0 73 -62z" />
    <glyph glyph-name="uni03BC" unicode="&#x3bc;" horiz-adv-x="589" 
d="M510.5 482q20.5 -19 20.5 -52v-367q0 -31 -21.5 -50t-55.5 -19q-32 0 -51 18t-19 48v10q-23 -38 -60.5 -58t-84.5 -20q-13 0 -33 2v-110q0 -31 -21.5 -50t-55.5 -19t-54 18t-20 48v549q0 33 20.5 52t55.5 19t55 -19t20 -52v-234q0 -44 18.5 -65t56.5 -21q44 0 71.5 30
t27.5 79v211q0 33 20 52t55 19t55.5 -19z" />
    <glyph glyph-name="pi" unicode="&#x3c0;" horiz-adv-x="616" 
d="M605 88.5q14 -13.5 14 -37.5q0 -30 -24 -44.5t-65 -11.5l-28 2q-175 13 -175 183v198h-74q-2 -98 -14 -179.5t-37 -155.5q-9 -25 -29.5 -37.5t-45.5 -12.5q-30 0 -53 18t-23 48q0 10 3 22q20 75 33 146.5t17 150.5h-47q-67 0 -67 56q0 57 67 57h471q34 0 51 -15t17 -42
t-17 -41.5t-51 -14.5h-50v-209q0 -30 14 -45.5t41 -17.5l28 -2q30 -2 44 -15.5z" />
    <glyph glyph-name="uni1E08" unicode="&#x1e08;" horiz-adv-x="678" 
d="M393 760q-14 0 -24.5 9.5t-10.5 22.5t13 26l86 85q23 23 49 23q22 0 38.5 -16.5t16.5 -38.5q0 -15 -10 -29t-30 -24l-109 -54q-8 -4 -19 -4zM632.5 161.5q14.5 -18.5 14.5 -44.5q0 -18 -6.5 -30.5t-20.5 -23.5q-83 -64 -197 -71l-4 -34q16 2 22 2q31 0 52.5 -19t21.5 -50
q0 -39 -35 -63.5t-100 -24.5q-42 0 -71 10q-20 7 -20 30q0 14 9 24t22 6q34 -8 56 -8q46 0 46 26q0 9 -6.5 14t-17.5 5q-9 0 -23 -3t-21 -3q-10 0 -15.5 5.5t-4.5 15.5l9 69q-90 10 -156 57t-101.5 124t-35.5 178q0 110 42 191.5t120 125.5t182 44q131 0 226 -72
q15 -12 21 -24t6 -30q0 -26 -14.5 -44.5t-35.5 -18.5q-14 0 -24.5 3.5t-23.5 12.5q-40 26 -74 37.5t-73 11.5q-96 0 -144.5 -59.5t-48.5 -177.5q0 -238 193 -238q37 0 70 11.5t77 37.5q15 9 25 12.5t23 3.5q21 0 35.5 -18.5z" />
    <glyph glyph-name="uni1E09" unicode="&#x1e09;" horiz-adv-x="494" 
d="M297 550q-16 0 -27 11t-11 26q0 13 9 26l86 115q26 34 60 34q25 0 44 -18t19 -42q0 -30 -32 -54l-122 -89q-12 -9 -26 -9zM465.5 132q12.5 -17 12.5 -43q0 -37 -31 -55q-54 -35 -133 -41l-4 -35q16 2 22 2q31 0 52.5 -19t21.5 -50q0 -39 -35 -63.5t-100 -24.5
q-42 0 -71 10q-20 7 -20 30q0 14 9 24t22 6q34 -8 56 -8q46 0 46 26q0 9 -6.5 14t-17.5 5q-9 0 -23 -3t-21 -3q-10 0 -15.5 5.5t-4.5 15.5l9 71q-93 14 -146.5 80.5t-53.5 168.5q0 77 32.5 135.5t91.5 90.5t136 32q40 0 80.5 -11t72.5 -31q31 -19 31 -56q0 -26 -12 -42.5
t-32 -16.5q-13 0 -24.5 4.5t-30.5 13.5q-21 11 -37.5 17t-37.5 6q-56 0 -85.5 -35.5t-29.5 -103.5t29.5 -104t85.5 -36q21 0 37 5.5t39 17.5q19 9 30 13.5t24 4.5q19 0 31.5 -17z" />
    <glyph glyph-name="uni1E0C" unicode="&#x1e0c;" horiz-adv-x="763" 
d="M89 19q-19 19 -19 54v559q0 35 19 54t54 19h201q115 0 198 -42t127 -121t44 -189t-43.5 -189.5t-126.5 -121.5t-199 -42h-201q-35 0 -54 19zM333 126q225 0 225 227q0 226 -225 226h-107v-453h107zM327.5 -184q-20.5 20 -20.5 52t20.5 51t53.5 19t53.5 -19t20.5 -51
t-20.5 -52t-53.5 -20t-53.5 20z" />
    <glyph glyph-name="uni1E0D" unicode="&#x1e0d;" horiz-adv-x="613" 
d="M533.5 691q21.5 -19 21.5 -50v-576q0 -32 -20.5 -51.5t-54.5 -19.5t-54.5 19.5t-20.5 51.5v8q-22 -38 -62.5 -59.5t-91.5 -21.5q-63 0 -112.5 32.5t-77 91t-27.5 134.5t27.5 133.5t76.5 88.5t113 31q50 0 90.5 -21t62.5 -59v221q0 30 20 48t53 18q35 0 56.5 -19z
M376.5 143.5q28.5 36.5 28.5 104.5t-28.5 104t-81.5 36t-82 -35.5t-29 -102.5q0 -68 29 -105.5t82 -37.5t81.5 36.5zM253.5 -184q-20.5 20 -20.5 52t20.5 51t53.5 19t53.5 -19t20.5 -51t-20.5 -52t-53.5 -20t-53.5 20z" />
    <glyph glyph-name="uni1E0E" unicode="&#x1e0e;" horiz-adv-x="763" 
d="M89 19q-19 19 -19 54v559q0 35 19 54t54 19h201q115 0 198 -42t127 -121t44 -189t-43.5 -189.5t-126.5 -121.5t-199 -42h-201q-35 0 -54 19zM333 126q225 0 225 227q0 226 -225 226h-107v-453h107zM224 -165.5q-14 11.5 -14 32.5q0 20 14 32t36 12h242q22 0 36 -12
t14 -32q0 -21 -14 -32.5t-36 -11.5h-242q-22 0 -36 11.5z" />
    <glyph glyph-name="uni1E0F" unicode="&#x1e0f;" horiz-adv-x="613" 
d="M533.5 691q21.5 -19 21.5 -50v-576q0 -32 -20.5 -51.5t-54.5 -19.5t-54.5 19.5t-20.5 51.5v8q-22 -38 -62.5 -59.5t-91.5 -21.5q-63 0 -112.5 32.5t-77 91t-27.5 134.5t27.5 133.5t76.5 88.5t113 31q50 0 90.5 -21t62.5 -59v221q0 30 20 48t53 18q35 0 56.5 -19z
M376.5 143.5q28.5 36.5 28.5 104.5t-28.5 104t-81.5 36t-82 -35.5t-29 -102.5q0 -68 29 -105.5t82 -37.5t81.5 36.5zM150 -165.5q-14 11.5 -14 32.5q0 20 14 32t36 12h242q22 0 36 -12t14 -32q0 -21 -14 -32.5t-36 -11.5h-242q-22 0 -36 11.5z" />
    <glyph glyph-name="uni1E14" unicode="&#x1e14;" horiz-adv-x="593" 
d="M89 19q-19 19 -19 54v559q0 35 19 54t54 19h354q74 0 74 -60q0 -61 -74 -61h-275v-165h255q74 0 74 -61q0 -60 -74 -60h-255v-177h275q74 0 74 -61q0 -60 -74 -60h-354q-35 0 -54 19zM174 808.5q-14 12.5 -14 34.5t14 34.5t36 12.5h242q22 0 36 -12.5t14 -34.5t-14 -34.5
t-36 -12.5h-242q-22 0 -36 12.5zM204 978q-40 19 -40 54q0 21 16 37.5t39 16.5q26 0 49 -23l86 -85q12 -11 12 -26q0 -14 -10 -23t-25 -9q-10 0 -18 4z" />
    <glyph glyph-name="uni1E15" unicode="&#x1e15;" horiz-adv-x="533" 
d="M484.5 130q12.5 -16 12.5 -41q0 -17 -10 -31.5t-28 -24.5q-34 -18 -79 -29.5t-83 -11.5q-80 0 -139.5 31t-91.5 88.5t-32 135.5q0 75 31 133t86 90.5t125 32.5q67 0 117.5 -29.5t78.5 -84t28 -127.5q0 -22 -10.5 -33.5t-29.5 -11.5h-280q7 -59 36 -85.5t83 -26.5
q29 0 52 7t51 19q14 6 27 10.5t23 4.5q20 0 32.5 -16zM211 371.5q-26 -27.5 -31 -79.5h193q-3 53 -26.5 80t-66.5 27t-69 -27.5zM119 621.5q-14 12.5 -14 34.5t14 34.5t36 12.5h242q22 0 36 -12.5t14 -34.5t-14 -34.5t-36 -12.5h-242q-22 0 -36 12.5zM125 838q-32 24 -32 54
q0 25 18.5 42.5t44.5 17.5q36 0 60 -34l86 -115q9 -13 9 -26q0 -16 -11 -27t-27 -11q-13 0 -26 10z" />
    <glyph glyph-name="uni1E16" unicode="&#x1e16;" horiz-adv-x="593" 
d="M89 19q-19 19 -19 54v559q0 35 19 54t54 19h354q74 0 74 -60q0 -61 -74 -61h-275v-165h255q74 0 74 -61q0 -60 -74 -60h-255v-177h275q74 0 74 -61q0 -60 -74 -60h-354q-35 0 -54 19zM174 808.5q-14 12.5 -14 34.5t14 34.5t36 12.5h242q22 0 36 -12.5t14 -34.5t-14 -34.5
t-36 -12.5h-242q-22 0 -36 12.5zM330 920q-14 0 -24.5 9.5t-10.5 22.5t13 26l86 85q23 23 49 23q22 0 38.5 -16.5t16.5 -38.5q0 -15 -10 -29t-30 -24l-109 -54q-8 -4 -19 -4z" />
    <glyph glyph-name="uni1E17" unicode="&#x1e17;" horiz-adv-x="533" 
d="M484.5 130q12.5 -16 12.5 -41q0 -17 -10 -31.5t-28 -24.5q-34 -18 -79 -29.5t-83 -11.5q-80 0 -139.5 31t-91.5 88.5t-32 135.5q0 75 31 133t86 90.5t125 32.5q67 0 117.5 -29.5t78.5 -84t28 -127.5q0 -22 -10.5 -33.5t-29.5 -11.5h-280q7 -59 36 -85.5t83 -26.5
q29 0 52 7t51 19q14 6 27 10.5t23 4.5q20 0 32.5 -16zM211 371.5q-26 -27.5 -31 -79.5h193q-3 53 -26.5 80t-66.5 27t-69 -27.5zM119 621.5q-14 12.5 -14 34.5t14 34.5t36 12.5h242q22 0 36 -12.5t14 -34.5t-14 -34.5t-36 -12.5h-242q-22 0 -36 12.5zM279 740q-16 0 -27 11
t-11 26q0 13 9 26l86 115q25 34 60 34q25 0 44 -18t19 -42q0 -30 -32 -54l-122 -89q-12 -9 -26 -9z" />
    <glyph glyph-name="uni1E1C" unicode="&#x1e1c;" horiz-adv-x="593" 
d="M228.5 794q-44.5 21 -63.5 56q-8 16 -8 27q0 15 11.5 25.5t27.5 10.5q21 0 38 -17q16 -16 42 -24.5t55 -8.5t55 8.5t42 24.5q17 16 38 16q16 0 27.5 -10t11.5 -26q0 -10 -8 -26q-19 -35 -63.5 -56t-102.5 -21t-102.5 21zM571 60q0 -60 -74 -60h-136l-5 -42q16 2 22 2
q31 0 52.5 -19t21.5 -50q0 -39 -35 -63.5t-100 -24.5q-42 0 -71 10q-20 7 -20 30q0 14 9 24t22 6q34 -8 56 -8q46 0 46 26q0 9 -6.5 14t-17.5 5q-9 0 -23 -3t-21 -3q-10 0 -15.5 5.5t-4.5 15.5l9 75h-137q-35 0 -54 19t-19 54v559q0 35 19 54t54 19h354q74 0 74 -60
q0 -61 -74 -61h-275v-165h255q74 0 74 -61q0 -60 -74 -60h-255v-177h275q74 0 74 -61z" />
    <glyph glyph-name="uni1E1D" unicode="&#x1e1d;" horiz-adv-x="533" 
d="M169.5 604q-48.5 31 -66.5 81q-3 9 -3 18q0 18 12.5 29.5t29.5 11.5q23 0 38 -22q33 -52 96 -52t96 52q7 11 17.5 16.5t20.5 5.5q17 0 30 -11.5t13 -29.5q0 -6 -4 -18q-18 -50 -66.5 -81t-106.5 -31t-106.5 31zM484.5 130q12.5 -16 12.5 -41q0 -17 -10 -31.5t-28 -24.5
q-27 -15 -62.5 -25t-70.5 -14l-4 -36q16 2 22 2q31 0 52.5 -19t21.5 -50q0 -39 -35 -63.5t-100 -24.5q-42 0 -71 10q-20 7 -20 30q0 14 9 24t22 6q34 -8 56 -8q46 0 46 26q0 9 -6.5 14t-17.5 5q-9 0 -23 -3t-21 -3q-10 0 -15.5 5.5t-4.5 15.5l9 70q-99 14 -155.5 80.5
t-56.5 171.5q0 75 31 133t86 90.5t125 32.5q67 0 117.5 -29.5t78.5 -84t28 -127.5q0 -22 -10.5 -33.5t-29.5 -11.5h-280q7 -59 36 -85.5t83 -26.5q29 0 52 7t51 19q14 6 27 10.5t23 4.5q20 0 32.5 -16zM211 371.5q-26 -27.5 -31 -79.5h193q-3 53 -26.5 80t-66.5 27
t-69 -27.5z" />
    <glyph glyph-name="uni1E20" unicode="&#x1e20;" horiz-adv-x="738" 
d="M659.5 373.5q16.5 -15.5 16.5 -42.5v-195q0 -40 -6.5 -62t-22.5 -35t-48 -22q-39 -12 -89.5 -19t-95.5 -7q-112 0 -194 43.5t-126 125t-44 193.5q0 110 43.5 191.5t124.5 125.5t189 44q139 0 230 -72q15 -12 21 -24t6 -30q0 -26 -14.5 -44.5t-34.5 -18.5q-13 0 -23.5 4
t-25.5 13q-42 26 -77 37t-77 11q-204 0 -204 -237q0 -122 53 -182t160 -60q58 0 115 15v155h-92q-29 0 -45 14t-16 40t16 40t45 14h171q28 0 44.5 -15.5zM250 808.5q-14 12.5 -14 34.5t14 34.5t36 12.5h242q22 0 36 -12.5t14 -34.5t-14 -34.5t-36 -12.5h-242q-22 0 -36 12.5
z" />
    <glyph glyph-name="uni1E21" unicode="&#x1e21;" horiz-adv-x="617" 
d="M538.5 481.5q20.5 -19.5 20.5 -51.5v-377q0 -119 -69 -180t-202 -61q-112 0 -184 40q-18 10 -28 24.5t-10 32.5q0 25 12 41t32 16q11 0 26 -4.5t31 -10.5q32 -12 59 -19t58 -7q64 0 95 29t31 88v54q-21 -38 -63 -60t-94 -22q-64 0 -113.5 30t-77.5 85.5t-28 128.5
t28 128.5t77.5 86t113.5 30.5q51 0 92.5 -21.5t63.5 -59.5v10q0 32 20.5 50.5t54.5 18.5t54.5 -19.5zM379.5 163q29.5 34 29.5 95t-29.5 95.5t-82.5 34.5t-83 -34.5t-30 -95.5t30 -95t83 -34t82.5 34zM152 621.5q-14 12.5 -14 34.5t14 34.5t36 12.5h242q22 0 36 -12.5
t14 -34.5t-14 -34.5t-36 -12.5h-242q-22 0 -36 12.5z" />
    <glyph glyph-name="uni1E24" unicode="&#x1e24;" horiz-adv-x="771" 
d="M680 689q21 -21 21 -56v-561q0 -35 -21 -56.5t-56 -21.5t-55.5 21t-20.5 57v224h-325v-224q0 -35 -21 -56.5t-55 -21.5q-35 0 -56 21t-21 57v561q0 35 21 56t56 21t55.5 -21t20.5 -56v-213h325v213q0 35 20.5 56t55.5 21t56 -21zM332.5 -184q-20.5 20 -20.5 52t20.5 51
t53.5 19t53.5 -19t20.5 -51t-20.5 -52t-53.5 -20t-53.5 20z" />
    <glyph glyph-name="uni1E25" unicode="&#x1e25;" horiz-adv-x="595" 
d="M540 296v-231q0 -33 -20.5 -52t-55.5 -19t-55 19t-20 52v233q0 44 -18.5 65.5t-57.5 21.5q-47 0 -75.5 -30t-28.5 -80v-210q0 -33 -20 -52t-55 -19t-55.5 19t-20.5 52v576q0 31 21.5 50t56.5 19q33 0 53 -18t20 -48v-218q26 38 67 57.5t93 19.5q171 0 171 -207z
M245.5 -184q-20.5 20 -20.5 52t20.5 51t53.5 19t53.5 -19t20.5 -51t-20.5 -52t-53.5 -20t-53.5 20z" />
    <glyph glyph-name="uni1E2A" unicode="&#x1e2a;" horiz-adv-x="771" 
d="M680 689q21 -21 21 -56v-561q0 -35 -21 -56.5t-56 -21.5t-55.5 21t-20.5 57v224h-325v-224q0 -35 -21 -56.5t-55 -21.5q-35 0 -56 21t-21 57v561q0 35 21 56t56 21t55.5 -21t20.5 -56v-213h325v213q0 35 20.5 56t55.5 21t56 -21zM279 -197q-48 30 -66 78q-4 9 -4 19
q0 18 12 29t29 11q24 0 40 -22q33 -47 96 -47t96 47q16 22 39 22q17 0 29.5 -11.5t12.5 -28.5q0 -10 -4 -19q-18 -48 -66 -78t-107 -30t-107 30z" />
    <glyph glyph-name="uni1E2B" unicode="&#x1e2b;" horiz-adv-x="595" 
d="M540 296v-231q0 -33 -20.5 -52t-55.5 -19t-55 19t-20 52v233q0 44 -18.5 65.5t-57.5 21.5q-47 0 -75.5 -30t-28.5 -80v-210q0 -33 -20 -52t-55 -19t-55.5 19t-20.5 52v576q0 31 21.5 50t56.5 19q33 0 53 -18t20 -48v-218q26 38 67 57.5t93 19.5q171 0 171 -207zM192 -197
q-48 30 -66 78q-4 9 -4 19q0 18 12 29t29 11q24 0 40 -22q33 -47 96 -47t96 47q16 22 39 22q17 0 29.5 -11.5t12.5 -28.5q0 -10 -4 -19q-18 -48 -66 -78t-107 -30t-107 30z" />
    <glyph glyph-name="uni1E2E" unicode="&#x1e2e;" horiz-adv-x="296" 
d="M91 15q-21 21 -21 57v561q0 35 21 56t57 21t57 -21t21 -56v-561q0 -36 -21 -57t-57 -21t-57 21zM-1 792.5q-21 19.5 -21 51.5t21 51t54 19t54 -19t21 -51t-20.5 -51.5t-54.5 -19.5q-33 0 -54 19.5zM189.5 792.5q-20.5 19.5 -20.5 51.5t20.5 51t53.5 19t54 -19t21 -51
t-21 -51.5t-54 -19.5t-53.5 19.5zM147 920q-14 0 -24.5 9.5t-10.5 22.5t13 26l86 85q23 23 49 23q22 0 38.5 -16.5t16.5 -38.5q0 -15 -10 -29t-30 -24l-109 -54q-8 -4 -19 -4z" />
    <glyph glyph-name="uni1E2F" unicode="&#x1e2f;" horiz-adv-x="267" 
d="M79.5 12q-21.5 18 -21.5 53v365q0 35 22 53t54 18t53.5 -18t21.5 -53v-365q0 -35 -21.5 -53t-53.5 -18q-33 0 -54.5 18zM-15 605q-21 20 -21 52t21 51t54 19t54 -19t21 -51t-20.5 -52t-54.5 -20q-33 0 -54 20zM175.5 605q-20.5 20 -20.5 52t20.5 51t53.5 19t54 -19
t21 -51t-21 -52t-54 -20t-53.5 20zM137 740q-16 0 -27 11t-11 26q0 13 9 26l86 115q25 34 60 34q25 0 44 -18t19 -42q0 -30 -32 -54l-122 -89q-12 -9 -26 -9z" />
    <glyph glyph-name="uni1E36" unicode="&#x1e36;" horiz-adv-x="563" 
d="M89 19q-19 19 -19 54v560q0 35 21 56t57 21t57 -21t21 -56v-506h256q73 0 73 -64q0 -63 -73 -63h-339q-35 0 -54 19zM259.5 -184q-20.5 20 -20.5 52t20.5 51t53.5 19t53.5 -19t20.5 -51t-20.5 -52t-53.5 -20t-53.5 20z" />
    <glyph glyph-name="uni1E37" unicode="&#x1e37;" horiz-adv-x="267" 
d="M79.5 12q-21.5 18 -21.5 53v574q0 35 21.5 53t54.5 18q32 0 53.5 -18t21.5 -53v-574q0 -35 -21.5 -53t-53.5 -18q-33 0 -54.5 18zM80.5 -184q-20.5 20 -20.5 52t20.5 51t53.5 19t53.5 -19t20.5 -51t-20.5 -52t-53.5 -20t-53.5 20z" />
    <glyph glyph-name="uni1E3A" unicode="&#x1e3a;" horiz-adv-x="563" 
d="M89 19q-19 19 -19 54v560q0 35 21 56t57 21t57 -21t21 -56v-506h256q73 0 73 -64q0 -63 -73 -63h-339q-35 0 -54 19zM156 -165.5q-14 11.5 -14 32.5q0 20 14 32t36 12h242q22 0 36 -12t14 -32q0 -21 -14 -32.5t-36 -11.5h-242q-22 0 -36 11.5z" />
    </font>
</defs>
</svg>
